<?xml version="1.0" standalone="no"?>
<!DOCTYPE svg PUBLIC "-//W3C//DTD SVG 1.1//EN" "http://www.w3.org/Graphics/SVG/1.1/DTD/svg11.dtd" >
<svg xmlns="http://www.w3.org/2000/svg">
<metadata></metadata>
<defs>
<font id="crimson_textroman" horiz-adv-x="1153" >
<font-face units-per-em="2048" ascent="1484" descent="-564" />
<missing-glyph horiz-adv-x="503" />
<glyph horiz-adv-x="2048" />
<glyph horiz-adv-x="2048" />
<glyph unicode="&#xd;" horiz-adv-x="2048" />
<glyph unicode=" "  horiz-adv-x="503" />
<glyph unicode="&#x09;" horiz-adv-x="503" />
<glyph unicode="&#xa0;" horiz-adv-x="503" />
<glyph unicode="!" horiz-adv-x="559" d="M151 104q0 52 38.5 89t91.5 37q52 0 88.5 -36.5t36.5 -89.5q0 -52 -37 -91t-88 -39q-52 0 -91 39t-39 91zM174 1355q0 33 13 63.5t40.5 50.5t62.5 20q34 0 58 -21.5t34 -51t10 -61.5q0 -29 -9 -132t-31 -349t-41 -475q-5 -10 -9 -15.5t-11 -9.5t-17 -5q-22 9 -30 25 q-70 801 -70 961z" />
<glyph unicode="&#x22;" horiz-adv-x="649" d="M90 1459q0 25 9 53t24 52.5t38.5 41t49.5 16.5q21 0 34 -6.5t26 -23.5q0 -52 -11 -206.5t-21 -244.5q-5 -10 -19 -23.5t-27 -20.5q-14 0 -21 14q-43 147 -62.5 225.5t-19.5 122.5zM369 1459q0 25 8.5 53t23.5 52.5t38.5 41t50.5 16.5q20 0 33 -6.5t27 -23.5 q0 -52 -11 -206.5t-22 -244.5q-5 -10 -19 -23.5t-27 -20.5q-14 0 -21 14q-43 147 -62 225.5t-19 122.5z" />
<glyph unicode="#" horiz-adv-x="1113" d="M119.5 440.5q-0.5 23.5 10.5 52.5t25 34h149l53 329h-160q-13 0 -13.5 26.5t10 54.5t24.5 33h158l37 232q0 1 1 4q3 8 5 11.5t7 7.5t14 5.5t24 1.5q20 0 30 -7l-42 -255h297l37 232q5 14 7.5 18t12.5 8t32 4q19 0 30 -7l-42 -255h148q16 0 18 -25.5t-7.5 -53.5t-24.5 -35 h-150l-54 -329h156q21 0 16 -46q-6 -49 -28 -65q-2 -2 -4 -3h-158l-37 -234q-3 -10 -18 -20.5t-38 -10.5q-10 0 -16.5 2.5t-7.5 4.5l-2 3l42 255h-299l-37 -234q-3 -10 -17 -20.5t-37 -10.5q-6 0 -11 1t-7.5 2.5t-4 3l-2.5 2.5v1l42 255h-156q-12 4 -12.5 27.5zM380 527h297 l54 329h-297z" />
<glyph unicode="$" horiz-adv-x="1155" d="M118 383q7 7 26.5 12.5t31.5 5.5q20 0 26 -11q4 -20 9 -37.5t16.5 -49.5t28.5 -60.5t40 -59.5t57.5 -57t75.5 -42l95 575q-46 27 -73.5 43.5t-70.5 46.5t-70 53.5t-58.5 58t-49 67.5t-30 75t-12.5 87q0 86 37 161t98 125t139.5 78t161.5 28q47 0 65 -2l16 105 q82 0 82 -17l-17 -99q27 -6 87 -22.5t104 -26.5q8 -34 13 -71.5t7.5 -75t4 -65t2 -61t0.5 -43.5q-15 -9 -41 -9q-21 0 -33 12q-7 62 -51.5 136t-110.5 119l-88 -538q2 -1 5 -3l6 -4t5 -3q18 -11 58 -35.5t65 -40t63.5 -42.5t63 -49t53 -53.5t45.5 -61.5t28 -68.5t11 -78.5 q0 -72 -25 -136.5t-70 -113.5t-103.5 -85t-127.5 -54.5t-140 -18.5q-51 0 -77 2l-16 -100q-24 0 -52.5 5.5t-28.5 15.5l14 91q-53 8 -139.5 28t-101.5 23q-19 90 -36.5 204t-17.5 137zM339 1160.5q0 -34.5 7.5 -65.5t24 -57.5t34.5 -48.5t45.5 -44t51.5 -38t57 -37l88 527 q-41 9 -65 9q-56 0 -99.5 -15.5t-70 -40t-44 -58t-23.5 -65.5t-6 -66.5zM510 60q42 -4 68 -4q71 0 130.5 30t97.5 92.5t38 146.5q0 33 -6.5 62t-16 50.5t-29 43.5t-34.5 36t-44.5 33t-47.5 29l-54 30q-7 4 -11 6z" />
<glyph unicode="%" horiz-adv-x="1547" d="M93 1123q0 77 25.5 145.5t70.5 119t110.5 79.5t141.5 29q98 0 177 -51t121.5 -136t42.5 -186q0 -70 -24 -136t-67 -118t-108.5 -83.5t-141.5 -31.5q-95 0 -175 49.5t-126.5 134t-46.5 185.5zM148 -2l1119 1450q9 11 22.5 19.5t23.5 8.5q25 0 37.5 -2t16.5 -4t10 -10 t10 -12l-1120 -1448q-8 -9 -32.5 -18.5t-44.5 -9.5q-14 0 -24.5 6.5t-12 9.5t-5.5 10zM241 1151q0 -80 29 -158t79 -129.5t106 -51.5q48 0 83.5 26t54 70.5t27.5 93t9 102.5q0 80 -23 156t-69.5 128.5t-104.5 52.5q-50 0 -88 -26t-59.5 -68.5t-32.5 -92.5t-11 -103zM761 353 q0 61 16.5 117.5t47.5 103t73.5 80.5t97 53t115.5 19q99 0 177 -51t120 -136t42 -186q0 -56 -14.5 -110t-44 -100.5t-70 -82t-95.5 -56t-117 -20.5q-95 0 -175 49t-126.5 134t-46.5 186zM909 380q0 -47 11.5 -96t32 -92t46.5 -77t59 -53.5t67 -19.5q48 0 83 26t53.5 70 t27 92.5t8.5 103.5q0 80 -22.5 156t-68.5 128t-104 52q-49 0 -87.5 -25.5t-60.5 -68t-33.5 -92.5t-11.5 -104z" />
<glyph unicode="&#x26;" horiz-adv-x="1584" d="M123 367q0 64 22.5 122t56 101.5t87.5 86t103 72t116 63.5q-32 55 -49.5 88.5t-40.5 86.5t-33.5 106.5t-10.5 110.5q0 133 97.5 225.5t243.5 92.5q155 0 245.5 -68t90.5 -192q0 -44 -10.5 -85t-27 -75t-43.5 -68t-54.5 -60.5t-65 -55.5t-70 -51t-75.5 -48 q135 -229 344 -462q58 88 95 169t37 103q0 20 -21 29t-51.5 10.5t-32.5 1.5q-5 11 -4.5 29t7.5 25h183q28 0 60 1t57.5 2.5t65 4t72.5 3.5q5 -3 4 -34t-6 -31q-30 0 -85.5 -13.5t-74.5 -25.5q-3 -2 -33 -52.5t-88 -136t-120 -157.5q2 -3 8 -8q48 -50 70.5 -73t54 -51 t53 -38.5t41.5 -10.5q33 0 71 39t50 68q18 0 35.5 -14.5t17.5 -27.5q-6 -13 -12.5 -26t-29 -41.5t-48 -48.5t-69.5 -36.5t-94 -16.5q-38 0 -79.5 17t-73.5 42t-58.5 49.5t-41.5 41.5l-14 17q-88 -77 -200 -125.5t-222 -48.5q-206 0 -328 99.5t-122 274.5zM322 399 q0 -79 27.5 -139.5t74.5 -96t104.5 -53t123.5 -17.5q47 0 99.5 15t103.5 44.5t87 67.5q-67 68 -162 195t-157 220l-62 93q-36 -25 -53 -36.5t-48 -36t-46 -40.5t-36 -42.5t-31 -50.5t-17.5 -56t-7.5 -67zM543 1260q0 -81 30.5 -170t90.5 -197q59 35 97 63.5t70.5 68t47 89.5 t14.5 116q0 53 -19.5 100t-58.5 77.5t-89 30.5q-76 0 -129.5 -50t-53.5 -128z" />
<glyph unicode="'" horiz-adv-x="371" d="M90 1459q0 25 9 53t24 52.5t38.5 41t49.5 16.5q21 0 34 -6.5t26 -23.5q0 -52 -11 -206.5t-21 -244.5q-5 -10 -19 -23.5t-27 -20.5q-14 0 -21 14q-43 147 -62.5 225.5t-19.5 122.5z" />
<glyph unicode="(" horiz-adv-x="607" d="M86 661q0 166 34 317.5t96.5 276.5t146 228t187.5 185q7 -4 18.5 -15.5t19 -21t6.5 -9.5q-80 -71 -144.5 -180t-107 -236t-65 -267t-22.5 -278q0 -185 38.5 -367.5t116.5 -342t184 -253.5q1 0 -6.5 -9.5t-19 -21t-18.5 -15.5q-104 82 -187.5 185.5t-146 229.5 t-96.5 277.5t-34 316.5z" />
<glyph unicode=")" horiz-adv-x="607" d="M15 -302q106 94 184 253.5t116.5 342t38.5 367.5q0 186 -38.5 368t-116.5 340.5t-184 252.5q-1 0 6.5 9.5t19 21t18.5 15.5q104 -82 187.5 -185t146 -228t96.5 -276.5t34 -317.5q0 -165 -34 -316.5t-96.5 -277.5t-146 -229.5t-187.5 -185.5q-7 4 -18.5 15.5t-19 21 t-6.5 9.5z" />
<glyph unicode="*" horiz-adv-x="1027" d="M91 1060q-7 38 18 65t70 33q37 4 76 2t66 -7t62 -8t65 1q21 7 25 19q6 14 -4 32q-18 31 -46.5 62t-59.5 66t-54 76q-22 38 -19.5 75.5t33.5 54.5q35 17 66.5 2t51.5 -55q19 -43 29 -91t18 -91.5t25 -77.5q11 -23 23 -26q13 -2 30 14q20 22 37 50t28.5 51.5t31.5 55 t45 59.5q31 35 66.5 44t63.5 -16q27 -28 23 -64t-37 -66q-42 -38 -118 -78t-107 -70q-2 -3 -4 -6.5t-5.5 -12.5t-2.5 -14q3 -15 23 -23q38 -18 116.5 -31.5t131.5 -38.5q42 -18 62.5 -49.5t5.5 -63.5q-17 -35 -53.5 -42.5t-74.5 14.5q-32 18 -62.5 42.5t-50 45t-46 43 t-52.5 36.5q-2 1 -5.5 2.5t-13 4.5t-13.5 0q-5 -3 -8 -6.5t-4 -6.5t-1.5 -9t-0.5 -8q-5 -42 5 -120.5t4 -137.5q-6 -46 -29.5 -74t-58.5 -23q-38 5 -56 36t-9 75q11 57 49 135t46 120q2 21 -7 30q-9 12 -30 7q-35 -7 -73 -25t-81 -36.5t-90 -28.5q-44 -9 -80 4.5t-40 48.5z " />
<glyph unicode="+" horiz-adv-x="1257" d="M72 529q0 15 10 55t25 52h454v464q68 25 100 25q7 0 12.5 -1.5t8.5 -3.5t5.5 -4t3.5 -3v-2v-475h474q5 0 9.5 -3t8 -9.5t3.5 -15.5q0 -27 -11.5 -57.5t-26.5 -44.5h-457v-469q-34 -25 -99 -25q-12 0 -21.5 6.5t-9.5 13.5v474h-475q-14 0 -14 23z" />
<glyph unicode="," horiz-adv-x="466" d="M39 -274q21 16 34 26.5t37 36t38.5 50.5t26 64t11.5 81q0 21 -8 39.5t-19.5 33.5t-22.5 31t-19 37.5t-8 46.5t16.5 50.5t48.5 44t72 18.5q32 0 60 -16q42 -71 42 -162q0 -48 -26.5 -113.5t-66 -126.5t-88.5 -113.5t-93 -75.5q-7 0 -15.5 9t-14 20.5t-5.5 18.5z" />
<glyph unicode="-" horiz-adv-x="874" d="M135 487q0 54 30 119q482 25 559 27q8 0 12 -4t4 -17q0 -61 -30 -125q-48 -3 -559 -25q-6 0 -9.5 2t-5 7.5t-1.5 15.5z" />
<glyph unicode="." horiz-adv-x="480" d="M111 104q0 34 18 63t48 46t64 17q52 0 89 -36.5t37 -89.5q0 -52 -37 -91t-89 -39t-91 39t-39 91z" />
<glyph unicode="/" horiz-adv-x="958" d="M70 -65l693 1796q1 3 8 8.5t18.5 11.5t29.5 10.5t37 4.5q12 0 20 -7t10 -14l-684 -1773q-8 -17 -31.5 -35t-59.5 -18q-15 0 -25.5 4t-13.5 8z" />
<glyph unicode="0" d="M70 740q0 152 34.5 287t97.5 237.5t159.5 162.5t213.5 60q96 0 177.5 -39t141.5 -108t102.5 -162.5t63.5 -204.5t21 -233q0 -152 -34.5 -287t-97.5 -237.5t-160 -162.5t-214 -60q-115 0 -211.5 60t-160 162.5t-98.5 237.5t-35 287zM274 742q0 -181 36.5 -332.5t104 -241 t151.5 -89.5q76 0 136.5 54t98 147.5t57 214t19.5 259.5q0 135 -21 254.5t-58.5 206t-91.5 136.5t-117 50q-71 0 -131 -51.5t-100 -141t-62 -209.5t-22 -257z" />
<glyph unicode="1" d="M283 1288v3v4.5t1 3.5t4 3q80 36 182.5 84.5t160.5 75.5t60 27h5q16 0 23 -37q-18 -83 -18 -225v-958q0 -134 11 -172q5 -16 60 -26.5t89 -10.5q7 -9 7.5 -33.5t-7.5 -33.5q-30 1 -83.5 4.5t-93.5 5.5t-80.5 2t-79 -2t-88 -5t-81.5 -5q-8 9 -7.5 33.5t7.5 33.5 q34 0 89 10.5t59 26.5q14 45 14 172v937q0 49 -11.5 69t-36.5 20q-39 0 -163 -47q-23 19 -23 40z" />
<glyph unicode="2" d="M102 32q368 408 552 678q66 98 89 176.5t23 171.5q0 121 -72.5 201t-183.5 80q-52 0 -102.5 -17t-87 -40t-68 -53t-48.5 -51t-28 -39q-12 0 -26.5 14.5t-14.5 22.5q4 20 25 55t60.5 80.5t88 84.5t116 66t136.5 27q55 0 107 -15t96 -41.5t80.5 -63t62 -79t39.5 -91 t14 -97.5q0 -186 -129 -350q-48 -57 -105.5 -125t-117.5 -136.5t-107 -122t-102.5 -116t-73.5 -83.5h459q67 0 111 42.5t84 136.5q6 14 28 14q5 0 14 -2t18.5 -5.5t13.5 -6.5q-50 -124 -125 -348h-803q-7 4 -15 15t-8 17z" />
<glyph unicode="3" d="M139 130q0 49 29 80t69 31q22 0 42.5 -11.5t32 -25t28.5 -34.5t27 -31q61 -58 171 -58q40 0 77 11.5t73.5 38.5t63.5 67.5t43.5 103t16.5 139.5q0 68 -25 129.5t-66 104.5t-95 68t-111 25q-21 0 -47 -5.5t-57.5 -15t-34.5 -9.5q-14 17 -14 46q0 16 5 23q48 11 91 26.5 t84.5 37t74.5 49.5t58.5 62t39 77t13.5 92q0 93 -63.5 154t-163.5 61q-49 0 -98 -22t-77 -47.5t-54.5 -53t-30.5 -30.5q-10 0 -19 17.5t-9 33.5q31 44 67.5 81t84.5 71t108.5 53.5t125.5 19.5q36 0 77.5 -12t82 -37.5t73 -60t53 -83.5t20.5 -104q0 -53 -21.5 -104.5t-57 -91 t-70 -68t-69.5 -49.5q41 -5 85 -23.5t87 -51t77 -74.5t55 -100.5t21 -123.5q0 -93 -33.5 -176t-90.5 -144.5t-132 -106.5t-160.5 -68t-173.5 -23q-51 0 -118 14t-118 40q-14 9 -30.5 36t-16.5 52z" />
<glyph unicode="4" d="M60 448l757 988q13 18 35 38t34 20q17 0 27 -13t10 -29v-916h135q4 0 8.5 -5t9 -14.5t7.5 -21t5 -26t2 -28.5q0 -23 -9 -37h-158v-406q-9 -12 -102 -12q-45 0 -64 3.5t-19 15.5v399h-654q-10 6 -17 19.5t-7 24.5zM218 536h520v680z" />
<glyph unicode="5" d="M139 130q0 49 29 80t69 31q22 0 42.5 -11.5t32 -25t28.5 -34.5t27 -31q61 -58 171 -58q40 0 77 11.5t73.5 38.5t63.5 67t43.5 102.5t16.5 140.5q0 45 -12.5 91t-41 92.5t-70.5 82t-106 57.5t-141 22q-38 0 -103.5 -10.5t-91.5 -23.5q-5 0 -9 4.5t-7 12t-3 15.5 q17 84 50 248.5t54 271t31 169.5h343q20 0 42.5 1.5t42.5 3t40 4t35.5 4.5t27.5 4t19 3l7 1q3 -2 9.5 -6t9.5 -6t6 -5.5t3 -7.5q0 -17 -21.5 -75t-48.5 -90q-130 -14 -269 -14h-195l-84 -418q47 19 122.5 31.5t123.5 12.5q99 0 183.5 -36t138.5 -95t84.5 -131.5t30.5 -147.5 q0 -93 -33.5 -176t-90.5 -144.5t-132 -106.5t-160.5 -68t-173.5 -23q-51 0 -118 14t-118 40q-14 9 -30.5 36t-16.5 52z" />
<glyph unicode="6" d="M114 510q0 179 57 337.5t165 277.5q80 87 190.5 165.5t221.5 131.5t210 79q14 0 21 -24.5t7 -42.5q-530 -171 -645 -622q59 48 135.5 76t138.5 28q67 0 125.5 -16t101 -43t77 -63.5t56.5 -77t37 -84.5t21 -84t6 -77q0 -96 -36.5 -185t-99 -155t-150.5 -105.5t-185 -39.5 q-81 0 -154 30.5t-127 82t-93.5 119t-59.5 142.5t-20 150zM313 552q0 -64 10.5 -131t33 -131.5t54 -115t77 -81t99.5 -30.5q110 0 182.5 103.5t72.5 260.5q0 50 -7 96t-22 88.5t-39 77t-55.5 60.5t-74.5 40t-94 14q-30 0 -54.5 -3t-55 -12t-60.5 -28.5t-58 -49.5 q-9 -65 -9 -158z" />
<glyph unicode="7" d="M88 1121q74 220 98 348h705q36 0 96 3.5t62 3.5q6 0 9.5 -3.5t4 -7t0.5 -10.5q0 -6 -2 -13.5t-4 -14.5t-6.5 -18t-8 -19t-10 -21.5t-10.5 -21.5t-12.5 -24t-11.5 -24l-613 -1304q-7 -7 -23 -7q-28 0 -65 14t-37 28q67 101 160 269t177 335.5t158.5 320.5t118.5 249l45 95 h-590q-66 0 -101.5 -40.5t-65.5 -137.5q0 -14 -27 -14q-5 0 -14 2t-18.5 5t-14.5 7z" />
<glyph unicode="8" d="M139 357q0 40 11.5 78t27 67.5t42.5 60.5t48.5 51t55 45t50.5 36.5t47 29.5l7.5 4.5t6 4t6.5 4.5q5 3 4.5 7.5t-4.5 6.5q-40 24 -78.5 57.5t-75.5 79.5t-60 105t-23 120q0 72 32 141.5t84 121.5t123 83.5t146 31.5q105 0 190.5 -39.5t138 -118.5t52.5 -183 q0 -52 -18 -100.5t-42 -82.5t-63.5 -69.5t-67.5 -55t-69 -45.5q-7 -2 -6.5 -6t6.5 -8q55 -31 106.5 -72.5t97 -92t73 -111.5t27.5 -121q0 -68 -23.5 -131t-66 -112.5t-97.5 -87t-121.5 -57.5t-134.5 -20q-192 0 -312 105t-120 273zM322 364q0 -69 22.5 -127t58.5 -95.5 t81 -58t91 -20.5q115 0 183 69.5t68 187.5q0 40 -15 80.5t-37.5 73t-54.5 65.5t-59 55t-58.5 44t-45.5 30.5t-27 15.5q-9 5 -14 5q-7 0 -9 -2q-97 -62 -140.5 -137t-43.5 -186zM376 1155q0 -35 8.5 -68t21 -58t34 -50t38.5 -41t44.5 -35t42.5 -28t42 -25q7 -4 10 -6 q9 -4 14 -4q7 0 14 4q158 104 158 284q0 68 -27 132t-80.5 107.5t-120.5 43.5q-54 0 -100 -35t-72.5 -93.5t-26.5 -127.5z" />
<glyph unicode="9" d="M116 1016q0 96 36.5 185t98.5 155t149.5 105.5t184.5 39.5q81 0 153.5 -30.5t126.5 -82t94 -118.5t60 -142.5t20 -150.5q0 -178 -57.5 -336.5t-164.5 -278.5q-121 -131 -295 -233.5t-327 -142.5q-15 0 -21.5 24t-6.5 43q527 170 645 622q-60 -49 -136 -76.5t-138 -27.5 q-67 0 -125 16t-100.5 43t-76.5 63.5t-56 77t-37 84.5t-21 84t-6 77zM311 1060q0 -50 7 -96t22 -88.5t39 -77t55.5 -60.5t74.5 -40t94 -14q63 0 119 18.5t109 74.5q9 98 9 158q0 64 -10.5 131t-33 131.5t-53.5 115t-77 81t-100 30.5q-111 0 -183 -103.5t-72 -260.5z" />
<glyph unicode=":" horiz-adv-x="524" d="M135 104q0 52 38.5 89t90.5 37q53 0 89.5 -36.5t36.5 -89.5q0 -52 -37 -91t-89 -39t-90.5 39t-38.5 91zM135 875q0 51 38.5 88t90.5 37q53 0 89.5 -36.5t36.5 -88.5q0 -53 -37 -91.5t-89 -38.5t-90.5 38.5t-38.5 91.5z" />
<glyph unicode=";" horiz-adv-x="538" d="M88 -274q21 16 34 26.5t37 36t38 50.5t25.5 64t11.5 81q0 21 -7.5 39.5t-19 33.5t-22.5 31t-19 37.5t-8 46.5t16 50.5t48.5 44t72.5 18.5q32 0 60 -16q42 -71 42 -162q0 -64 -43.5 -154t-108 -167t-122.5 -108q-6 0 -12.5 5.5t-11 13t-8 16t-3.5 13.5zM142 875 q0 51 38.5 88t90.5 37q53 0 89.5 -36.5t36.5 -88.5q0 -53 -37 -91.5t-89 -38.5t-90.5 38.5t-38.5 91.5z" />
<glyph unicode="&#x3c;" horiz-adv-x="1141" d="M70 503q0 35 41 56l856 434q10 5 12 5q4 0 9.5 -9t14 -35t15.5 -65q2 -7 0 -12t-4 -7l-2 -2l-757 -383l768 -390q7 -2 7 -14q0 -16 -14 -66t-23 -50q-2 0 -12 5l-870 441q-41 22 -41 92z" />
<glyph unicode="=" horiz-adv-x="1310" d="M176 330q14 57 39 73l4 3h935q15 -4 14.5 -29.5t-14.5 -58t-30 -40.5h-942q-19 0 -6 52zM176 665q14 56 39 73l4 2h935q15 -4 14.5 -29.5t-14.5 -58t-30 -40.5h-942q-19 0 -6 53z" />
<glyph unicode="&#x3e;" horiz-adv-x="1143" d="M111 81q0 4 2 7.5t4 5.5l1 1l768 390l-754 383q-7 2 -7 18q0 20 7.5 47t16.5 46t13 19q3 0 12 -5l858 -434q40 -20 40 -56q0 -34 -8 -57t-32 -35l-870 -441q-9 -5 -11 -5q-10 0 -25 49.5t-15 66.5z" />
<glyph unicode="?" horiz-adv-x="825" d="M130 1387q0 57 21 86q32 16 111 16q47 0 106 -18t121 -55t113.5 -87t84 -120.5t32.5 -148.5q0 -119 -52.5 -200t-181.5 -155q-49 -28 -110 -76.5t-71 -67.5q-7 -13 -11 -35t-4 -37.5t0.5 -48.5t0.5 -41q-3 -6 -5.5 -10t-5.5 -8t-6.5 -6t-8.5 -3.5t-11 -2.5q-22 9 -30 25 q-6 24 -10.5 62.5t-6.5 77.5t-2 72t6.5 63t15 52.5t24.5 44.5t28.5 36t35 31.5t35.5 26t37 23.5q10 7 15 10q29 18 38 24l33 22t32.5 23t27 22.5t25.5 25t18.5 25t16 29t8 31t3.5 35.5q0 86 -51 138t-120 52q-42 0 -75 -7.5t-49 -16.5t-36.5 -17t-39.5 -8q-31 0 -66.5 32.5 t-35.5 83.5zM146 104q0 52 38.5 89t91.5 37q52 0 88.5 -36.5t36.5 -89.5q0 -34 -16.5 -64t-45.5 -48t-63 -18q-52 0 -91 39t-39 91z" />
<glyph unicode="@" horiz-adv-x="1735" d="M114 394q0 114 26 228.5t75.5 219.5t125 196t168 158.5t211.5 106t250 38.5q95 0 180.5 -20.5t153.5 -58t125 -89t98 -114t69 -133.5t42 -146.5t14 -153.5q0 -131 -37 -249.5t-100 -205t-152 -137t-189 -50.5q-90 0 -141.5 48.5t-51.5 150.5q0 21 5.5 57t11.5 50 q-15 -29 -38 -64.5t-58 -78.5t-71 -77.5t-79 -58t-82 -23.5q-69 0 -120 45t-75.5 115t-24.5 154q0 82 27.5 169t74 164.5t111.5 146.5t137.5 119t154 79t159.5 29q87 0 169 -30l-142 -733q-7 -28 -7 -58q0 -53 31 -78.5t81 -25.5q54 0 110.5 43.5t101 115t73 171.5t28.5 205 q0 96 -22 186t-69.5 171t-115.5 141t-166.5 95.5t-215.5 35.5q-115 0 -220.5 -35t-188 -96.5t-150.5 -144t-112.5 -177.5t-68.5 -197.5t-24 -203.5q0 -98 24.5 -189.5t67.5 -163.5t98 -128.5t119 -93.5q56 -33 94 -45.5t80 -19.5q0 -9 -15 -19t-35 -16.5t-33 -6.5 q-55 0 -91 14q-80 30 -152.5 92.5t-128 148t-88 197t-32.5 230.5zM622 350q0 -227 118 -227q56 0 125 81.5t123.5 201t76.5 230.5l46 236q-27 30 -95 30q-52 0 -109 -31t-107 -86.5t-90.5 -124.5t-64 -150.5t-23.5 -159.5z" />
<glyph unicode="A" horiz-adv-x="1454" d="M-33 23q0 25 5 37q29 0 76.5 12t62.5 32q32 41 55.5 91t53.5 127q307 788 448 1149q4 8 15.5 20t25 22.5t27 17.5t20.5 7q4 0 7.5 -3t6.5 -4l474 -1239q57 -152 58 -153q10 -25 46.5 -44.5t67 -27t43.5 -7.5q8 -10 8 -34t-3 -33q-29 1 -79.5 4.5t-90.5 5.5t-85 2 q-48 0 -89 -2t-92 -5t-88 -5q-9 9 -8 33.5t10 33.5q26 0 71 9t59 21q9 10 9 33q0 31 -39.5 144t-78.5 211l-40 97q-7 10 -14 10q-30 2 -229 2q-146 0 -251 -7q-2 0 -5 -1.5t-5 -3.5l-1 -2q-65 -172 -105 -283q-32 -95 -32 -165q0 -15 15 -27.5t35.5 -19t45 -11t40.5 -6 t24 -1.5q5 -5 6.5 -31t-2.5 -36q-33 2 -72.5 5t-73 5t-79.5 2q-47 0 -83.5 -2t-80.5 -5t-84 -5q-5 5 -5 30zM462 691q0 -9 4 -9q121 -5 211 -5q87 0 195 7q2 0 4 3t3 6v3l-204 561z" />
<glyph unicode="B" horiz-adv-x="1382" d="M104 60q36 0 96 10.5t64 26.5q12 38 12 172v991q0 134 -12 171q-4 17 -64 27.5t-96 10.5q-8 9 -8 33v3q0 22 8 31q24 -1 86.5 -4.5t104.5 -5.5t83 -2q40 0 147.5 2.5t182.5 2.5q55 0 108 -7.5t106.5 -23t98 -43t79.5 -64.5t54.5 -90.5t19.5 -117.5q0 -63 -25 -122.5 t-62.5 -102t-75.5 -71t-71 -40.5q-10 -5 0 -12q29 -1 64.5 -13.5t74 -34t74.5 -55t64.5 -73t46 -91t17.5 -106.5q0 -214 -156 -344q-145 -121 -487 -125h-534q-8 8 -8 31q0 26 8 36zM478 267q0 -40 5 -93.5t16 -64.5q12 -13 30 -22t43 -13t49.5 -5.5t60.5 -1.5q57 0 105.5 8 t99 31t85.5 59.5t57 99t22 143.5q0 362 -432 362h-141v-503zM478 858h195q75 0 132.5 23.5t91 63t50 86.5t16.5 99q0 153 -97 239t-260 86q-106 0 -116 -24q-12 -27 -12 -174v-399z" />
<glyph unicode="C" horiz-adv-x="1563" d="M111 747q0 92 19.5 181t56.5 167.5t89 148.5t119.5 125.5t145 95.5t168 61t187.5 21q266 0 491 -48q54 -320 54 -344q1 -5 -4 -10.5t-12.5 -9.5t-17 -7t-17.5 -3q-18 0 -28 7q-4 18 -7 31t-12 40.5t-19.5 49t-29.5 50.5t-42 51t-57.5 45t-75 38t-95 24.5t-117.5 9.5 q-100 0 -190.5 -39t-157.5 -105.5t-117 -152.5t-75.5 -183.5t-25.5 -194.5q0 -110 23.5 -215.5t73 -199.5t119.5 -164.5t170 -112t217 -41.5q182 0 306 111q105 94 142 269q6 1 12 1q33 0 62 -19q0 -45 -29.5 -180.5t-51.5 -154.5q-185 -104 -499 -104q-135 0 -256.5 39.5 t-215 110.5t-162.5 165.5t-105 209t-36 236.5z" />
<glyph unicode="D" horiz-adv-x="1647" d="M104 60q36 0 96 10.5t64 26.5q12 38 12 172v991q0 134 -12 171q-4 17 -64 27.5t-96 10.5q-8 9 -8 33v3q0 22 8 31q24 -1 86.5 -4.5t104.5 -5.5t83 -2q44 0 164 1.5t173 1.5q186 0 340.5 -57.5t257.5 -158t159.5 -238.5t56.5 -298q0 -88 -12.5 -168t-41 -159.5t-72.5 -146 t-111.5 -124.5t-153 -98t-201.5 -63t-253 -23h-580q-8 8 -8 31q0 26 8 36zM480 267q0 -44 3.5 -101t10.5 -66q24 -33 190 -33q101 0 191 25t168 77.5t134.5 129t89 186t32.5 241.5q0 153 -35.5 276.5t-96 206t-144 138.5t-176 80.5t-195.5 24.5q-16 0 -37 -0.5t-50 -3 t-50 -8t-23 -13.5q-12 -37 -12 -172v-988z" />
<glyph unicode="E" horiz-adv-x="1361" d="M104 60q36 0 96 10.5t64 26.5q12 38 12 172v991q0 134 -12 171q-4 17 -64 27.5t-96 10.5q-8 9 -8 33v3q0 22 8 31q24 -1 86.5 -4.5t104.5 -5.5t83 -2q105 0 360.5 8t386.5 8q10 -67 36 -177.5t31 -137.5q-11 -12 -41 -12t-33 17q-18 67 -45 111.5t-63 67t-73 31t-88 8.5 h-199q-16 0 -37 -1t-50.5 -3.5t-50 -8t-22.5 -13.5q-12 -37 -12 -165v-433q0 -14 100 -14h123h70t53.5 4t40 6.5t28 13t20.5 17t14 27t12 34t12 45.5q3 13 5 20q3 16 35 16q27 0 39 -12v-438q-9 -9 -37 -9q-30 0 -37 18q-17 64 -28.5 96t-18 40.5t-18.5 16.5q-29 19 -246 19 q-167 0 -167 -21v-441v-39.5t1.5 -47.5t4.5 -49.5t8 -23.5q21 -16 51.5 -19.5t113.5 -2.5h111q84 0 164 16.5t128 45.5q22 12 41 32t32 39.5t27.5 50.5t23 52.5t22.5 59.5q4 14 33 14q11 0 23.5 -2t21.5 -5.5t13 -6.5q-11 -30 -35 -96.5t-39 -107.5t-30.5 -93.5t-20.5 -87.5 q-120 0 -375 4.5t-417 4.5q-56 0 -144.5 -3.5t-131.5 -3.5q-8 8 -8 31q0 26 8 36z" />
<glyph unicode="F" horiz-adv-x="1241" d="M104 60q36 0 96 10.5t64 26.5q12 38 12 172v991q0 134 -12 171q-4 17 -64 27.5t-96 10.5q-8 9 -8 33v3q0 22 8 31q24 -1 86.5 -4.5t104.5 -5.5t83 -2q105 0 360.5 8t386.5 8q10 -67 36 -177.5t31 -137.5q-11 -12 -41 -12t-33 17q-18 67 -45 111.5t-63 67t-73 31t-88 8.5 h-199q-16 0 -37 -1t-50.5 -3.5t-50 -8t-22.5 -13.5q-12 -37 -12 -165v-433q0 -14 100 -14h123h70t53.5 4t40 6.5t28 13t20.5 17t14 27t12 34t12 45.5q3 13 5 20q3 16 35 16q27 0 39 -12v-438q-9 -9 -37 -9q-30 0 -37 18q-17 64 -28.5 96t-18 40.5t-18.5 16.5q-29 19 -246 19 q-167 0 -167 -21v-434q0 -134 12 -172q4 -16 74.5 -26.5t108.5 -10.5q7 -9 7.5 -33.5t-7.5 -33.5q-238 12 -295 12t-144 -6t-130 -6q-8 8 -8 31q0 26 8 36z" />
<glyph unicode="G" horiz-adv-x="1670" d="M111 747q0 92 19.5 181t56.5 167.5t89 148.5t119.5 125.5t145 95.5t168 61t187.5 21q266 0 491 -48q54 -320 54 -344q1 -5 -4 -10.5t-12.5 -9.5t-17 -7t-17.5 -3q-18 0 -28 7q-4 18 -7 31t-12 40.5t-19.5 49t-29.5 50.5t-42 51t-57.5 45t-75 38t-95 24.5t-117.5 9.5 q-100 0 -190.5 -39t-157.5 -105.5t-117 -152.5t-75.5 -183.5t-25.5 -194.5q0 -78 12 -154.5t37 -149.5t60.5 -137t86 -118t110.5 -92.5t136 -60t161 -21.5q81 0 147.5 20t133.5 54q16 8 16 35v234q0 135 -11 172q-5 16 -64 26.5t-94 10.5q-7 9 -8 33.5t8 33.5q25 -1 86 -4.5 t103 -5.5t82.5 -2t80.5 2t95 5.5t84 4.5q8 -8 8 -31q0 -26 -8 -36q-34 0 -90 -10.5t-61 -26.5q-11 -37 -11 -172v-165q0 -21 5.5 -39t11.5 -31.5t6 -22.5q0 -7 -3.5 -12t-13 -12t-29.5 -17q-42 -22 -66 -34t-75.5 -31t-100.5 -29.5t-125.5 -18.5t-164.5 -8 q-135 0 -256.5 39.5t-215 110.5t-162.5 165.5t-105 209t-36 236.5z" />
<glyph unicode="H" horiz-adv-x="1684" d="M104 67q36 0 96 10.5t64 26.5q12 38 12 172v977q0 134 -12 171q-4 17 -64 27.5t-96 10.5q-8 9 -8 37v3q0 25 8 34q24 -1 86.5 -4.5t104.5 -5.5t83 -2q32 0 68.5 1.5t64.5 3t70 4t69 3.5q8 -9 7.5 -37t-7.5 -37q-36 0 -96 -10.5t-64 -27.5q-12 -37 -12 -171v-406 q0 -2 1 -4t2 -2l2 -1q341 -7 364 -7q42 0 355 7q4 4 4 9v404q0 134 -11 171q-5 17 -65 27.5t-95 10.5q-8 9 -8.5 37t8.5 37q23 -1 85.5 -4.5t105 -5.5t82.5 -2q32 0 69 1.5t64.5 3t70 4t68.5 3.5q8 -8 8 -34v-3q0 -28 -8 -37q-35 0 -95.5 -10.5t-64.5 -27.5 q-12 -37 -12 -171v-977q0 -134 12 -172q4 -16 64.5 -26.5t95.5 -10.5q8 -9 8 -37v-3q0 -25 -8 -34q-25 1 -86 4.5t-103 5.5t-82.5 2t-83 -2t-105 -5.5t-85.5 -4.5q-9 9 -8.5 37t8.5 37q18 0 52 4t69.5 13t38.5 20q11 38 11 172v459q0 3 -1 5t-2 3l-1 2q-28 0 -157 4.5 t-198 4.5q-339 0 -367 -14l-2 -5v-459q0 -134 12 -172q4 -16 64 -26.5t96 -10.5q7 -9 7.5 -37t-7.5 -37q-25 1 -86 4.5t-103 5.5t-83 2t-83 -2t-104.5 -5.5t-86.5 -4.5q-8 8 -8 34q0 30 8 40z" />
<glyph unicode="I" horiz-adv-x="751" d="M104 60q36 0 96 10.5t64 26.5q12 38 12 172v991q0 134 -12 171q-4 17 -64 27.5t-96 10.5q-8 9 -8 33v3q0 22 8 31q24 -1 86.5 -4.5t104.5 -5.5t83 -2q32 0 68.5 1.5t64.5 3t70 4t69 3.5q8 -8 8 -31v-3q0 -24 -8 -33q-36 0 -96 -10.5t-64 -27.5q-12 -37 -12 -171v-991 q0 -134 12 -172q4 -16 64 -26.5t96 -10.5q8 -10 8 -34v-2q0 -22 -8 -31q-25 1 -86 4.5t-103 5.5t-83 2t-83 -2t-104.5 -5.5t-86.5 -4.5q-8 8 -8 31q0 26 8 36z" />
<glyph unicode="J" horiz-adv-x="726" d="M-241 -432q0 57 29 93.5t82 36.5q19 0 42 -12.5t33.5 -21.5t35.5 -33q54 -49 105 -49q31 0 56 17.5t48.5 63.5t39.5 121.5t25 198t9 286.5v991q0 134 -11 171q-5 17 -65 27.5t-95 10.5q-8 9 -8.5 33.5t8.5 33.5q23 -1 85.5 -4.5t105 -5.5t83 -2t82.5 2t103 5.5t86 4.5 q8 -8 8 -31q0 -26 -8 -36q-35 0 -95.5 -10.5t-64.5 -27.5q-12 -37 -12 -171v-979q0 -171 -26.5 -306.5t-74 -228.5t-116 -155t-149.5 -90t-177 -28q-27 0 -76.5 13.5t-69.5 28.5q-8 8 -13 24t-5 29z" />
<glyph unicode="K" horiz-adv-x="1524" d="M104 67q36 0 96 10.5t64 26.5q12 38 12 172v977q0 134 -12 171q-4 17 -64 27.5t-96 10.5q-8 9 -8 37v3q0 25 8 34q24 -1 86.5 -4.5t104.5 -5.5t83 -2q32 0 68.5 1.5t64.5 3t70 4t69 3.5q8 -9 7.5 -37t-7.5 -37q-36 0 -96 -10.5t-64 -27.5q-12 -37 -12 -171v-462 q60 37 262 234q138 137 190.5 193t104.5 123q32 43 32 72q0 9 -3.5 17t-10.5 13t-14.5 9t-18.5 6t-19.5 3.5t-20.5 2t-18 0.5h-15h-10q-5 10 -5 33t5 39q27 -2 83 -5.5t101 -6t83 -2.5q45 0 85.5 2.5t86 6t79.5 5.5q4 -11 3.5 -41.5t-8.5 -30.5l-18 -2q-19 -1 -34 -2.5 t-41 -7.5t-47.5 -14t-46 -24t-43.5 -36q-70 -77 -144 -152.5t-118 -118.5t-137.5 -132t-136.5 -131q-6 -9 0 -18q13 -14 91 -105.5t96 -112.5t81 -93.5t90.5 -102t76 -82.5t85.5 -90.5t74 -72.5q51 -46 108 -73t145 -34q5 -8 5 -23q0 -6 -1 -13q-3 -24 -6 -31 q-257 0 -330 26q-90 32 -157 99q-64 64 -522 587q-5 7 -21 7q-12 0 -21 -4v-432q0 -134 12 -172q4 -16 64 -26.5t96 -10.5q7 -9 7.5 -37t-7.5 -37q-25 1 -86 4.5t-103 5.5t-83 2t-83 -2t-104.5 -5.5t-86.5 -4.5q-8 8 -8 34q0 30 8 40z" />
<glyph unicode="L" horiz-adv-x="1308" d="M104 60q36 0 96 10.5t64 26.5q12 38 12 172v991q0 134 -12 171q-4 17 -64 27.5t-96 10.5q-8 9 -8 33v3q0 22 8 31q24 -1 86.5 -4.5t104.5 -5.5t83 -2q32 0 68.5 1.5t64.5 3t70 4t69 3.5q8 -9 7.5 -33.5t-7.5 -33.5q-36 0 -96 -10.5t-64 -27.5q-12 -37 -12 -171v-991v-41 t1.5 -49.5t4.5 -52t8 -24.5q21 -16 51.5 -19.5t113.5 -2.5h132q73 0 149.5 15.5t121.5 46.5q95 64 146 234q4 14 33 14q11 0 23.5 -2t21.5 -5.5t13 -6.5q-11 -30 -35 -96.5t-39 -107.5t-30.5 -93.5t-20.5 -87.5q-120 0 -375 4.5t-417 4.5q-56 0 -144.5 -3.5t-131.5 -3.5 q-8 8 -8 31q0 26 8 36z" />
<glyph unicode="M" horiz-adv-x="2104" d="M55 22v6q0 20 5 32q38 0 106.5 11.5t81.5 30.5q24 35 28 116q10 252 18 518.5t11.5 415t3.5 175.5q0 67 -10 93q-6 18 -68.5 33.5t-93.5 15.5q-4 0 -4 31.5t4 35.5q32 -2 104.5 -7t134.5 -5q60 0 188 12q20 -63 105 -267t203 -485t184 -445q2 -5 9 -5q8 0 11 9 q339 874 355 914q19 48 44.5 117.5t41.5 115.5l17 46q148 -9 183 -9q144 0 260 9l7 -67q-33 0 -95 -13.5t-70 -28.5q-12 -26 -12 -88q2 -71 6.5 -250t9.5 -419.5t7 -344.5q5 -162 28 -225q8 -21 67.5 -30.5t95.5 -9.5q7 -13 7 -35.5t-3 -31.5q-21 1 -82.5 4.5t-104.5 5.5 t-89 2q-47 0 -90 -2t-97.5 -5t-90.5 -5q-4 4 -5 28.5t5 38.5q28 0 80 7.5t71 18.5q21 12 21 97q0 16 -2.5 66.5t-2.5 68.5q-20 714 -30 993q0 12 -5.5 29t-15.5 17q-5 0 -12 -16q-53 -133 -489 -1227q-12 -26 -42 -71t-46 -48q-4 -1 -21 5l-566 1355q-3 -141 -7 -313 t-8 -316.5t-8 -269.5t-6 -200.5t-2 -81.5q0 -47 10 -72q9 -22 76 -32t107 -10q8 -9 8 -33.5t-3 -33.5q-31 2 -78 5t-85 5t-83 2q-48 0 -89.5 -2t-93.5 -5t-89 -5q-4 5 -5 29z" />
<glyph unicode="N" horiz-adv-x="1800" d="M88 26q0 17 7 34q33 0 101.5 14.5t79.5 32.5q15 25 19 56t4 101v1007q0 49 -1.5 74t-6.5 46t-15 38q-7 13 -47 24.5t-78.5 17t-55.5 5.5q-7 18 -7 34v4q1 18 7 29q37 -2 115 -7t122 -5q111 0 176 5q49 -77 220 -286.5t376.5 -461.5t313.5 -403v135v744q0 51 -1 73t-6 46 t-17 41q-9 16 -75.5 31.5t-100.5 15.5q-8 11 -8.5 34.5t3.5 32.5q26 -1 82 -4.5t97.5 -4.5t87.5 -2q47 0 83.5 1.5t81 4.5t83.5 5q6 -10 7 -28v-5q0 -17 -7 -34q-32 0 -101 -14t-80 -33q-14 -24 -18.5 -55.5t-4.5 -101.5v-945q0 -199 5 -320q-3 -14 -30 -14q-13 0 -36.5 13 t-44.5 41l-1012 1278v-1053q0 -51 1 -73t6 -45.5t16 -41.5q7 -11 42.5 -22.5t73.5 -18t58 -6.5q8 -11 8.5 -34.5t-3.5 -32.5q-26 1 -81 4.5t-96.5 5.5t-87.5 2q-47 0 -83.5 -2t-80.5 -5t-84 -5q-7 12 -7 33z" />
<glyph unicode="O" horiz-adv-x="1735" d="M114 761q0 159 60.5 305t161.5 251.5t240 167.5t289 62q87 0 170.5 -19t158.5 -56t140.5 -88.5t118 -119t90.5 -145.5t58.5 -169.5t20.5 -188.5q0 -159 -61.5 -305t-163.5 -250.5t-241.5 -166.5t-290.5 -62t-289 58.5t-240 160.5t-162 249.5t-60 315.5zM343 812 q0 -109 23.5 -216.5t70.5 -205t112.5 -172t157 -118.5t195.5 -44q101 0 184.5 38.5t139 103.5t94 151t55.5 178.5t17 189.5q0 109 -23.5 216t-71 203.5t-113.5 170.5t-157.5 118t-195.5 44q-101 0 -184 -39t-138.5 -103t-93.5 -150t-55 -177.5t-17 -187.5z" />
<glyph unicode="P" horiz-adv-x="1271" d="M104 60q36 0 96 10.5t64 26.5q12 38 12 172v991q0 134 -12 171q-4 17 -64 27.5t-96 10.5q-8 9 -8 33v3q0 22 8 31q24 -1 86.5 -4.5t104.5 -5.5t83 -2q40 0 147.5 2.5t182.5 2.5q52 0 104 -9t101 -27t92.5 -43.5t79.5 -61t62 -77t40.5 -92.5t14.5 -108q0 -139 -64 -245.5 t-180 -163.5t-267 -57q-21 0 -52 5t-47 14q-33 21 -33 51q0 4 3 8.5t9 2.5q59 -16 88 -16q70 0 130 24t104.5 69.5t69.5 114.5t25 154q0 177 -97 280t-285 103q-106 0 -116 -24q-12 -27 -12 -174v-988q0 -134 12 -172q4 -16 64 -26.5t96 -10.5q7 -9 7.5 -33.5t-7.5 -33.5 q-25 1 -86 4.5t-103 5.5t-83 2t-83 -2t-104.5 -5.5t-86.5 -4.5q-8 8 -8 31q0 26 8 36z" />
<glyph unicode="Q" horiz-adv-x="1733" d="M114 761q0 159 60.5 305t161.5 251.5t240 167.5t289 62q87 0 170.5 -19t158.5 -56t140.5 -88.5t118 -119t90.5 -145.5t58.5 -169.5t20.5 -188.5q0 -105 -26.5 -205t-75.5 -185.5t-115.5 -156.5t-149 -123.5t-174.5 -81.5q56 -26 114 -60.5t94 -55.5t81 -41.5t98 -30 t121 -9.5q116 0 165 14q29 0 42 -16q2 -3 2 -7q-111 -59 -199.5 -89t-185.5 -30q-69 0 -141 25t-139.5 64.5t-134.5 81.5t-151.5 83t-166.5 62q-121 30 -224.5 99t-179.5 166t-119 225.5t-43 270.5zM343 812q0 -109 23.5 -216.5t70.5 -205t112.5 -172t157 -118.5t195.5 -44 q101 0 184.5 38.5t139 103.5t94 151t55.5 178.5t17 189.5q0 109 -23.5 216t-71 203.5t-113.5 170.5t-157.5 118t-195.5 44q-101 0 -184 -39t-138.5 -103t-93.5 -150t-55 -177.5t-17 -187.5z" />
<glyph unicode="R" horiz-adv-x="1440" d="M104 60q36 0 96 10.5t64 26.5q12 38 12 172v991q0 134 -12 171q-4 17 -64 27.5t-96 10.5q-8 9 -8 33v3q0 22 8 31q24 -1 86.5 -4.5t104.5 -5.5t83 -2q40 0 147.5 2.5t182.5 2.5q64 0 129.5 -16t127 -49.5t109 -80t76.5 -113t29 -142.5q0 -61 -27.5 -123t-72.5 -112 t-101 -89t-115 -59q89 -149 171.5 -268.5t202.5 -276.5q52 -69 110.5 -101t151.5 -39q5 -8 5 -23q0 -6 -1 -13q-3 -24 -7 -31q-226 0 -306 28q-2 1 -6 2q-12 4 -19.5 7t-21.5 9t-25 13t-25 17t-27.5 24t-26.5 30q-30 41 -149 217.5t-220 332.5q-18 28 -69 28h-123v-432 q0 -134 12 -172q4 -16 64 -26.5t96 -10.5q7 -9 7.5 -33.5t-7.5 -33.5q-25 1 -86 4.5t-103 5.5t-83 2t-83 -2t-104.5 -5.5t-86.5 -4.5q-8 8 -8 31q0 26 8 36zM478 773h125q68 0 132.5 23.5t115 66t81.5 106.5t31 138q0 77 -20 139.5t-62 109.5t-111.5 73t-163.5 26 q-106 0 -116 -24q-12 -27 -12 -174v-484z" />
<glyph unicode="S" horiz-adv-x="1164" d="M114 404q11 11 28 19.5t32 8.5q21 0 26 -21q4 -23 12 -48t23.5 -61t35.5 -68.5t51 -65.5t67.5 -57.5t87 -39.5t108.5 -15q76 0 138.5 32t101 97.5t38.5 153.5q0 31 -5 58.5t-16 50.5t-23 42t-32 37t-37.5 31.5t-44.5 29.5t-47 27t-51 28.5t-53 29.5q-4 2 -13 8 q-51 30 -78 46t-75 48.5t-75.5 56.5t-62.5 61t-53.5 72t-32 79.5t-13.5 92.5q0 89 38.5 167t102 130t145.5 81.5t169 29.5q50 0 95 -5.5t74 -13t83.5 -22t97.5 -24.5q15 -101 32 -329q2 -11 -15.5 -18.5t-32.5 -7.5q-17 0 -26 9q-4 37 -19.5 79.5t-44 87.5t-65 81.5t-88 60 t-108.5 23.5q-39 0 -73.5 -8.5t-60 -23t-46 -34.5t-34 -43t-22.5 -48.5t-13 -50.5t-4 -49q0 -34 8.5 -65.5t20.5 -55.5t34.5 -49.5t41.5 -42.5t51 -39.5t53.5 -36t58.5 -36t57 -35.5q19 -12 61 -37.5t67.5 -41.5t66 -44.5t66 -51t55.5 -55.5t47 -64.5t29 -71.5t12 -82 q0 -93 -41 -173.5t-108.5 -134.5t-155 -85t-180.5 -31q-55 0 -118 8t-105 16.5t-106 23t-89 19.5q-18 91 -33 211.5t-15 148.5z" />
<glyph unicode="T" horiz-adv-x="1452" d="M28 1174q32 156 60 399q20 10 54 -7q22 -11 62.5 -21.5t66.5 -10.5h908q26 0 71 11.5t68 22.5q18 10 26 10h1q8 0 17 -5q28 -243 60 -399q-19 -19 -44 -16q-25 0 -32 11q-26 129 -83 206t-140 77h-295v-1183q0 -134 12 -172q4 -16 64.5 -26.5t95.5 -10.5q7 -9 7.5 -33.5 t-7.5 -33.5q-25 1 -86 4.5t-103 5.5t-82.5 2t-83 -2t-105 -5.5t-85.5 -4.5q-9 9 -8.5 33.5t8.5 33.5q35 0 95 10.5t65 26.5q11 38 11 172v1183h-299q-83 0 -140 -77t-83 -206q-7 -11 -32 -11q-25 -3 -44 16z" />
<glyph unicode="U" horiz-adv-x="1677" d="M59 1505q0 22 8 31q24 -1 86.5 -4.5t104.5 -5.5t83 -2t83 2t103 5.5t85 4.5q9 -9 8.5 -33.5t-8.5 -33.5q-35 0 -95 -10.5t-65 -27.5q-11 -37 -11 -171v-573q0 -285 113 -427q107 -135 318 -135q441 0 450 511v628q0 73 -3.5 104t-19.5 56q-9 16 -71.5 31.5t-95.5 15.5 q-8 11 -8.5 34.5t4.5 32.5q26 -1 63.5 -3.5t62 -4t60 -2.5t71.5 -1q47 0 83.5 1.5t81 4.5t83.5 5q6 -10 7 -28v-5q0 -17 -7 -34q-32 0 -101 -14t-80 -33q-15 -24 -19 -55.5t-4 -101.5v-627q0 -170 -43 -296.5t-124.5 -203t-190.5 -113t-247 -36.5q-125 0 -230.5 39.5 t-182.5 113.5q-82 78 -127 190t-45 248v678q0 134 -12 171q-4 17 -64.5 27.5t-95.5 10.5q-8 9 -8 36z" />
<glyph unicode="V" horiz-adv-x="1480" d="M-17 1500.5q0 31.5 3 35.5q37 -2 88.5 -5t92.5 -5t88 -2q56 0 288 12q4 -10 3 -38t-8 -29q-11 0 -30 -3.5t-45.5 -10.5t-45 -23.5t-18.5 -39.5q0 -46 39 -158q217 -592 346 -935q9 18 69.5 164.5t149.5 367t152 382.5q42 107 42 163q0 26 -19.5 45t-47.5 28t-50 13t-36 4 q-9 4 -9 31.5t9 36.5q172 -10 241 -10q37 0 68 1.5t50.5 3t50 3.5t59.5 4q3 -6 3 -21v-17q-2 -29 -8 -29q-25 0 -74 -15.5t-74 -45.5q-20 -23 -54 -93t-62 -141q-195 -490 -451 -1100q-32 -79 -88 -79q-2 0 -5 3t-5.5 8t-4.5 9.5t-4.5 10t-3.5 6.5q-46 121 -193 512 t-248 648q-55 145 -106 223q-17 25 -67.5 39.5t-81.5 14.5q-3 0 -3 31.5z" />
<glyph unicode="W" horiz-adv-x="2088" d="M-13 1500.5q0 31.5 4 35.5q35 -2 91.5 -5t100 -5t91.5 -2q45 0 84 2t87.5 5t78.5 5q4 -10 3 -38t-7 -29q-8 0 -22 -2t-35 -7t-39 -13t-31 -22.5t-13 -32.5q0 -29 35 -151q23 -83 68 -231.5t104 -343t97 -323.5q62 203 193.5 617t157.5 499q5 16 15 30.5t22 24.5t24.5 16 t21.5 6q11 0 28 -37q1 -4 28.5 -92t64.5 -204.5t82.5 -260t97.5 -303t96 -289.5q36 128 84 294t84.5 296.5t75.5 275.5q27 111 27 162q0 26 -20 45.5t-49 28t-51.5 13t-36.5 4.5q-9 3 -9 30.5t9 36.5q20 -1 77 -5t95.5 -5.5t77.5 -1.5q47 0 79.5 2t68.5 5t70 5q4 -6 4 -23 q0 -7 -1 -15q-2 -29 -7 -29q-20 0 -68 -17.5t-79 -43.5q-16 -14 -30 -37.5t-26.5 -56.5t-26.5 -82q-51 -176 -110.5 -385.5t-114 -402t-107.5 -370.5q-8 -30 -36.5 -54.5t-51.5 -24.5q-6 0 -13.5 14t-9.5 23q-32 94 -83 247.5t-100.5 304t-95 288t-73.5 222.5l-29 85 q-61 -203 -172 -546.5t-176 -558.5q-8 -30 -36 -54.5t-52 -24.5q-6 0 -13.5 14t-9.5 23q-77 247 -202 653.5t-169 548.5q-3 9 -11 36.5t-10.5 35t-9 27.5t-10.5 27.5t-11 21t-14.5 22.5t-17.5 18q-22 21 -65 34t-69 13q-4 0 -4 31.5z" />
<glyph unicode="X" horiz-adv-x="1549" d="M-20 29q2 25 6 31q11 0 38.5 5t67.5 15t80 32t62 50q78 100 151.5 198t159 214.5t144.5 195.5l-327 501q-41 65 -73.5 99t-79.5 61q-28 17 -67.5 27.5t-62.5 10.5q-9 0 -9 29t9 38q39 -2 95 -5t100 -5t95 -2q65 0 297 12q4 -11 3.5 -39t-8.5 -28q-15 0 -35.5 -3.5 t-45.5 -11t-41.5 -23.5t-16.5 -37q0 -28 28 -69l269 -413q40 53 128.5 169t136.5 181t74 107q9 14 9 37q0 9 -6.5 18.5t-22 19.5t-48.5 16t-78 6q-7 2 -8.5 28.5t3.5 39.5q155 -12 239 -12q116 0 255 12q6 -8 5.5 -33t-10.5 -35q-11 0 -31.5 -3.5t-52 -12t-65.5 -28.5 t-57 -49q-135 -161 -219 -266.5t-208 -271.5l457 -682q31 -46 96 -69.5t131 -23.5q5 -5 6 -21v-12q-1 -9 -1 -17q-2 -14 -2 -17q-32 2 -78 5t-82.5 5t-78.5 2q-58 0 -110 -2t-118.5 -5t-110.5 -5q-9 9 -9 38t9 29q17 0 46.5 6.5t59 22.5t29.5 36q0 11 -12 28l-353 545 q-113 -151 -236.5 -325t-148.5 -220q0 -1 -3.5 -8.5t-5.5 -15t-2 -13.5q0 -15 16.5 -27t58.5 -20.5t103 -8.5q7 -9 8 -35.5t-3 -31.5q-215 12 -262 12q-55 0 -99.5 -2t-105 -5.5t-81.5 -4.5q-2 7 -2 19q0 7 1 17z" />
<glyph unicode="Y" horiz-adv-x="1387" d="M-32 1498q0 29 9 38q39 -2 94.5 -5t100 -5t95.5 -2q65 0 297 12q4 -11 3.5 -39t-8.5 -28q-15 0 -36 -3.5t-45.5 -11t-41 -23.5t-16.5 -37q0 -24 28 -69l322 -557q33 59 71.5 132.5t74 143.5t67.5 135.5t55 115t34 74.5q7 21 7 35q0 9 -7.5 19t-24.5 20.5t-51 16.5t-80 6 q-5 0 -6.5 31t2.5 37q27 -2 74 -5.5t83 -5t75 -1.5q54 0 94 1.5t85.5 5t75.5 5.5q3 -7 3 -22q0 -8 -1 -18q-2 -28 -7 -28q-9 0 -18 -0.5t-31 -2.5t-41.5 -8.5t-42 -16t-42 -26.5t-31.5 -39q-71 -124 -367 -675q-3 -6 -5.5 -13t-3.5 -12t-1.5 -13t-1 -11t0 -12t0.5 -11 l-3 -357q0 -134 12 -172q4 -16 64.5 -26.5t95.5 -10.5q7 -9 7.5 -33.5t-7.5 -33.5q-25 1 -86 4.5t-103 5.5t-82.5 2t-83 -2t-105 -5.5t-85.5 -4.5q-9 9 -8 33.5t8 33.5q35 0 95 10.5t65 26.5q12 38 12 172v350q0 33 -17 65q-72 131 -170 304.5t-159 282.5q-36 63 -69.5 97.5 t-83.5 62.5q-28 17 -67.5 27.5t-62.5 10.5q-9 0 -9 29z" />
<glyph unicode="Z" horiz-adv-x="1468" d="M81 32l986 1420h-566q-116 0 -196 -79t-119 -225q-7 -9 -26 -9q-15 0 -35 6.5t-25 12.5q55 148 76 394q130 -18 191 -18h450q47 0 92.5 0.5t74 1.5t79.5 4t68.5 4t85 6t87.5 7q5 -2 14.5 -10.5t18.5 -20.5t9 -20q-2 -9 -247.5 -365t-489.5 -708l-245 -352h606 q132 0 216 84q12 12 23.5 26.5t20 27t18 30.5t15 29t14 31t11.5 28t11 29.5t9 25.5q4 7 33 7q16 0 32 -6.5t24 -14.5q-16 -52 -36.5 -117.5t-30.5 -98.5t-22.5 -76.5t-22.5 -85.5h-1162q-19 0 -34 11q-10 8 -10 15q0 3 2 6z" />
<glyph unicode="[" horiz-adv-x="600" d="M183 -267v1879q0 2 0.5 5.5t2 10t4.5 12.5t7.5 12t12 10t17.5 4q85 0 173.5 3.5t135.5 6.5l46 4q7 -7 7 -21q0 -11 -6.5 -22.5t-16.5 -14.5q-39 -14 -107 -27t-116 -20l-48 -7v-1791q183 -23 271 -53q10 -3 16.5 -14.5t6.5 -22.5q0 -6 -1.5 -11.5t-3.5 -7.5l-2 -2 q-165 14 -355 14q-11 0 -20 5.5t-13.5 12.5t-7 15.5t-3 13t-0.5 6.5z" />
<glyph unicode="\" horiz-adv-x="930" d="M72 1740q10 16 46 16q19 0 39.5 -11.5t25.5 -25.5q673 -1745 673 -1758q-2 -8 -18 -17t-35 -9q-8 0 -18.5 4.5t-19 12.5t-11.5 16q-586 1526 -682 1772z" />
<glyph unicode="]" horiz-adv-x="603" d="M14 -313q0 11 6.5 22.5t16.5 14.5q39 13 107 26.5t116 20.5l49 6v1791q-184 24 -272 54q-10 3 -16.5 14.5t-6.5 22.5q0 6 1.5 11t3.5 8l2 2q165 -14 355 -14q12 0 20.5 -5.5t13 -12.5t7 -16t3 -13t0.5 -7v-1879q0 -2 -0.5 -6.5t-3 -13t-7 -15.5t-13 -12.5t-20.5 -5.5 q-85 0 -173.5 -3.5t-135.5 -7.5l-46 -3q-7 7 -7 21z" />
<glyph unicode="^" horiz-adv-x="904" d="M142 1018q33 59 84.5 144.5t90 153.5t80.5 150q15 30 35 30q5 0 12 -3.5t13.5 -10.5t11.5 -16q32 -64 65.5 -124.5t57 -101t62.5 -106t68 -116.5q0 -16 -11.5 -26.5t-23.5 -10.5q-22 23 -48 52t-50 56.5t-47.5 56t-43 52.5t-35 42.5t-23.5 29.5l-8 11 q-147 -188 -253 -300q-12 0 -24.5 11t-12.5 26z" />
<glyph unicode="_" horiz-adv-x="1171" d="M32 -77q12 107 35 107h1042q9 0 9 -11q0 -20 -23 -105q-2 -6 -5.5 -9.5t-5.5 -3.5l-3 -1h-1032q-1 0 -2 0.5t-4 1.5t-5 3t-4 7t-2 11z" />
<glyph unicode="`" horiz-adv-x="793" d="M269 1520q0 7 2 15.5t9 21.5t25.5 21.5t47.5 8.5q9 0 18.5 -2t16.5 -4t13.5 -5t9.5 -5t4 -3q56 -70 140.5 -191t84.5 -131q0 -30 -21 -30q-7 0 -45 24t-88.5 61.5t-99.5 78.5t-83 80t-34 60z" />
<glyph unicode="a" horiz-adv-x="999" d="M86 248q0 66 36.5 118t79.5 68q37 13 107 37.5t121 42t102.5 37t75.5 29.5q9 4 14 7t8.5 9.5t4.5 16t1 25.5v63q0 52 -26 103t-72.5 85t-101.5 34q-58 0 -86 -35.5t-41 -107.5q-11 -58 -38 -85t-71 -27q-35 0 -57 30t-22 68q0 5 2 15.5t6 22.5t8 17q30 28 73.5 58.5 t100 61.5t122.5 51t126 20q101 0 177 -93t76 -225v-478q0 -109 72 -109q10 0 20 2t17 4.5t14.5 6.5t11.5 7t8.5 6t4.5 4q10 0 10 -19q0 -24 -12 -44q-27 -24 -84 -56t-90 -32q-48 0 -89 47t-52 104q-34 -34 -133.5 -95t-152.5 -61q-115 0 -193 77t-78 190zM278 269 q0 -42 20.5 -79.5t56.5 -60t79 -22.5q29 0 65.5 11.5t66 27t50 31.5t20.5 25v315q-180 -53 -216 -67q-66 -25 -104 -71t-38 -110z" />
<glyph unicode="b" horiz-adv-x="1155" d="M9 1472q0 7 -0.5 14.5t0.5 14.5q1 15 5 16q159 16 329 93q9 0 17.5 -12.5t8.5 -24.5q-26 -75 -26 -202v-457q0 -6 0.5 -10t1.5 -10.5t4 -5.5t8 3q48 35 136 80t145 45q81 0 151 -29t119 -77.5t84.5 -110.5t53 -128t17.5 -130q0 -113 -44 -215.5t-119 -177.5 t-182.5 -119.5t-227.5 -44.5q-50 0 -172 35q-6 1 -25 6.5t-26 7t-23 5t-26 3t-24 -2t-27 -6.5q-8 0 -19 21t-11 31q28 61 28 171v1040q0 92 -12 120q-18 42 -141 42q-2 1 -3 15zM343 227q0 -47 33 -86t82 -58.5t101 -19.5q81 0 153 57.5t114 147t42 182.5q0 200 -92.5 314.5 t-248.5 114.5q-42 0 -98 -22t-74 -40q-12 -12 -12 -26v-564z" />
<glyph unicode="c" horiz-adv-x="981" d="M90 450q0 82 25 159.5t68 138.5t99 112t118.5 85t128 52.5t125.5 18.5q126 0 209 -56q8 -7 15.5 -27.5t7.5 -36.5q0 -58 -26.5 -85t-61.5 -27q-23 0 -46.5 15t-49.5 39t-38 32q-40 26 -65 35t-68 9q-37 0 -74 -16.5t-70.5 -50t-59 -79t-41 -108.5t-15.5 -133 q0 -99 29.5 -175.5t81 -123t118.5 -70t147 -23.5q37 0 72 9t61 22t50.5 30.5t38 30.5t24.5 26q2 0 6 -4t8.5 -12t4.5 -17q0 -18 -14 -41q-19 -30 -46.5 -60t-69.5 -63t-100.5 -54t-122.5 -21q-82 0 -156 25.5t-130.5 70.5t-98 104t-63 128t-21.5 141z" />
<glyph unicode="d" horiz-adv-x="1194" d="M90 478q0 87 37.5 172t97.5 149.5t133 114.5t147.5 76t137.5 26q35 0 88.5 -8t71.5 -15q11 0 11 49v253q0 92 -11 120q-18 42 -142 42q-1 0 -2.5 14.5t-0.5 29.5t6 16q159 16 329 93q9 0 17 -12.5t8 -24.5q-25 -75 -25 -202v-993q0 -189 16 -227q4 -9 13 -15.5t21 -10.5 t25.5 -7t26.5 -4.5t24 -2.5t18.5 -1.5t8.5 -0.5q7 -3 7 -28q0 -6 -5.5 -20.5t-13.5 -14.5q-33 -2 -76.5 -9t-81.5 -16.5t-70.5 -18.5t-52.5 -15l-20 -6q-9 0 -14 14.5t-5 30.5v81q0 15 -4 15q-1 0 -3 -1q-34 -37 -134 -88.5t-174 -51.5q-79 0 -153 38.5t-130.5 103.5 t-91 158.5t-34.5 196.5zM285 534q0 -83 22 -156.5t62.5 -130t103.5 -89.5t139 -33q38 0 76 9.5t65 23.5t44 30t17 30v587q0 41 -75.5 77.5t-170.5 36.5q-84 0 -150 -56t-99.5 -143t-33.5 -186z" />
<glyph unicode="e" horiz-adv-x="997" d="M93 464q0 76 19.5 149t53.5 132.5t79 111t95.5 86t104.5 54t105 19.5q57 0 106.5 -12.5t84.5 -33.5t62.5 -49t45 -57t29 -60t16 -56.5t4.5 -46.5q0 -54 -12 -81t-44 -28q-47 -3 -300.5 -10t-283.5 -7v-16q0 -83 20 -153.5t55 -121t83 -85.5t103.5 -52t116.5 -17 q44 0 88 13.5t77 35t54.5 40t35.5 34.5q1 0 5.5 -4t8.5 -12t4 -17q0 -18 -13 -41q-19 -30 -47 -60t-69.5 -63t-100 -54t-122.5 -21q-135 0 -241.5 63.5t-164.5 173.5t-58 246zM269 661h378q54 0 54 54q0 21 -6 48t-20.5 57.5t-35.5 55t-54.5 41t-74.5 16.5q-39 0 -74 -15 t-59.5 -39t-44 -53t-31.5 -58t-20 -53t-10.5 -39t-1.5 -15z" />
<glyph unicode="f" horiz-adv-x="714" d="M65 60q33 0 87.5 10.5t58.5 26.5q12 38 12 172v638h-135q-3 0 -6 4t-4 8.5t-1 8.5t15 22.5t28.5 33.5t16.5 18h86v5v9q0 97 28 191.5t72.5 166.5t98 128t106.5 85.5t96 29.5q49 0 65 -4.5t44 -23.5q8 -7 15.5 -27.5t7.5 -37.5q0 -29 -9.5 -49t-25.5 -28.5t-29.5 -12 t-27.5 -3.5q-5 0 -9.5 1t-7.5 1.5t-8.5 2.5t-8 3t-8.5 4t-7.5 4t-9 5t-9.5 5q-13 7 -17.5 9.5t-13.5 6t-17 4.5t-19 1q-57 0 -93 -58q-35 -55 -35 -154v-6v-258h274q4 0 6.5 -1.5t3.5 -6t1.5 -7.5t0.5 -10q0 -37 -33 -70h-253v-638q0 -134 12 -172q4 -16 62.5 -26.5 t92.5 -10.5q8 -9 8.5 -33.5t-8.5 -33.5q-29 1 -83 4.5t-94 5.5t-80 2t-78 -2t-87 -5t-81 -5q-8 8 -8 31q0 26 8 36z" />
<glyph unicode="g" horiz-adv-x="1081" d="M53 -244q0 29 18.5 60.5t45 57.5t62.5 51.5t64 42t56 30.5q-32 10 -64 28.5t-61 45t-47 63.5t-18 78q27 32 93.5 83t106.5 75q-86 47 -139.5 129.5t-53.5 167.5q0 68 30.5 132t82 112t125 77t154.5 29q28 0 54.5 -3t53 -10.5t38.5 -11.5t38.5 -15l26.5 -11q30 -11 54 -16 l248 35q23 -7 23 -23q0 -10 -8.5 -29.5t-21 -39.5t-23.5 -26l-153 9q-10 0 -10 -7q16 -16 40.5 -79t24.5 -132q0 -61 -30.5 -122t-81.5 -109.5t-125 -79t-155 -30.5q-29 0 -70.5 7t-59.5 14q-16 -9 -31 -21t-27.5 -25t-20 -28t-7.5 -28q0 -24 39 -53t101 -29h273 q91 0 174 -33t134.5 -90t51.5 -120q0 -71 -49.5 -148.5t-130.5 -141.5t-194 -106t-229 -43h-8q-68 0 -135 17q-70 18 -128.5 52t-94.5 90t-36 124zM237 -176q0 -116 83 -188t228 -72q79 0 160.5 35t135.5 93.5t54 119.5q0 27 -17.5 56.5t-52 57.5t-96.5 46.5t-140 18.5 q-196 0 -216 -12q-52 -29 -95.5 -72t-43.5 -83zM295 677q0 -72 25 -137.5t77.5 -109t119.5 -43.5q46 0 84.5 23.5t62.5 61.5t37.5 84.5t13.5 95.5q0 75 -23.5 141t-74 111t-118.5 45q-63 0 -111 -41t-70.5 -101.5t-22.5 -129.5z" />
<glyph unicode="h" horiz-adv-x="1197" d="M49 60q33 0 87 10.5t59 26.5q11 38 11 172v1026q0 92 -11 120q-18 42 -142 42q-1 0 -2 14.5t-0.5 29.5t5.5 16q159 16 329 93q9 0 17.5 -12.5t8.5 -24.5q-26 -75 -26 -202v-524q0 -5 7 -5q2 0 7 5q19 21 53.5 48t78 55t93 47t88.5 19q54 0 96 -10t73.5 -28.5t54 -49.5 t37 -68.5t23.5 -91t12.5 -111t3.5 -133.5v-255q0 -134 11 -172q3 -11 35 -20t63 -13t48 -4q9 -10 9 -34v-2q0 -22 -9 -31q-32 2 -81.5 5t-88 5t-78.5 2t-78 -2t-87 -5t-81 -5q-8 9 -7.5 33.5t7.5 33.5q34 0 88 10.5t58 26.5q12 38 12 172v232q0 112 -10 181.5t-36 116 t-69.5 65t-111.5 18.5q-40 0 -94 -28t-90.5 -58.5t-36.5 -41.5v-485q0 -134 12 -172q2 -8 21 -16t44 -12t47 -6.5t34 -2.5q7 -9 7.5 -33.5t-7.5 -33.5q-32 2 -82 5t-88 5t-78.5 2t-78 -2t-86.5 -5t-81 -5q-9 9 -9 31q0 26 9 36z" />
<glyph unicode="i" horiz-adv-x="626" d="M74 890v7q0 18 5 26q198 28 332 98q8 0 16.5 -14t8.5 -23q-16 -114 -16 -153v-77v-485q0 -134 12 -172q1 -6 10.5 -11.5t23.5 -9t30.5 -7t32.5 -5.5t28.5 -3t20.5 -1q8 -10 8 -36q0 -22 -8 -31q-32 2 -82 5t-88 5t-78.5 2t-78 -2t-86.5 -5t-81 -5q-9 9 -8.5 33.5 t8.5 33.5q33 0 87 10.5t59 26.5q11 38 11 172v432q0 92 -11 120q-8 18 -45 28.5t-62 12t-44 1.5q-4 3 -5 27zM197 1375.5q0 48.5 33.5 82.5t82.5 34t82.5 -34t33.5 -82.5t-33.5 -82t-82.5 -33.5t-82.5 33.5t-33.5 82z" />
<glyph unicode="j" horiz-adv-x="554" d="M-41 -492.5q0 5.5 2 7.5q33 24 55.5 42.5t51.5 48.5t48 60t39 74.5t32 95.5t19 119.5t7 148.5v597q0 92 -11 120q-6 14 -27.5 23.5t-49.5 13t-45 4.5t-29 1q-4 4 -5 27.5t5 32.5q198 28 332 98q8 0 16.5 -14t8.5 -23q-16 -114 -16 -153v-79v-594q0 -93 -14 -175.5 t-37.5 -146t-57 -118.5t-68.5 -94t-76 -71.5t-76.5 -53t-71.5 -35.5q-6 3 -12 9.5t-11 13t-7 12.5q-2 3 -2 8.5zM153 1375.5q0 48.5 33.5 82.5t82.5 34t82.5 -34t33.5 -82.5t-33.5 -82t-82.5 -33.5t-82.5 33.5t-33.5 82z" />
<glyph unicode="k" horiz-adv-x="1201" d="M49 60q33 0 87 10.5t59 26.5q11 38 11 172v1026q0 92 -11 120q-18 42 -142 42q-1 0 -2 14.5t-0.5 29.5t5.5 16q159 16 329 93q9 0 17.5 -12.5t8.5 -24.5q-26 -75 -26 -202v-826q27 10 71.5 44.5t118.5 97.5q29 24 67.5 55.5t61 50t44 37.5t31.5 31t10 18q0 7 -4 12 t-10.5 8.5t-15.5 6.5t-18 5t-19.5 3.5t-18 2t-15.5 1t-11 1.5q-8 12 -6 37.5t11 29.5q112 -12 223 -12q119 0 204 12q7 -11 6.5 -35.5t-6.5 -31.5q-31 0 -88.5 -15t-90.5 -39q-256 -186 -376 -287q47 -50 104.5 -114t103 -115t89 -99t74.5 -81t47 -46q42 -33 102 -49 q53 -14 100 -14h12q4 -6 6 -26v-9q0 -13 -4 -20q-13 -6 -59 -10t-92 -4q-92 0 -172.5 33.5t-112.5 68.5q-200 216 -332 359q-4 6 -13 11t-15 8l-7 2v-204q0 -134 12 -172q2 -8 21 -16t44 -12t47 -6.5t34 -2.5q7 -9 7.5 -33.5t-7.5 -33.5q-32 2 -82 5t-88 5t-78.5 2t-78 -2 t-86.5 -5t-81 -5q-9 9 -9 31q0 26 9 36z" />
<glyph unicode="l" horiz-adv-x="591" d="M49 60q33 0 87 10.5t59 26.5q11 38 11 172v1026q0 92 -11 120q-18 42 -142 42q-1 0 -2 14.5t-0.5 29.5t5.5 16q159 16 329 93q9 0 17.5 -12.5t8.5 -24.5q-26 -75 -26 -202v-1102q0 -134 12 -172q2 -8 21 -16t44 -12t47 -6.5t34 -2.5q7 -10 7 -34q0 -1 1 -2q0 -22 -8 -31 q-32 2 -82 5t-88 5t-78.5 2t-78 -2t-86.5 -5t-81 -5q-9 9 -9 31q0 26 9 36z" />
<glyph unicode="m" horiz-adv-x="1832" d="M74 890v7q0 18 5 26q198 28 332 98q8 0 16.5 -14t8.5 -23q-14 -98 -14 -121q0 -9 5 -9q2 0 7 4l8 8q34 28 58 46.5t67 46.5t87 42.5t86 14.5q106 0 171.5 -45.5t93.5 -146.5q211 192 341 192q74 0 127 -19.5t86.5 -55.5t52.5 -99t26 -137t7 -181v-255q0 -134 11 -172 q5 -16 59 -26.5t88 -10.5q8 -10 8 -36q0 -22 -8 -31q-32 2 -82 5t-88 5t-79 2q-31 0 -63.5 -1.5t-56.5 -3t-60.5 -4t-65.5 -3.5q-8 9 -7.5 33.5t7.5 33.5q34 0 88 10.5t59 26.5q11 38 11 172v248q0 75 -4.5 127t-18 100t-37.5 76.5t-63 45t-95 16.5q-39 0 -82.5 -18.5 t-74 -42t-50.5 -44.5t-20 -28q0 -1 1 -14t1 -16q9 -59 9 -165v-285q0 -134 12 -172q3 -11 34.5 -20t62.5 -13t49 -4q7 -9 8 -33.5t-8 -33.5q-28 1 -65 3.5t-61.5 4t-57.5 3t-64 1.5q-40 0 -78 -2t-87 -5t-81 -5q-8 9 -7.5 33.5t7.5 33.5q33 0 87.5 10.5t58.5 26.5 q12 38 12 172v237q0 108 -10.5 178t-36.5 115.5t-67 64t-104 18.5q-37 0 -77.5 -16t-70 -37t-49 -42t-19.5 -33v-485q0 -134 12 -172q1 -6 10.5 -11.5t23.5 -9t30.5 -7t32.5 -5.5t28.5 -3t20.5 -1q7 -9 7.5 -33.5t-7.5 -33.5q-32 2 -82 5t-88 5t-78.5 2t-78 -2t-86.5 -5 t-81 -5q-9 9 -8.5 33.5t8.5 33.5q33 0 87 10.5t59 26.5q11 38 11 172v422q0 102 -11 130q-8 18 -45 28.5t-62 12t-44 1.5q-4 3 -5 27z" />
<glyph unicode="n" horiz-adv-x="1234" d="M74 890v7q0 18 5 26q198 28 332 98q8 0 16.5 -14t8.5 -23q-14 -98 -14 -133q0 -9 5 -9q2 0 7 5q19 21 53.5 48t78 55t93 47t88.5 19q63 0 109.5 -12.5t79.5 -40.5t54.5 -66t34 -96t17 -123t4.5 -154v-255q0 -134 12 -172q3 -11 34.5 -20t62.5 -13t49 -4q8 -10 8 -36 q0 -22 -8 -31q-32 2 -81.5 5t-88 5t-79 2t-78 -2t-86.5 -5t-81 -5q-8 9 -7.5 33.5t7.5 33.5q33 0 87.5 10.5t58.5 26.5q12 38 12 172v232q0 112 -10 181.5t-36.5 116t-69.5 65t-112 18.5q-39 0 -93 -28t-90.5 -58.5t-36.5 -41.5v-485q0 -134 12 -172q1 -6 10.5 -11.5 t23.5 -9t30.5 -7t32.5 -5.5t28.5 -3t20.5 -1q7 -9 7.5 -33.5t-7.5 -33.5q-32 2 -82 5t-88 5t-78.5 2t-78 -2t-86.5 -5t-81 -5q-9 9 -8.5 33.5t8.5 33.5q33 0 87 10.5t59 26.5q11 38 11 172v422q0 102 -11 130q-8 18 -45 28.5t-62 12t-44 1.5q-4 3 -5 27z" />
<glyph unicode="o" horiz-adv-x="1180" d="M95 494q0 111 38 208t103.5 166.5t157.5 109.5t195 40q150 0 264 -66t173.5 -180t59.5 -259q0 -111 -38 -209t-103 -168.5t-156.5 -111t-194.5 -40.5q-113 0 -207 39t-157.5 107t-99 162t-35.5 202zM295 541q0 -69 13 -137t40 -130t65 -109.5t91 -76t113 -28.5 q48 0 88.5 16t69.5 44t50.5 65.5t34.5 83t19.5 93t6.5 97.5q0 86 -21.5 171t-61.5 155t-102.5 113.5t-136.5 43.5q-58 0 -104 -23t-76.5 -61t-51 -90t-29 -108.5t-8.5 -118.5z" />
<glyph unicode="p" horiz-adv-x="1183" d="M32 890v7q0 18 5 26q198 28 332 98q8 0 16.5 -14t8.5 -23q0 -6 -4.5 -27t-8 -40.5t-3.5 -27.5q0 -10 5 -10q2 0 7 5q33 28 78 56.5t103.5 52t101.5 23.5q83 0 153.5 -30.5t118.5 -80t82 -113t50 -128t16 -126.5q0 -109 -48.5 -212.5t-125 -178.5t-174.5 -120.5 t-195 -45.5q-81 0 -163 26q-9 -12 -9 -30v-225q0 -135 12 -172q4 -17 58.5 -27t87.5 -10q7 -9 7.5 -33.5t-7.5 -33.5q-32 1 -82 4.5t-88 5t-78.5 1.5t-78 -1.5t-86.5 -5t-81 -4.5q-9 9 -8.5 33.5t8.5 33.5q33 0 87 10t59 27q12 37 12 172v949q0 92 -12 120q-6 14 -27.5 23.5 t-49.5 13t-45 4.5t-29 1q-4 4 -5 27zM378 232q0 -43 22 -77t56 -53.5t69.5 -29t68.5 -9.5q69 0 128 34t96.5 90t58.5 125t21 140q0 101 -26 183t-70.5 135t-103 81t-125.5 28q-45 0 -91.5 -15.5t-75 -37t-28.5 -37.5v-557z" />
<glyph unicode="q" d="M90 462q0 66 19 130.5t52 118.5t77 102t96 85t107.5 63.5t112.5 40.5t110 14q33 0 134.5 -29t141.5 -29q25 0 46 7q9 0 19.5 -20t10.5 -31q-28 -62 -28 -172v-993q0 -134 12 -171q4 -17 58.5 -27t87.5 -10q8 -11 8 -37q0 -22 -8 -31q-32 2 -81.5 5t-88 5t-79 2t-78 -2 t-86.5 -5t-81 -5q-8 10 -7.5 34t7.5 34q18 0 49 3.5t62.5 12.5t34.5 21q12 37 12 171v344q0 11 -4.5 20t-12.5 3q-41 -36 -132.5 -84t-157.5 -48q-77 0 -145 29.5t-116 79t-83 112t-52 128.5t-17 129zM285 545q0 -100 26 -181t71.5 -133t107 -80t134.5 -28q44 0 88.5 16 t71 37.5t26.5 39.5v554q0 36 -19.5 67.5t-50.5 51.5t-69 32t-77 12q-53 0 -98.5 -19t-78.5 -50.5t-59 -71.5t-41.5 -84t-23.5 -85t-8 -78z" />
<glyph unicode="r" horiz-adv-x="888" d="M74 890v7q0 18 5 26q198 28 332 98q8 0 16.5 -14t8.5 -23q-2 -14 -9 -105t-7 -109q0 -6 3.5 -6.5t5.5 2.5q18 38 48 80.5t66.5 80.5t79.5 62.5t80 24.5q45 0 85.5 -19.5t55.5 -47.5q10 -28 10 -63q0 -57 -26.5 -89t-50.5 -32q-11 0 -23.5 5t-21 11t-22 15l-19.5 13 q-41 28 -85 28q-36 0 -71.5 -25t-59.5 -59.5t-39.5 -69t-15.5 -55.5v-357q0 -134 12 -172q4 -16 81.5 -26.5t117.5 -10.5q7 -9 7.5 -33.5t-7.5 -33.5q-238 12 -288 12q-40 0 -80.5 -2t-95 -5.5t-83.5 -4.5q-9 9 -8.5 33.5t8.5 33.5q33 0 87 10.5t59 26.5q11 38 11 172v432 q0 92 -11 120q-8 18 -45 28.5t-62 12t-44 1.5q-4 3 -5 27z" />
<glyph unicode="s" horiz-adv-x="856" d="M95 260q19 14 42 14q14 0 21 -5q8 -30 24.5 -60.5t40.5 -59t52 -51t63 -36t70 -13.5q74 0 120.5 44.5t46.5 122.5q0 34 -12.5 63.5t-30 50t-49 43.5t-57 36.5t-67.5 36t-67 37.5q-38 22 -67 44.5t-55 52.5t-40 68t-14 83q0 83 48.5 148.5t125 100t162.5 34.5q40 0 75 -5 t79.5 -13t82.5 -12q24 -105 28 -256q0 -11 -23 -11q-25 0 -40 11q-9 35 -26.5 70.5t-41.5 68.5t-57.5 54t-69.5 21q-54 0 -91.5 -19.5t-55 -52t-17.5 -74.5q0 -25 5 -46.5t17 -39.5t23.5 -31t33.5 -28t36.5 -23.5t42.5 -24.5t43 -25q12 -8 41 -24.5t45.5 -26t43.5 -28 t43.5 -32.5t36.5 -35t31 -40.5t18.5 -45t7.5 -51.5q0 -92 -50 -166t-131.5 -114.5t-175.5 -40.5q-48 0 -89 6.5t-96 19.5t-86 19q-14 36 -27 115.5t-13 125.5z" />
<glyph unicode="t" horiz-adv-x="721" d="M46 928q0 6 26 35.5t35 38.5h86v146q18 22 53 60t60.5 65.5t27.5 30.5q6 6 15 8q6 2 10 1q3 -1 5 -1q6 -2 7 -6v-304h299q5 0 7.5 -1.5t3.5 -6t1 -7.5v-10q0 -37 -32 -70h-279v-608q0 -93 38.5 -141.5t114.5 -48.5q32 0 67 12t53 22t31 19q7 -3 7 -16q0 -6 -2 -14 t-4 -13.5t-3 -7.5q-16 -18 -36.5 -36t-52 -40.5t-71 -36.5t-79.5 -14q-38 0 -71 6.5t-65 24t-55 45t-36.5 72.5t-13.5 102v673h-135q-5 0 -8.5 7.5t-3.5 13.5z" />
<glyph unicode="u" horiz-adv-x="1194" d="M33 946q0 20 6 28q191 8 318 47q8 0 17 -18t9 -29q-5 -9 -8.5 -34t-5.5 -58.5t-2 -67.5v-99v-242q0 -185 55 -272t177 -87q49 0 99.5 20t82 50t31.5 57v501q0 91 -19 126q-15 27 -53.5 36.5t-75.5 9.5q-6 6 -6.5 28.5t6.5 31.5q190 8 317 47q6 0 12 -11.5t10 -25t4 -19.5 q-16 -32 -16 -151v-106v-381q0 -100 16 -176q4 -15 25.5 -24.5t44.5 -12t44.5 -4t22.5 -1.5q7 -3 7 -25q0 -4 -2 -12t-7 -17t-10 -9q-34 -2 -77 -9t-81 -16.5t-70.5 -18.5t-52.5 -15l-20 -6q-9 0 -14 12t-5 26v106l-5 12q-53 -57 -149.5 -105t-179.5 -48q-40 0 -74.5 9.5 t-61 26t-49 40.5t-38 52t-27.5 61t-19.5 66t-12 70t-6.5 69.5t-2 66.5v297q0 91 -19 126q-15 27 -53.5 36.5t-76.5 9.5q-6 7 -6 32z" />
<glyph unicode="v" horiz-adv-x="1097" d="M-1 962q0 17 6 36q34 -2 77 -5t77.5 -5t77.5 -2q39 0 74 2t80 5t78 5q4 -11 1 -39.5t-11 -28.5q-9 0 -24.5 -1.5t-37.5 -5t-36.5 -12t-14.5 -20.5q0 -5 2 -9l255 -627q119 309 207 527q14 33 14 74q0 34 -37.5 54t-97.5 20q-9 0 -9 29.5t9 38.5q24 -2 56 -5.5t61 -5 t71 -1.5q39 0 70.5 2t71 5t74.5 5q4 -7 4 -22q0 -8 -1 -18q-3 -28 -10 -28q-10 0 -27.5 -3.5t-41.5 -11t-46 -24.5t-31 -40q-248 -592 -348 -837q-4 -9 -16 -18.5t-25 -15.5t-20 -6q-16 0 -21 10q-54 128 -129.5 317.5t-133.5 328t-115 254.5q-6 14 -20 23.5t-26 14t-32 6.5 t-26.5 2h-22.5q-6 12 -6 32z" />
<glyph unicode="w" horiz-adv-x="1672" d="M-1 964q0 23 6 34q29 -2 61.5 -4t53.5 -4t51 -3t63 -1q31 0 61.5 1t52.5 3t56 4t62 4q4 -11 3 -37.5t-7 -30.5q-12 0 -27 -1.5t-37.5 -6.5t-37 -16.5t-14.5 -28.5q0 -1 1 -5t4.5 -13t5.5 -17q24 -64 239 -571q28 72 64 162t54.5 135.5t37 93.5t25.5 69.5t7 27.5 q0 8 -7.5 29.5t-20.5 49.5t-28 48q-30 44 -102 44q-8 6 -8 32.5t8 35.5q36 -2 72.5 -5t67 -5t72.5 -2q39 0 76 1.5t85.5 5t79.5 5.5q4 -13 4 -37t-7 -31q-56 0 -86 -17t-30 -57q0 -8 7 -25q6 -19 16.5 -48.5t30.5 -81t39.5 -102.5t56.5 -145t69 -176q166 414 204 520 q11 32 11 56q0 60 -99 72q-12 2 -34 4h-6q-7 6 -7.5 32.5t7.5 35.5q32 -2 90 -7t112 -5q39 0 70 2t70 5t73 5q3 -3 3 -22v-10q-1 -28 -10 -36q-10 0 -29 -3.5t-45.5 -11.5t-50 -26t-32.5 -42q-204 -516 -337 -833q-5 -14 -21.5 -27t-26.5 -13q-24 0 -28 10l-258 670 l-250 -635q-1 -3 -4.5 -8t-10 -11l-13 -12t-15 -10t-15.5 -4q-17 0 -21 10q-194 485 -376 895q-22 51 -125 51q-6 11 -6 34z" />
<glyph unicode="x" horiz-adv-x="1104" d="M24 30q2 22 6 30q5 1 28 4.5t31 5t29 5.5t31 8t27.5 10.5t28.5 14.5t23.5 19t22.5 24q215 311 227 327l-269 401q-17 27 -64 39t-92 12q-2 0 -2.5 14t0.5 30.5t5 23.5q127 -12 229 -12q107 0 235 12q3 -12 3 -35.5t-8 -32.5q-93 0 -93 -39q0 -9 12 -28l153 -244 q19 30 67 96.5t73 108t25 62.5q0 13 -12 22t-30.5 13t-35.5 6t-33.5 2.5t-18.5 0.5q-4 2 -4.5 31t4.5 37q34 -2 77.5 -5t79 -5t77.5 -2q104 0 186 12q2 -9 1.5 -38.5t-4.5 -29.5q-145 -7 -178 -51q-30 -40 -89 -123.5t-96.5 -135.5t-46.5 -63l278 -413q58 -84 179 -84 q2 0 3 -14v-12q-1 -9 -1 -20q-2 -17 -5 -21q-29 2 -71 5t-75 5t-72 2q-44 0 -83.5 -2t-89.5 -5t-84 -5q-5 12 -4 39.5t6 27.5q20 2 40.5 6t39 13.5t18.5 22.5q0 5 -5 14q-121 197 -183 290q-13 -19 -71.5 -105t-95.5 -146q-14 -22 -14 -44q0 -14 9.5 -23.5t29.5 -15t34.5 -7 t41.5 -4.5q8 0 12 -1q3 0 4 -14t-0.5 -31t-5.5 -22q-32 2 -73 5t-74 5t-73 2t-73 -2t-73.5 -5t-71.5 -5q-3 10 -3 25q1 6 1 12z" />
<glyph unicode="y" horiz-adv-x="1088" d="M1 962q0 32 4 36q110 -12 232 -12q133 0 232 12q4 -11 1 -39.5t-11 -28.5q-15 0 -38 -2t-50.5 -11.5t-27.5 -25.5l5 -9l246 -627q116 309 204 527q14 33 14 74q0 34 -37 54t-98 20q-8 0 -8 29.5t8 38.5q87 -12 209 -12q79 0 195 12q5 -9 5 -28v-12q-2 -28 -10 -28 q-9 0 -27 -3.5t-42.5 -11t-46.5 -24.5t-32 -40q-248 -592 -348 -837q-13 -32 -50 -131.5t-66.5 -163t-66.5 -118.5q-41 -61 -93.5 -95.5t-108.5 -34.5q-19 0 -35 4t-32 14t-25.5 31t-9.5 51q0 34 28 67q38 0 61 2t51.5 9t50.5 21t48 38.5t53 61.5q25 33 64.5 120.5 t46.5 114.5q-114 292 -193 483.5t-173 395.5q-7 14 -20.5 23.5t-25 14t-31.5 6.5t-26 2h-22q-4 0 -4 32z" />
<glyph unicode="z" horiz-adv-x="1037" d="M79 46q0 14 2 17l596 856l-324 2q-24 0 -45 -5.5t-36 -14t-28.5 -21t-22 -24.5t-16.5 -27.5t-12 -26.5t-9 -24.5t-8 -18.5q-2 -5 -9.5 -10t-19 -8t-22.5 -3q-25 0 -25 7q9 33 20.5 112t16.5 161q123 -18 206 -18h297q131 0 283 18q4 -6 6 -15t2 -15t-0.5 -14.5 t-0.5 -10.5q-614 -875 -614 -882h324q51 0 95.5 18.5t75.5 49t52.5 66.5t32.5 75q2 14 16 14q9 0 21 -4t22.5 -10.5t16.5 -13.5q-70 -169 -104 -276h-754q-13 4 -24 18.5t-11 27.5z" />
<glyph unicode="{" horiz-adv-x="515" d="M60 668q0 21 5 26q37 9 66 23t55.5 36.5t40.5 56.5t14 79q0 12 -1 24t-5 27t-6 23.5t-9.5 26.5t-9.5 22.5t-11.5 26t-10.5 24.5q-26 56 -39.5 100t-13.5 92q0 65 16 125.5t42 106.5t59.5 84.5t66.5 62.5t64 36q14 0 25.5 -14t11.5 -30q-25 -12 -55.5 -37t-59.5 -59 t-48.5 -78t-19.5 -86q0 -18 1.5 -35t5.5 -34.5t6.5 -29t10 -30.5t10.5 -26t12 -28.5t12 -27.5q53 -111 53 -215q0 -54 -17.5 -102.5t-44.5 -82t-55 -55.5t-52 -32q24 -9 52 -31.5t55 -55.5t44.5 -82t17.5 -102q0 -105 -53 -216q-3 -5 -12 -26.5t-12 -29t-10.5 -26.5 t-10 -30.5t-6.5 -29t-5.5 -34.5t-1.5 -35q0 -29 9 -58.5t24.5 -55t34.5 -49.5t39.5 -43t40 -32.5t35.5 -21.5q0 -10 -5.5 -20.5t-14 -17t-17.5 -6.5q-40 16 -81.5 51t-80 86t-62.5 124.5t-24 153.5q0 49 13.5 92.5t39.5 100.5q2 5 9.5 21t10 22t8.5 21t8.5 22.5t6.5 20.5 t5.5 22.5t3 21.5t1.5 23q0 44 -14 78.5t-40.5 56.5t-55.5 36t-66 24q-5 4 -5 25z" />
<glyph unicode="|" horiz-adv-x="475" d="M180.5 -273q0.5 5 0.5 6v2023q-3 14 11 19q55 16 86 16q9 0 14 -3.5t5 -6.5v-4l2 -2023q0 -8 -26 -18t-51.5 -15.5t-29.5 -5.5q-6 0 -8.5 2t-3 3.5t0 6.5z" />
<glyph unicode="}" horiz-adv-x="517" d="M95 -290q25 12 55.5 37t59.5 59t48.5 78t19.5 86q0 18 -1 35t-5.5 34.5t-7 29t-10 30.5t-10.5 26.5t-12 29t-12 26.5q-53 111 -53 216q0 53 17.5 102t45 82t55 55.5t51.5 31.5q-24 10 -51.5 32t-55 55.5t-45 82t-17.5 102.5q0 104 53 215q3 6 12 27.5t12 28.5t10.5 26 t10 30.5t7 29t5.5 34.5t1 35q0 42 -19.5 86t-48.5 78t-59.5 59t-55.5 37q0 16 11.5 30t25.5 14q40 -15 81.5 -50t80 -86.5t62.5 -125t24 -153.5q0 -48 -13.5 -92t-39.5 -100q-2 -5 -9.5 -21.5t-10 -22.5t-8.5 -20.5t-8.5 -22.5t-6.5 -21t-5.5 -22.5t-3 -21t-1.5 -22.5 q0 -45 14 -79t40.5 -56.5t55.5 -36.5t66 -23q5 -10 5 -26q0 -18 -5 -25q-37 -10 -66 -24t-55.5 -36t-40.5 -56.5t-14 -78.5q0 -11 1.5 -23t3 -21.5t5.5 -22.5t6.5 -20.5t8.5 -22.5t8.5 -21t10 -22t9.5 -21q26 -57 39.5 -100.5t13.5 -92.5q0 -80 -24 -153.5t-62.5 -124.5 t-80 -86t-81.5 -51q-14 0 -25.5 14t-11.5 30z" />
<glyph unicode="~" horiz-adv-x="1322" d="M130 640q0 41 49.5 84t120.5 70t132 27q50 0 105 -11t81.5 -20t89.5 -31q54 -20 84.5 -30.5t83 -20.5t103.5 -10q17 0 33 3t28 5.5t28 10.5l24 12t25 16.5t22 16t24.5 19.5t24.5 19q21 -10 21 -39q0 -38 -43.5 -80.5t-114 -71.5t-139.5 -29q-54 0 -107.5 10t-87.5 21 t-88 32q-54 20 -85 30t-82 20t-100 10q-61 0 -110 -27t-101 -75q-21 10 -21 39z" />
<glyph unicode="&#xa1;" horiz-adv-x="498" d="M123 868q0 52 36.5 91t88.5 39q34 0 64.5 -18t48 -48t17.5 -64q0 -52 -38.5 -89t-91.5 -37q-52 0 -88.5 36.5t-36.5 89.5zM137 -383q0 19 3 66t10.5 135t16 183.5t22.5 258.5t27 313q5 10 9 15.5t11 9.5t17 5q25 -10 32 -25q70 -801 70 -961q0 -52 -31.5 -93t-84.5 -41 q-34 0 -58 21.5t-34 51t-10 61.5z" />
<glyph unicode="&#xa2;" horiz-adv-x="1034" d="M104 450q0 82 25 159.5t67.5 138.5t99 112t119 85t128 52.5t125.5 18.5q125 0 209 -56q8 -7 15.5 -27.5t7.5 -36.5q0 -58 -26.5 -85t-61.5 -27q-18 0 -37.5 10.5t-34 23t-33 29t-30.5 23.5q-39 26 -64 35t-68 9q-46 0 -92 -27t-83.5 -75t-61 -122.5t-23.5 -162.5 q0 -99 29.5 -175.5t81 -123t118.5 -70t147 -23.5q45 0 87 12.5t73.5 33.5t51.5 38t34 34q1 0 3 -1.5t4.5 -4.5t5 -7t4.5 -9t2 -11q0 -18 -14 -41q-19 -30 -46.5 -60t-69.5 -63t-100.5 -54t-122.5 -21q-102 0 -191 39.5t-149 104.5t-94.5 150t-34.5 175zM438 -88l193 1183h7 h8.5h9.5t10 -0.5t9 -1t8.5 -1.5t6.5 -2.5t4.5 -3.5t1.5 -5l-193 -1185q-65 0 -65 16z" />
<glyph unicode="&#xa3;" horiz-adv-x="1106" d="M102 37q0 24 11.5 50t35 54.5t35.5 41.5t34 35q33 33 61.5 85.5t46 115t17.5 117.5q0 16 -23 174h-192q-11 10 13 46.5t40 36.5h125q-16 98 -16 133q-3 114 34 218t99.5 175.5t143 114t161.5 42.5q57 0 88.5 -12t79.5 -44q7 -8 15 -28.5t8 -36.5q0 -57 -27 -84t-61 -27 q-18 0 -37 9.5t-30.5 19.5t-30 30t-25.5 26q-18 17 -30.5 25.5t-24 11.5t-27.5 3q-43 0 -75 -24.5t-49 -68t-25 -96t-8 -115.5q0 -47 5.5 -102t9.5 -81t15 -89h385q16 -12 12 -30.5t-14 -32.5t-19 -20h-350q4 -51 4 -79q0 -61 -23 -128t-58.5 -121.5t-67 -93.5t-57.5 -63 q37 19 81 19q35 0 66.5 -11.5t59 -27.5t58.5 -32t78 -27t105 -11q36 0 71 16t59.5 37.5t47 50.5t34 47.5t20.5 35.5l2.5 -1t6 -3.5t7 -6.5l7 -8t5.5 -8.5t2 -9.5q0 -14 -7 -34q-9 -25 -28 -57t-51 -70t-69.5 -69.5t-88 -52.5t-102.5 -21q-54 0 -105 14t-89 33.5t-72.5 38.5 t-70.5 33t-69 14q-25 0 -45.5 -15.5t-31.5 -34.5t-26 -43t-27 -35q-13 0 -25 17.5t-12 33.5z" />
<glyph unicode="&#xa4;" horiz-adv-x="1331" d="M181 357l125 119q-69 109 -69 236q0 152 88 269l-121 130q-3 3 -3 7.5t2.5 10t6.5 12t10.5 13t14 13t16.5 12.5t18 11t18.5 9.5t18.5 6.5l121 -127q104 72 237 72q146 0 259 -95l137 127q9 9 29 -5t39.5 -42t26.5 -55l-139 -130q67 -112 67 -239q0 -137 -76 -250 l125 -135q9 -9 -5 -28.5t-42 -39t-55 -27.5l-121 128q-110 -82 -245 -82q-150 0 -265 93l-123 -116q-9 -9 -28.5 5.5t-39 42t-27.5 54.5zM406 740q0 -104 38.5 -194t102 -141.5t135.5 -51.5q69 0 123 46t82.5 121t28.5 162q0 105 -37.5 195.5t-100.5 143.5t-135 53 q-52 0 -97 -27.5t-75 -74t-47.5 -107t-17.5 -125.5z" />
<glyph unicode="&#xa5;" horiz-adv-x="1559" d="M61 1447q0 29 9 38q39 -2 94.5 -5t100 -5t95.5 -2q65 0 297 12q4 -11 3.5 -39t-8.5 -28q-15 0 -36 -3.5t-45.5 -11t-41 -23.5t-16.5 -37q0 -24 28 -69l322 -552q82 146 181.5 342t124.5 258q7 21 7 35q0 5 -5.5 11.5t-18.5 15t-32 15.5t-50 11.5t-68 4.5q-5 0 -6.5 31 t2.5 36q25 -1 75.5 -4.5t87.5 -5t76 -1.5q54 0 94 1.5t85.5 5t75.5 4.5q3 -10 1.5 -38.5t-6.5 -28.5q-9 0 -18.5 -0.5t-31 -2.5t-41 -8.5t-42 -16t-42 -26.5t-31.5 -39q-71 -124 -367 -675q-12 -18 -12 -55h223q12 -9 12.5 -23t-6.5 -26.5t-15 -22.5t-14 -14h-200v-100h223 q12 -9 12.5 -22.5t-6.5 -26.5t-15 -23t-14 -14h-202v-51q0 -134 12 -172q4 -16 64.5 -26.5t95.5 -10.5q7 -9 7.5 -33.5t-7.5 -33.5q-25 1 -86 4.5t-103 5.5t-82.5 2t-83 -2t-105 -5.5t-85.5 -4.5q-9 9 -8.5 33.5t8.5 33.5q35 0 95 10.5t65 26.5q11 38 11 172v51h-227 q-10 11 10.5 48.5t35.5 37.5h181v100h-227q-10 10 10.5 48t35.5 38h179q-3 20 -14 41q-72 131 -170 304.5t-159 282.5q-36 63 -69.5 97.5t-83.5 62.5q-28 17 -67.5 27.5t-62.5 10.5q-9 0 -9 29z" />
<glyph unicode="&#xa6;" horiz-adv-x="496" d="M190.5 -273q0.5 5 0.5 6v845q-2 14 12 18q39 12 88 12q9 0 14 -3.5t5 -7.5v-3v-845q0 -8 -26.5 -16.5t-51 -13t-29.5 -4.5q-6 0 -9 2t-3.5 3.5t0 6.5zM190.5 898.5q-0.5 1.5 0 7t0.5 6.5v844q-2 14 12 19q39 11 88 11q9 0 14 -3.5t5 -6.5v-4v-844q0 -12 -47.5 -23.5 t-59.5 -11.5q-6 0 -9 2t-3.5 3.5z" />
<glyph unicode="&#xa7;" horiz-adv-x="1023" d="M88 919q0 44 19 98.5t49 106.5t67 103t73 91.5t68 68.5q-69 -73 -83 -171q-25 -41 -36.5 -63t-21.5 -57.5t-10 -74.5q0 -69 22 -136t62.5 -126.5t81.5 -106t94 -95.5q10 -9 34.5 -31.5t37.5 -34t36.5 -34t37 -37.5t33 -38t31.5 -41t25.5 -42t21 -45.5t12.5 -46.5t5 -49 q0 -26 -2 -40q-6 -7 -26 -41q-56 -45 -79 -84q-6 -11 -8 -22.5t-3 -27t-3 -24.5q14 10 35 28q-57 -60 -145 -94t-196 -34q-52 0 -95 19q-14 27 -14 60q0 25 28.5 54t55.5 29q11 0 21 -1.5t19 -5t15 -6t15 -7.5t13 -7q37 -19 74 -19q40 0 81 12t74 42t33 71q0 38 -27.5 90 t-74 107t-90 100t-91.5 88q-41 39 -74.5 73.5t-71.5 83.5t-63.5 96t-42.5 105t-17 116zM278 1176q0 26 3 40q6 7 25 41q56 45 79 84q6 11 8.5 22.5t3.5 27t2 24.5q-14 -10 -35 -28q58 60 145.5 94t195.5 34q52 0 95 -19q14 -27 14 -60q0 -16 -13 -35.5t-32.5 -33.5 t-37.5 -14q-11 0 -21 1.5t-19 5t-15 6t-15.5 7.5t-13.5 7q-37 19 -74 19q-40 0 -81 -12t-74 -42t-33 -71q0 -38 28 -90t74 -107t90 -100t91 -88q42 -39 75 -73.5t71 -83.5t63.5 -96t42.5 -105t17 -116q0 -44 -19 -98.5t-48.5 -106.5t-67 -103t-73.5 -91.5t-68 -68.5 q70 73 84 171q25 41 36 63t21 57.5t10 74.5q0 56 -15.5 111.5t-39.5 101.5t-59.5 93.5t-69.5 83t-76 74.5q-9 8 -38 34.5t-41.5 38.5t-40 38.5t-41 43t-35 42.5t-32.5 47.5t-23 48t-17.5 53t-5.5 53.5z" />
<glyph unicode="&#xa8;" horiz-adv-x="874" d="M116 1199q0 29 15.5 53.5t41.5 39t54 14.5q44 0 75.5 -32.5t31.5 -76.5q0 -28 -15 -52.5t-40 -38t-54 -13.5q-44 0 -76.5 31.5t-32.5 74.5zM541 1199q0 29 15.5 53.5t41 39t54.5 14.5q28 0 53 -15t39.5 -40t14.5 -54q0 -28 -15.5 -52.5t-40.5 -38t-53 -13.5 q-44 0 -76.5 31.5t-32.5 74.5z" />
<glyph unicode="&#xa9;" horiz-adv-x="1528" d="M130 793.5q0 129.5 50 246.5t135 202t202 135t246 50t247 -50t203 -135t135.5 -202.5t50.5 -246.5t-50.5 -246t-135.5 -202t-203 -135t-247 -50t-246 50t-202 135t-135 202t-50 246.5zM206 793.5q0 -113.5 44.5 -217.5t119.5 -179.5t178.5 -120t217.5 -44.5 q91 0 176.5 28.5t154.5 80.5t121 121t80.5 154.5t28.5 176.5q0 114 -44.5 218t-120 179.5t-179.5 120t-217.5 44.5t-217 -44.5t-178.5 -120t-119.5 -179.5t-44.5 -217.5zM434 780q0 92 41 170t116.5 124.5t169.5 46.5q37 0 80.5 -5t92.5 -15t87 -25q37 -132 37 -141 q0 -4 -3.5 -8t-9 -7t-12 -4.5t-12.5 -1.5q-7 0 -16 5q-3 11 -9.5 24.5t-22.5 31.5t-38.5 32t-61 24.5t-84.5 10.5q-93 0 -158 -72t-65 -170q0 -67 23 -121t59.5 -86.5t78 -49t83.5 -16.5q53 0 99 11.5t68 32.5q12 11 19.5 30t10.5 32.5t5 13.5q3 0 9.5 -0.5t14.5 -1t14.5 -2 t7.5 -3.5q0 -10 -18 -74.5t-28 -69.5q-109 -44 -246 -44q-141 0 -236.5 95t-95.5 233z" />
<glyph unicode="&#xaa;" horiz-adv-x="800" d="M109 763q0 45 25.5 80.5t55.5 47.5q24 8 96.5 33.5t118 42.5t66.5 26q12 5 15.5 12t3.5 27v44q0 37 -15.5 69.5t-47.5 53.5t-74 21q-41 0 -61.5 -21t-29.5 -69q-7 -41 -25 -59t-49 -18q-25 0 -40.5 20.5t-15.5 47.5q0 3 1.5 11t4.5 16.5t6 11.5q47 45 130 87.5t162 42.5 q45 0 85.5 -28.5t65.5 -79t25 -110.5v-332q0 -76 49 -76q10 0 20 3t15.5 6t11.5 7t7 4q7 0 7 -11q0 -16 -10 -30q-17 -18 -57 -40.5t-63 -22.5q-34 0 -62 32.5t-36 71.5q-11 -11 -45.5 -35.5t-80.5 -47.5t-71 -23q-80 0 -134 53.5t-54 131.5zM241 777q0 -45 32 -79t77 -34 q20 0 45.5 10t45.5 23t34.5 26t14.5 19v198q-15 -5 -49.5 -15t-61 -18.5t-38.5 -13.5q-48 -19 -74 -46t-26 -70z" />
<glyph unicode="&#xab;" horiz-adv-x="1118" d="M63 571q0 8 0.5 13.5t1 7.5t4 9l5.5 11q85 52 167.5 110t133.5 98t101 84t60.5 54.5l22.5 22.5q41 -12 51 -27q-10 -35 -132.5 -169t-210.5 -212q88 -78 210.5 -212t132.5 -168q-10 -15 -51 -28l-22.5 22.5t-60.5 54.5t-101 84t-133.5 98t-167.5 110q-11 17 -11 37z M480 571q0 8 1 13.5t1.5 7.5t4 9l5.5 11q85 52 167.5 110t133 98t100.5 84t61 55t23 22q41 -12 51 -27q-10 -35 -133 -169t-211 -212q55 -48 132.5 -128t141 -155t70.5 -97q-10 -15 -51 -28l-12 12t-31.5 29.5t-53 47t-70.5 58t-90 69.5t-105.5 74t-122.5 79q-12 17 -12 37z " />
<glyph unicode="&#xac;" horiz-adv-x="1361" d="M104 868q12 106 35 106h1058v-582q-2 -2 -18 -10t-43 -16.5t-48 -8.5q-23 3 -30 17v470h-940l-1 0.5t-3.5 1.5t-4.5 3.5t-3.5 7t-1.5 11.5z" />
<glyph unicode="&#xad;" horiz-adv-x="874" d="M135 487q0 54 30 119q482 25 559 27q8 0 12 -4t4 -17q0 -61 -30 -125q-48 -3 -559 -25q-6 0 -9.5 2t-5 7.5t-1.5 15.5z" />
<glyph unicode="&#xae;" horiz-adv-x="1528" d="M130 944q0 129 50 246.5t135 202t202 135t246 50.5t247 -50.5t203 -135t135.5 -202t50.5 -246.5t-50.5 -246.5t-135.5 -203t-203 -135.5t-247 -50t-246 50t-202 135.5t-135 203t-50 246.5zM206 944q0 -113 44.5 -217t119.5 -179.5t178.5 -120t217.5 -44.5 q91 0 176.5 28.5t154.5 80.5t121 121t80.5 154.5t28.5 176.5q0 114 -44.5 217.5t-120 178.5t-179.5 119t-217 44q-76 0 -148.5 -20t-134 -56t-113 -87.5t-87.5 -113t-56.5 -134t-20.5 -148.5zM474 649.5q0 12.5 4 16.5q8 0 22 1.5t29 5.5t16 9q5 16 5 72v411q0 55 -5 72 q-1 7 -26.5 11.5t-40.5 4.5q-4 3 -4 16t4 16q79 -4 132 -4q16 0 62 1t77 1q47 0 93.5 -19t81 -59.5t34.5 -93.5q0 -50 -37.5 -95t-89.5 -65q62 -105 167 -232q22 -27 46 -38.5t65 -14.5q2 -2 1.5 -7l-1 -10t-1.5 -10t-1 -6q-127 0 -158 12q-41 14 -63 42q-54 71 -162 236 q-9 12 -30 12h-35v-181q0 -56 5 -72q1 -7 26 -11.5t41 -4.5q3 -4 3 -16.5t-3 -16.5q-79 5 -125 5q-49 0 -128 -5q-4 4 -4 16.5zM659 977h42q43 0 75 11.5t51.5 37t19.5 62.5q0 74 -29.5 115t-105.5 41q-44 0 -48 -10q-5 -11 -5 -74v-183z" />
<glyph unicode="&#xaf;" horiz-adv-x="784" d="M125 1202.5q7 39.5 24 50.5h519q13 -9 8 -44t-22 -54h-519q-17 8 -10 47.5z" />
<glyph unicode="&#xb0;" horiz-adv-x="635" d="M88 1244q0 93 68 160t162 67t160.5 -67t66.5 -160q0 -95 -66.5 -162.5t-160.5 -67.5t-162 68t-68 162zM174 1244q0 -60 42.5 -102t101.5 -42t100 42t41 102q0 59 -41 100t-100 41q-60 0 -102 -41.5t-42 -99.5z" />
<glyph unicode="&#xb1;" horiz-adv-x="1271" d="M79 37q0 15 10 55t25 52h1058q7 0 13.5 -7.5t6.5 -20.5q0 -27 -11 -57.5t-26 -44.5h-1062q-2 0 -4 0.5t-6 6.5t-4 16zM79 731q0 15 10 55t25 52h454v464q68 25 100 25q7 0 12.5 -1.5t8.5 -3.5t5.5 -4t2.5 -3l1 -2v-475h474q7 0 13.5 -7.5t6.5 -20.5q0 -27 -11 -57.5 t-26 -44.5h-457v-469q-34 -26 -99 -26q-12 0 -21.5 7t-9.5 14v474h-475h-0.5t-2 0.5l-3 1t-3 2.5l-3 4t-2 6t-0.5 9z" />
<glyph unicode="&#xb2;" horiz-adv-x="830" d="M93 617q32 35 100 102.5t127 130.5t101 120q109 144 109 260q0 74 -41 120.5t-112 46.5q-38 0 -69.5 -10t-56.5 -29t-40.5 -35t-35.5 -40q-7 -7 -24.5 11.5t-15.5 27.5q43 74 118 126.5t151 52.5q122 0 199 -69.5t77 -178.5q0 -106 -106 -235q-22 -26 -58.5 -64.5 t-66.5 -69t-84 -85t-81 -82.5h278q27 0 49.5 10t37.5 28t24.5 32.5t18 33t9.5 21.5q2 4 12 7q7 0 17.5 -4t14.5 -10q-9 -24 -38 -113t-47 -133h-539q-10 0 -20.5 10.5t-7.5 17.5z" />
<glyph unicode="&#xb3;" horiz-adv-x="737" d="M90 668q0 34 21.5 55.5t50.5 21.5q18 0 31 -9.5t29.5 -30.5t23.5 -28q35 -34 90 -34q76 0 121.5 54t45.5 157q0 83 -50.5 141t-116.5 58q-18 0 -38 -4t-36.5 -9t-17.5 -5q-7 7 -12 25q-4 16 0 23q92 19 154 72.5t62 134.5q0 45 -36.5 81.5t-82.5 36.5q-13 0 -27 -2 t-26.5 -7t-23 -10t-21.5 -12.5t-18.5 -12.5t-16.5 -13t-13 -12t-10 -10.5l-6 -6.5q-5 3 -10.5 11.5t-8.5 16.5t-2 10q93 139 230 139q51 0 95.5 -19.5t75.5 -61.5t31 -98q0 -36 -13.5 -69.5t-35 -57t-43.5 -40t-43 -25.5q19 0 45 -9.5t54.5 -29t53 -46t40.5 -65.5t16 -82 q0 -75 -30.5 -136t-83 -100.5t-120.5 -60.5t-144 -21q-42 0 -90.5 10t-65.5 24q-28 26 -28 56z" />
<glyph unicode="&#xb4;" horiz-adv-x="603" d="M116 1246q0 10 84.5 131t140.5 191q2 2 10 6t23 8.5t30 4.5q28 0 46.5 -8.5t25.5 -21.5t9 -21.5t2 -15.5q0 -26 -51.5 -79t-115 -102t-119 -86t-64.5 -37q-21 0 -21 30z" />
<glyph unicode="&#xb5;" horiz-adv-x="1255" d="M181 -441q0 73 15.5 416.5t33.5 497.5q0 28 -5 110t-5 108q0 4 0.5 61t0.5 116.5t-1 98.5q9 15 14 22t17 16t25 9q12 0 41.5 -15t55.5 -36t26 -35q0 -107 -53 -357l-12 -54q0 -71 7 -135t20.5 -117.5t37 -85t53.5 -31.5q45 0 88.5 24t78.5 61.5t66.5 88.5t54.5 101 t42 104v164q0 4 0.5 61t0.5 116.5t-1 98.5q7 11 10 16t11 14t16.5 13t18.5 4q20 0 71 -32.5t51 -53.5q0 -12 -2 -32t-7 -53.5t-10.5 -67.5t-15.5 -93.5t-18 -110.5l-23 -119q0 -84 18 -150.5t55.5 -107.5t88.5 -41q65 0 119 70q8 0 21 -21q6 -14 6 -26q-22 -77 -84 -131 t-131 -54q-32 0 -58.5 30t-42 71t-27.5 92.5t-16.5 85.5t-6.5 59q-22 -51 -48.5 -98.5t-61.5 -94.5t-73 -81t-84 -55t-93 -21q-27 0 -51 20.5t-39 48.5t-27.5 67t-18 65t-10.5 54q1 -7 0.5 -138.5t8 -293t31.5 -282.5q-9 -15 -14 -22t-17 -16t-25 -9q-12 0 -41.5 15 t-55.5 36t-26 35z" />
<glyph unicode="&#xb6;" horiz-adv-x="1122" d="M79 1088q0 92 35 173t92 135t127.5 85.5t142.5 31.5q68 0 112 -5t113 -5t139 3t106 6l35 3q9 -9 8 -35.5t-10 -31.5q-19 0 -47 -5.5t-54 -17t-31 -24.5q-7 -24 -7 -148v-467q5 -1 33.5 7t54.5 16l26 8q23 0 23 -14q-2 -17 -28 -48.5t-40 -37.5q-43 -20 -71 -23v-425 q0 -134 11 -172q3 -11 35.5 -22t66 -16.5t49.5 -5.5q3 0 3 -29.5t-3 -32.5q-58 2 -144 8t-167 6q-48 0 -102 -2.5t-128 -6.5t-92 -5q-5 10 -4.5 33t8.5 29q24 0 80.5 14t61.5 30q11 38 11 172v397q-61 0 -117.5 15t-100.5 40.5t-81.5 59.5t-64 72.5t-45 79.5t-27.5 80.5 t-9 74.5zM615 269q0 -134 7 -172q2 -13 58 -13q58 0 60 13q7 38 7 172l-2 408l-130 -9v-399zM615 761q20 0 73 3.5t59 8.5v633q-12 12 -67 12q-51 0 -65 -14v-643z" />
<glyph unicode="&#xb7;" horiz-adv-x="519" d="M125 612q0 56 39.5 95.5t95.5 39.5t95 -39.5t39 -95.5q0 -55 -39.5 -95.5t-94.5 -40.5q-37 0 -68 18.5t-49 50t-18 67.5z" />
<glyph unicode="&#xb8;" horiz-adv-x="535" d="M116 -299q0 12 11 22t21 10q13 0 40 -15t46 -15q32 0 55 11t34 28t11 38q0 38 -22.5 58t-49.5 20q-7 0 -13 -0.5t-13 -2.5t-10 -3t-12 -4.5t-12 -5.5q-5 0 -15.5 12t-7.5 18q9 15 36.5 58t37.5 61h49l-42 -54h58q22 0 41 -9t32.5 -24.5t21 -36.5t7.5 -43 q0 -80 -62.5 -128.5t-155.5 -48.5q-13 0 -29.5 3.5t-29.5 8.5t-20 9q0 2 -3.5 13t-3.5 20z" />
<glyph unicode="&#xb9;" horiz-adv-x="677" d="M90 1322q0 15 7 19q109 45 194.5 88t119 63.5t34.5 20.5h5q3 0 6.5 -4t6.5 -9t5.5 -12t4 -12t3.5 -10.5t2 -6.5q-21 -97 -21 -188v-482q0 -38 3.5 -60.5t15.5 -48.5q4 -11 52.5 -22t67.5 -11q5 0 5 -26.5t-5 -33.5q-28 1 -59.5 2t-52 2t-50 2t-60.5 1q-53 0 -129.5 -3 t-102.5 -4q-9 5 -9 31.5t9 26.5q25 0 75 10.5t54 21.5q14 37 14 107v418q0 51 -6 78t-14.5 33.5t-23.5 6.5q-24 0 -130 -37q-6 3 -11 10t-7.5 14.5t-2.5 14.5z" />
<glyph unicode="&#xba;" horiz-adv-x="900" d="M88 926q0 73 28.5 139t77 114.5t117 77t144.5 28.5q99 0 181 -47t129 -127.5t47 -175.5t-46.5 -178.5t-129.5 -133.5t-181 -50q-99 0 -184 47.5t-134 129t-49 176.5zM248 954q0 -60 14 -116.5t41 -103.5t71 -76t99 -29q46 0 81.5 25t56 66.5t31 89t10.5 97.5 q0 59 -13.5 114.5t-39 103t-68.5 76.5t-97 29q-48 0 -85.5 -24.5t-58.5 -65.5t-31.5 -88t-10.5 -98z" />
<glyph unicode="&#xbb;" horiz-adv-x="1118" d="M95 193q10 34 133 168t210 212q-87 78 -210 212t-133 169q10 15 51 27l12 -12t31.5 -29.5t53 -47t70.5 -58t90 -69.5t105.5 -74t122.5 -79q2 -4 4.5 -9.5t3.5 -7.5t2 -5.5t1.5 -7.5t0.5 -11q0 -20 -12 -37q-85 -52 -167.5 -110t-133 -98t-100.5 -84t-61 -54.5t-23 -22.5 q-41 13 -51 28zM513 193q10 34 132.5 168t210.5 212q-88 78 -210.5 212t-132.5 169q10 15 51 27l12 -12t31.5 -29.5t53 -47t70.5 -58t89.5 -69.5t105.5 -74t123 -79q2 -4 4 -8.5t3 -6.5t2 -4.5t1.5 -5.5t0.5 -6.5v-9.5q0 -20 -11 -37q-85 -52 -167.5 -110t-133.5 -98 t-101 -84t-60.5 -54.5l-22.5 -22.5q-41 13 -51 28z" />
<glyph unicode="&#xbc;" horiz-adv-x="1621" d="M79 1295q31 19 313 185q12 -3 21 -14t9 -23q-18 -114 -18 -204v-459q0 -65 16 -114q3 -11 49.5 -22t66.5 -11q7 -11 6 -27.5t-4 -23.5q-34 1 -91.5 4t-107.5 3q-52 0 -117 -3t-97 -4q-8 6 -7.5 25t7.5 26q15 0 41 5.5t49 14t26 15.5q4 11 8 26t6 30t3.5 28.5t1.5 22.5 v431q0 34 -11.5 58t-28.5 24q-11 0 -26 -4.5t-44.5 -15.5t-40.5 -15q-19 10 -30 42zM406 -9l810 1485q1 4 10 9t26.5 8.5t35.5 0.5q9 -1 13.5 -8.5t4.5 -14.5l-800 -1466q-7 -14 -28.5 -27t-45.5 -8q-12 2 -18.5 7t-6.5 10zM884 283l476 633q22 28 46 28q10 0 15.5 -9 t5.5 -19v-577h81q17 -15 22 -41.5t-8 -51.5h-88v-246q-7 -7 -70 -7q-60 0 -74 12v241h-383q-20 4 -23 37zM1025 350h265v358q-49 -62 -131.5 -177t-133.5 -181z" />
<glyph unicode="&#xbd;" horiz-adv-x="1739" d="M86 1295q31 19 313 185q12 -3 21 -14t9 -23q-18 -114 -18 -204v-459q0 -65 16 -114q3 -11 49.5 -22t66.5 -11q7 -11 6 -27.5t-4 -23.5q-35 1 -92 4t-107 3q-52 0 -117 -3t-97 -4q-8 6 -7.5 25t7.5 26q15 0 41 5.5t49 14t26 15.5q6 14 10.5 35.5t6.5 40.5t2 31v431 q0 34 -11.5 58t-28.5 24q-11 0 -26 -4.5t-44.5 -15.5t-40.5 -15q-19 10 -30 42zM408 -9l810 1485q1 4 10.5 9t26.5 8.5t35 0.5q9 -1 13.5 -8.5t4.5 -14.5l-800 -1466q-7 -14 -28 -27t-46 -8q-12 2 -18 7t-7 10zM1009 26q4 4 127.5 130t178.5 197q130 166 130 285 q0 75 -40.5 121t-112.5 46q-37 0 -68.5 -9.5t-57 -29t-41 -35t-35.5 -40.5q-6 -6 -23.5 12.5t-15.5 27.5q42 73 117 125.5t152 52.5q80 0 143 -31t98 -88t35 -129q0 -106 -107 -234q-15 -18 -35.5 -41t-41.5 -45t-49.5 -50.5t-52 -52.5t-56 -56.5t-55.5 -56.5h279q22 0 42 8 t33 19.5t25 27t18 28t12.5 26t8.5 17.5q2 3 12 7q6 0 16.5 -4t15.5 -10q-9 -25 -38 -114t-48 -132h-538q-10 0 -20.5 10.5t-7.5 17.5z" />
<glyph unicode="&#xbe;" horiz-adv-x="1624" d="M81 668q0 34 21.5 55.5t50.5 21.5q18 0 31 -9.5t29.5 -30.5t23.5 -28q34 -34 90 -34q76 0 121.5 54t45.5 157q0 83 -50.5 141t-116.5 58q-18 0 -38 -4t-36.5 -9t-18.5 -5q-7 7 -11 28q-4 12 0 20q44 9 82 26.5t68 43t47.5 61t17.5 76.5q0 45 -36.5 81.5t-81.5 36.5 q-12 0 -25 -2t-23.5 -5.5t-21.5 -8.5t-20 -10t-18 -11.5t-15.5 -11.5t-14 -12t-11 -10.5l-8.5 -8.5t-5 -6q-6 3 -11.5 11.5t-8 16.5t-1.5 10q93 139 230 139q50 0 95 -19.5t75.5 -61.5t30.5 -98q0 -36 -13.5 -69.5t-35 -57t-43 -40t-42.5 -25.5q19 0 45 -9.5t54.5 -29 t53 -46t40.5 -65.5t16 -82q0 -75 -31 -136t-83 -100.5t-120 -60.5t-145 -21q-26 0 -57 4t-59 12.5t-39 17.5q-28 26 -28 56zM420 -9l810 1485q1 4 10 9t26 8.5t36 0.5q6 -1 10.5 -5.5t6 -9t1.5 -8.5l-800 -1466q-7 -14 -28.5 -27t-46.5 -8q-11 2 -17.5 7t-6.5 10zM886 283 l476 633q22 28 46 28q10 0 15.5 -9t5.5 -19v-577h81q17 -15 22 -41.5t-8 -51.5h-88v-246q-7 -7 -70 -7q-59 0 -74 12v241h-383q-20 4 -23 37zM1028 350h264v358q-48 -62 -130.5 -177t-133.5 -181z" />
<glyph unicode="&#xbf;" horiz-adv-x="800" d="M95 -88q0 119 52.5 200t181.5 155q31 18 71 47t72 56.5t38 40.5q8 13 11.5 35t4 37.5t-0.5 48.5t-1 41q8 15 15.5 22t21.5 8q22 -9 31 -25q8 -35 13 -98t5 -113q0 -34 -6 -64t-14.5 -52.5t-25 -44.5t-29 -36t-35 -31.5t-35 -26t-36.5 -23.5q-4 -2 -6 -3.5t-5 -3.5 t-5 -3.5t-7 -4.5q-31 -19 -46 -29t-40 -27.5t-37.5 -29.5t-29 -30t-24 -34.5t-13 -37.5t-5.5 -44q0 -86 51 -138t121 -52q41 0 74 7.5t49.5 16.5t36.5 17t39 8q31 0 66.5 -32.5t35.5 -83.5q0 -57 -20 -86q-33 -16 -112 -16q-47 0 -106 18t-121 55t-113 87t-84 120.5 t-33 148.5zM413 868q0 52 36.5 91t88.5 39q34 0 64.5 -18t48 -48t17.5 -64q0 -52 -38.5 -89t-91.5 -37q-52 0 -88.5 36.5t-36.5 89.5z" />
<glyph unicode="&#xc0;" horiz-adv-x="1454" d="M-33 23q0 25 5 37q29 0 76.5 12t62.5 32q32 41 55.5 91t53.5 127q307 788 448 1149q4 8 15.5 20t25 22.5t27 17.5t20.5 7q4 0 7.5 -3t6.5 -4l474 -1239q57 -152 58 -153q10 -25 46.5 -44.5t67 -27t43.5 -7.5q8 -10 8 -34t-3 -33q-29 1 -79.5 4.5t-90.5 5.5t-85 2 q-48 0 -89 -2t-92 -5t-88 -5q-9 9 -8 33.5t10 33.5q26 0 71 9t59 21q9 10 9 33q0 31 -39.5 144t-78.5 211l-40 97q-7 10 -14 10q-30 2 -229 2q-146 0 -251 -7q-2 0 -5 -1.5t-5 -3.5l-1 -2q-65 -172 -105 -283q-32 -95 -32 -165q0 -15 15 -27.5t35.5 -19t45 -11t40.5 -6 t24 -1.5q5 -5 6.5 -31t-2.5 -36q-33 2 -72.5 5t-73 5t-79.5 2q-47 0 -83.5 -2t-80.5 -5t-84 -5q-5 5 -5 30zM394 1928q0 28 23.5 49t83.5 21q28 0 42 -7q58 -44 169.5 -156t111.5 -125q0 -6 -4.5 -13.5t-9.5 -7.5q-16 0 -82 26.5t-140.5 62.5t-134 79t-59.5 71zM462 691 q0 -9 4 -9q121 -5 211 -5q87 0 195 7q2 0 4 3t3 6v3l-204 561z" />
<glyph unicode="&#xc1;" horiz-adv-x="1454" d="M-33 23q0 25 5 37q29 0 76.5 12t62.5 32q32 41 55.5 91t53.5 127q307 788 448 1149q4 8 15.5 20t25 22.5t27 17.5t20.5 7q4 0 7.5 -3t6.5 -4l474 -1239q57 -152 58 -153q10 -25 46.5 -44.5t67 -27t43.5 -7.5q8 -10 8 -34t-3 -33q-29 1 -79.5 4.5t-90.5 5.5t-85 2 q-48 0 -89 -2t-92 -5t-88 -5q-9 9 -8 33.5t10 33.5q26 0 71 9t59 21q9 10 9 33q0 31 -39.5 144t-78.5 211l-40 97q-7 10 -14 10q-30 2 -229 2q-146 0 -251 -7q-2 0 -5 -1.5t-5 -3.5l-1 -2q-65 -172 -105 -283q-32 -95 -32 -165q0 -15 15 -27.5t35.5 -19t45 -11t40.5 -6 t24 -1.5q5 -5 6.5 -31t-2.5 -36q-33 2 -72.5 5t-73 5t-79.5 2q-47 0 -83.5 -2t-80.5 -5t-84 -5q-5 5 -5 30zM462 691q0 -9 4 -9q121 -5 211 -5q87 0 195 7q2 0 4 3t3 6v3l-204 561zM624 1710q0 13 111 125t170 156q14 7 42 7q60 0 83 -21t23 -49t-59 -71t-133.5 -79 t-140.5 -62.5t-82 -26.5q-5 0 -9.5 7.5t-4.5 13.5z" />
<glyph unicode="&#xc2;" horiz-adv-x="1454" d="M-33 23q0 25 5 37q29 0 76.5 12t62.5 32q32 41 55.5 91t53.5 127q307 788 448 1149q4 8 15.5 20t25 22.5t27 17.5t20.5 7q4 0 7.5 -3t6.5 -4l474 -1239q57 -152 58 -153q10 -25 46.5 -44.5t67 -27t43.5 -7.5q8 -10 8 -34t-3 -33q-29 1 -79.5 4.5t-90.5 5.5t-85 2 q-48 0 -89 -2t-92 -5t-88 -5q-9 9 -8 33.5t10 33.5q26 0 71 9t59 21q9 10 9 33q0 31 -39.5 144t-78.5 211l-40 97q-7 10 -14 10q-30 2 -229 2q-146 0 -251 -7q-2 0 -5 -1.5t-5 -3.5l-1 -2q-65 -172 -105 -283q-32 -95 -32 -165q0 -15 15 -27.5t35.5 -19t45 -11t40.5 -6 t24 -1.5q5 -5 6.5 -31t-2.5 -36q-33 2 -72.5 5t-73 5t-79.5 2q-47 0 -83.5 -2t-80.5 -5t-84 -5q-5 5 -5 30zM462 691q0 -9 4 -9q121 -5 211 -5q87 0 195 7q2 0 4 3t3 6v3l-204 561zM487 1726q31 32 107.5 110t131.5 138q19 19 28 19t28 -19q47 -50 117 -122.5t119 -125.5 q0 -12 -6.5 -25.5t-16.5 -13.5l-241 148l-241 -148q-10 0 -18 13.5t-8 25.5z" />
<glyph unicode="&#xc3;" horiz-adv-x="1454" d="M-33 23q0 25 5 37q29 0 76.5 12t62.5 32q32 41 55.5 91t53.5 127q307 788 448 1149q4 8 15.5 20t25 22.5t27 17.5t20.5 7q4 0 7.5 -3t6.5 -4l474 -1239q57 -152 58 -153q10 -25 46.5 -44.5t67 -27t43.5 -7.5q8 -10 8 -34t-3 -33q-29 1 -79.5 4.5t-90.5 5.5t-85 2 q-48 0 -89 -2t-92 -5t-88 -5q-9 9 -8 33.5t10 33.5q26 0 71 9t59 21q9 10 9 33q0 31 -39.5 144t-78.5 211l-40 97q-7 10 -14 10q-30 2 -229 2q-146 0 -251 -7q-2 0 -5 -1.5t-5 -3.5l-1 -2q-65 -172 -105 -283q-32 -95 -32 -165q0 -15 15 -27.5t35.5 -19t45 -11t40.5 -6 t24 -1.5q5 -5 6.5 -31t-2.5 -36q-33 2 -72.5 5t-73 5t-79.5 2q-47 0 -83.5 -2t-80.5 -5t-84 -5q-5 5 -5 30zM434 1717q0 39 32 81q69 84 160 84q30 0 60 -8.5t47.5 -17.5t48.5 -26q97 -55 141 -55q26 0 49.5 8t39.5 20.5t28 24.5t21.5 22.5t12.5 12.5q7 0 10.5 -7.5 t3.5 -15.5q0 -40 -32 -81q-71 -86 -160 -86q-19 0 -37 3t-31.5 7t-31.5 12t-27.5 13.5t-28.5 15.5q-19 11 -29.5 16.5t-28 14.5t-30 13.5t-27.5 7.5t-29 3q-26 0 -49 -8t-39 -20t-27.5 -24.5t-20.5 -23t-12 -12.5q-5 0 -8 4.5t-4.5 10.5t-1.5 11zM462 691q0 -9 4 -9 q121 -5 211 -5q87 0 195 7q2 0 4 3t3 6v3l-204 561z" />
<glyph unicode="&#xc4;" horiz-adv-x="1454" d="M-33 23q0 25 5 37q29 0 76.5 12t62.5 32q32 41 55.5 91t53.5 127q307 788 448 1149q4 8 15.5 20t25 22.5t27 17.5t20.5 7q4 0 7.5 -3t6.5 -4l474 -1239q57 -152 58 -153q10 -25 46.5 -44.5t67 -27t43.5 -7.5q8 -10 8 -34t-3 -33q-29 1 -79.5 4.5t-90.5 5.5t-85 2 q-48 0 -89 -2t-92 -5t-88 -5q-9 9 -8 33.5t10 33.5q26 0 71 9t59 21q9 10 9 33q0 31 -39.5 144t-78.5 211l-40 97q-7 10 -14 10q-30 2 -229 2q-146 0 -251 -7q-2 0 -5 -1.5t-5 -3.5l-1 -2q-65 -172 -105 -283q-32 -95 -32 -165q0 -15 15 -27.5t35.5 -19t45 -11t40.5 -6 t24 -1.5q5 -5 6.5 -31t-2.5 -36q-33 2 -72.5 5t-73 5t-79.5 2q-47 0 -83.5 -2t-80.5 -5t-84 -5q-5 5 -5 30zM429 1805q0 49 33.5 82.5t82.5 33.5t82.5 -33.5t33.5 -82.5t-33.5 -82.5t-82.5 -33.5t-82.5 33.5t-33.5 82.5zM462 691q0 -9 4 -9q121 -5 211 -5q87 0 195 7 q2 0 4 3t3 6v3l-204 561zM849 1805q0 49 33.5 82.5t82.5 33.5t82.5 -33.5t33.5 -82.5t-33.5 -82.5t-82.5 -33.5t-82.5 33.5t-33.5 82.5z" />
<glyph unicode="&#xc5;" horiz-adv-x="1454" d="M-33 23q0 25 5 37q29 0 76.5 12t62.5 32q32 41 55.5 91t53.5 127q307 788 448 1149q4 8 15.5 20t25 22.5t27 17.5t20.5 7q4 0 7.5 -3t6.5 -4l474 -1239q57 -152 58 -153q10 -25 46.5 -44.5t67 -27t43.5 -7.5q8 -10 8 -34t-3 -33q-29 1 -79.5 4.5t-90.5 5.5t-85 2 q-48 0 -89 -2t-92 -5t-88 -5q-9 9 -8 33.5t10 33.5q26 0 71 9t59 21q9 10 9 33q0 31 -39.5 144t-78.5 211l-40 97q-7 10 -14 10q-30 2 -229 2q-146 0 -251 -7q-2 0 -5 -1.5t-5 -3.5l-1 -2q-65 -172 -105 -283q-32 -95 -32 -165q0 -15 15 -27.5t35.5 -19t45 -11t40.5 -6 t24 -1.5q5 -5 6.5 -31t-2.5 -36q-33 2 -72.5 5t-73 5t-79.5 2q-47 0 -83.5 -2t-80.5 -5t-84 -5q-5 5 -5 30zM462 691q0 -9 4 -9q121 -5 211 -5q87 0 195 7q2 0 4 3t3 6v3l-204 561zM541 1745q0 85 61 145.5t145 60.5t143 -60.5t59 -145.5q0 -86 -59.5 -147.5t-142.5 -61.5 q-84 0 -145 62t-61 147zM617 1745q0 -54 38.5 -92t91.5 -38q52 0 88.5 38t36.5 92q0 26 -9.5 50t-26.5 40.5t-40 26.5t-49 10q-53 0 -91.5 -37t-38.5 -90z" />
<glyph unicode="&#xc6;" horiz-adv-x="2081" d="M-38 23q0 25 6 37q21 0 64.5 14.5t67.5 29.5q73 47 174 214l642 1037q17 27 17 46t-21 33.5t-44 19.5t-40 5q-7 12 -5.5 37.5t5.5 30.5q114 -3 269 -3q105 0 359.5 8t385.5 8q10 -67 36 -177.5t31 -137.5q-11 -12 -41 -12t-33 17q-18 67 -45 111.5t-63 67t-73 31t-88 8.5 h-200q-16 0 -36.5 -1t-50 -3.5t-50 -8t-23.5 -13.5q-11 -37 -11 -165v-433q0 -14 100 -14h123h70t53 4t40 6.5t28.5 13t20.5 17t14 27t12 34t12 45.5q3 13 5 20q3 16 35 16q27 0 39 -12v-438q-9 -9 -37 -9q-30 0 -37 18q-17 64 -28.5 96t-18 40.5t-18.5 16.5q-29 19 -246 19 q-167 0 -167 -21v-441v-39.5t1.5 -47.5t4.5 -49.5t8 -23.5q21 -16 51.5 -19.5t112.5 -3.5h112q83 0 163.5 17t128.5 46q22 12 40.5 32t32 39.5t28 50.5t23 52.5t22.5 59.5q4 14 33 14q11 0 23.5 -2t21.5 -5.5t13 -6.5q-11 -30 -35.5 -96.5t-39 -107.5t-30 -93.5t-21.5 -87.5 q-119 0 -374 4.5t-417 4.5q-69 0 -136 -1.5t-100 -3.5l-33 -2q-4 5 -5 22t1 31t4 14q28 0 87 17.5t66 36.5q17 62 17 199v279q-84 4 -207 4q-27 0 -49.5 -0.5t-45 -1.5t-39 -2t-47.5 -3.5t-56 -3.5q-2 0 -4.5 -2t-4.5 -4l-2 -1q-98 -165 -169 -279q-93 -144 -93 -178 q0 -16 14 -28t32.5 -18t42 -9.5t37 -4.5t22.5 -1q5 -5 6.5 -31t-1.5 -36q-34 2 -73 5t-73 5t-79 2q-47 0 -82 -2t-77.5 -5t-81.5 -5q-6 5 -6 30zM617 696q-2 -9 2 -9q61 -3 184 -3q106 0 195 5v624z" />
<glyph unicode="&#xc7;" horiz-adv-x="1563" d="M114 747q0 107 26.5 209.5t75 191t119 162.5t156.5 126.5t190.5 81.5t216.5 29q266 0 492 -48q53 -320 53 -344q1 -5 -3.5 -10.5t-12 -9.5t-17 -7t-18.5 -3q-17 0 -28 7q-3 18 -6 31t-12 40.5t-19.5 49t-30 50.5t-42.5 51t-57.5 45t-75 38t-95 24.5t-117.5 9.5 q-99 0 -189.5 -39t-158 -105.5t-117.5 -152.5t-75.5 -183.5t-25.5 -194.5q0 -92 17 -180.5t49.5 -170.5t84 -151.5t117 -121t151.5 -80.5t185 -29q182 0 306 111q104 94 141 269q41 4 75 -18q0 -25 -13.5 -99.5t-33.5 -148.5t-35 -87q-185 -104 -498 -104q-113 0 -217 28 t-188.5 78t-154.5 120.5t-117 154.5t-72.5 181t-25.5 199zM712 -341q0 9 6.5 17.5t16 14t17.5 5.5q14 0 45 -17.5t54 -17.5q55 0 87 27t32 64q0 44 -26.5 68.5t-57.5 24.5q-14 0 -27 -3t-18.5 -5.5t-26.5 -10.5q-5 0 -18 13.5t-10 21.5q8 13 42.5 64.5t46.5 74.5h58l-51 -63 h69q53 0 87 -39.5t34 -94.5q0 -93 -74 -150t-184 -57q-24 0 -52 7.5t-40 16.5q-1 4 -3 9.5t-3 9t-2.5 9t-1.5 11.5z" />
<glyph unicode="&#xc8;" horiz-adv-x="1361" d="M96.5 26.5q0.5 24.5 7.5 33.5q36 0 96 10.5t64 26.5q12 38 12 172v991q0 134 -12 171q-4 17 -64 27.5t-96 10.5q-7 9 -7.5 33.5t7.5 33.5q24 -1 86.5 -4.5t104.5 -5.5t83 -2q105 0 360.5 8t386.5 8q10 -67 36 -177.5t31 -137.5q-11 -12 -41 -12t-33 17q-18 67 -45 111.5 t-63 67t-73 31t-88 8.5h-199q-16 0 -37 -1t-50.5 -3.5t-50 -8t-22.5 -13.5q-12 -37 -12 -165v-433q0 -14 100 -14h123h70t53.5 4t40 6.5t28 13t20.5 17t14 27t12 34t12 45.5q3 13 5 20q3 16 35 16q27 0 39 -12v-438q-9 -9 -37 -9q-30 0 -37 18q-17 64 -28.5 96t-18 40.5 t-18.5 16.5q-29 19 -246 19q-167 0 -167 -21v-441v-39.5t1.5 -47.5t4.5 -49.5t8 -23.5q21 -16 51.5 -19.5t113.5 -3.5h111q84 0 164 17t128 46q22 12 41 32t32 39.5t27.5 50.5t23 52.5t22.5 59.5q4 14 33 14q11 0 23.5 -2t21.5 -5.5t13 -6.5q-11 -30 -35 -96.5t-39 -107.5 t-30.5 -93.5t-20.5 -87.5q-120 0 -375 4.5t-417 4.5q-56 0 -144.5 -3.5t-131.5 -3.5q-8 9 -7.5 33.5zM367 1928q0 12 4 23t14.5 22t33 18t54.5 7q28 0 42 -7q58 -44 169.5 -156t111.5 -125q0 -6 -4.5 -13.5t-9.5 -7.5q-16 0 -82 26.5t-140.5 62.5t-133.5 79t-59 71z" />
<glyph unicode="&#xc9;" horiz-adv-x="1361" d="M96.5 26.5q0.5 24.5 7.5 33.5q36 0 96 10.5t64 26.5q12 38 12 172v991q0 134 -12 171q-4 17 -64 27.5t-96 10.5q-7 9 -7.5 33.5t7.5 33.5q24 -1 86.5 -4.5t104.5 -5.5t83 -2q105 0 360.5 8t386.5 8q10 -67 36 -177.5t31 -137.5q-11 -12 -41 -12t-33 17q-18 67 -45 111.5 t-63 67t-73 31t-88 8.5h-199q-16 0 -37 -1t-50.5 -3.5t-50 -8t-22.5 -13.5q-12 -37 -12 -165v-433q0 -14 100 -14h123h70t53.5 4t40 6.5t28 13t20.5 17t14 27t12 34t12 45.5q3 13 5 20q3 16 35 16q27 0 39 -12v-438q-9 -9 -37 -9q-30 0 -37 18q-17 64 -28.5 96t-18 40.5 t-18.5 16.5q-29 19 -246 19q-167 0 -167 -21v-441v-39.5t1.5 -47.5t4.5 -49.5t8 -23.5q21 -16 51.5 -19.5t113.5 -3.5h111q84 0 164 17t128 46q22 12 41 32t32 39.5t27.5 50.5t23 52.5t22.5 59.5q4 14 33 14q11 0 23.5 -2t21.5 -5.5t13 -6.5q-11 -30 -35 -96.5t-39 -107.5 t-30.5 -93.5t-20.5 -87.5q-120 0 -375 4.5t-417 4.5q-56 0 -144.5 -3.5t-131.5 -3.5q-8 9 -7.5 33.5zM594 1710q0 13 111 125t170 156q14 7 41 7q61 0 84 -21t23 -49t-59 -71t-134 -79t-140.5 -62.5t-81.5 -26.5q-5 0 -9.5 7.5t-4.5 13.5z" />
<glyph unicode="&#xca;" horiz-adv-x="1361" d="M96.5 26.5q0.5 24.5 7.5 33.5q36 0 96 10.5t64 26.5q12 38 12 172v991q0 134 -12 171q-4 17 -64 27.5t-96 10.5q-7 9 -7.5 33.5t7.5 33.5q24 -1 86.5 -4.5t104.5 -5.5t83 -2q105 0 360.5 8t386.5 8q10 -67 36 -177.5t31 -137.5q-11 -12 -41 -12t-33 17q-18 67 -45 111.5 t-63 67t-73 31t-88 8.5h-199q-16 0 -37 -1t-50.5 -3.5t-50 -8t-22.5 -13.5q-12 -37 -12 -165v-433q0 -14 100 -14h123h70t53.5 4t40 6.5t28 13t20.5 17t14 27t12 34t12 45.5q3 13 5 20q3 16 35 16q27 0 39 -12v-438q-9 -9 -37 -9q-30 0 -37 18q-17 64 -28.5 96t-18 40.5 t-18.5 16.5q-29 19 -246 19q-167 0 -167 -21v-441v-39.5t1.5 -47.5t4.5 -49.5t8 -23.5q21 -16 51.5 -19.5t113.5 -3.5h111q84 0 164 17t128 46q22 12 41 32t32 39.5t27.5 50.5t23 52.5t22.5 59.5q4 14 33 14q11 0 23.5 -2t21.5 -5.5t13 -6.5q-11 -30 -35 -96.5t-39 -107.5 t-30.5 -93.5t-20.5 -87.5q-120 0 -375 4.5t-417 4.5q-56 0 -144.5 -3.5t-131.5 -3.5q-8 9 -7.5 33.5zM438 1726q38 39 81.5 83t80 81.5t77.5 83.5q19 19 28.5 19t27.5 -19q47 -50 117.5 -122.5t119.5 -125.5q0 -12 -7 -25.5t-16 -13.5l-242 148l-241 -148q-10 0 -18 13.5 t-8 25.5z" />
<glyph unicode="&#xcb;" horiz-adv-x="1361" d="M96.5 26.5q0.5 24.5 7.5 33.5q36 0 96 10.5t64 26.5q12 38 12 172v991q0 134 -12 171q-4 17 -64 27.5t-96 10.5q-7 9 -7.5 33.5t7.5 33.5q24 -1 86.5 -4.5t104.5 -5.5t83 -2q105 0 360.5 8t386.5 8q10 -67 36 -177.5t31 -137.5q-11 -12 -41 -12t-33 17q-18 67 -45 111.5 t-63 67t-73 31t-88 8.5h-199q-16 0 -37 -1t-50.5 -3.5t-50 -8t-22.5 -13.5q-12 -37 -12 -165v-433q0 -14 100 -14h123h70t53.5 4t40 6.5t28 13t20.5 17t14 27t12 34t12 45.5q3 13 5 20q3 16 35 16q27 0 39 -12v-438q-9 -9 -37 -9q-30 0 -37 18q-17 64 -28.5 96t-18 40.5 t-18.5 16.5q-29 19 -246 19q-167 0 -167 -21v-441v-39.5t1.5 -47.5t4.5 -49.5t8 -23.5q21 -16 51.5 -19.5t113.5 -3.5h111q84 0 164 17t128 46q22 12 41 32t32 39.5t27.5 50.5t23 52.5t22.5 59.5q4 14 33 14q11 0 23.5 -2t21.5 -5.5t13 -6.5q-11 -30 -35 -96.5t-39 -107.5 t-30.5 -93.5t-20.5 -87.5q-120 0 -375 4.5t-417 4.5q-56 0 -144.5 -3.5t-131.5 -3.5q-8 9 -7.5 33.5zM362 1805q0 49 33.5 82.5t82.5 33.5t82.5 -33.5t33.5 -82.5t-33.5 -82.5t-82.5 -33.5t-82.5 33.5t-33.5 82.5zM782 1805q0 49 33.5 82.5t82.5 33.5t82.5 -33.5t33.5 -82.5 t-33.5 -82.5t-82.5 -33.5t-82.5 33.5t-33.5 82.5z" />
<glyph unicode="&#xcc;" horiz-adv-x="751" d="M86 1928q0 28 23 49t84 21q27 0 41 -7q59 -44 170 -156t111 -125q0 -4 -2 -8.5t-5.5 -8.5t-6.5 -4q-16 0 -82 26.5t-140.5 62.5t-133.5 79t-59 71zM96.5 26.5q0.5 24.5 7.5 33.5q36 0 96 10.5t64 26.5q12 38 12 172v991q0 134 -12 171q-4 17 -64 27.5t-96 10.5 q-7 9 -7.5 33.5t7.5 33.5q24 -1 86.5 -4.5t104.5 -5.5t83 -2q32 0 68.5 1.5t64.5 3t70 4t69 3.5q8 -9 7.5 -33.5t-7.5 -33.5q-36 0 -96 -10.5t-64 -27.5q-12 -37 -12 -171v-991q0 -134 12 -172q4 -16 64 -26.5t96 -10.5q7 -9 7.5 -33.5t-7.5 -33.5q-25 1 -86 4.5t-103 5.5 t-83 2t-83 -2t-104.5 -5.5t-86.5 -4.5q-8 9 -7.5 33.5z" />
<glyph unicode="&#xcd;" horiz-adv-x="751" d="M96.5 26.5q0.5 24.5 7.5 33.5q36 0 96 10.5t64 26.5q12 38 12 172v991q0 134 -12 171q-4 17 -64 27.5t-96 10.5q-7 9 -7.5 33.5t7.5 33.5q24 -1 86.5 -4.5t104.5 -5.5t83 -2q32 0 68.5 1.5t64.5 3t70 4t69 3.5q8 -9 7.5 -33.5t-7.5 -33.5q-36 0 -96 -10.5t-64 -27.5 q-12 -37 -12 -171v-991q0 -134 12 -172q4 -16 64 -26.5t96 -10.5q7 -9 7.5 -33.5t-7.5 -33.5q-25 1 -86 4.5t-103 5.5t-83 2t-83 -2t-104.5 -5.5t-86.5 -4.5q-8 9 -7.5 33.5zM267 1710q0 13 111 125t170 156q13 7 41 7q61 0 84 -21t23 -49t-59 -71t-134 -79t-141 -62.5 t-81 -26.5q-5 0 -9.5 7.5t-4.5 13.5z" />
<glyph unicode="&#xce;" horiz-adv-x="751" d="M96.5 26.5q0.5 24.5 7.5 33.5q36 0 96 10.5t64 26.5q12 38 12 172v991q0 134 -12 171q-4 17 -64 27.5t-96 10.5q-7 9 -7.5 33.5t7.5 33.5q24 -1 86.5 -4.5t104.5 -5.5t83 -2q32 0 68.5 1.5t64.5 3t70 4t69 3.5q8 -9 7.5 -33.5t-7.5 -33.5q-36 0 -96 -10.5t-64 -27.5 q-12 -37 -12 -171v-991q0 -134 12 -172q4 -16 64 -26.5t96 -10.5q7 -9 7.5 -33.5t-7.5 -33.5q-25 1 -86 4.5t-103 5.5t-83 2t-83 -2t-104.5 -5.5t-86.5 -4.5q-8 9 -7.5 33.5zM130 1673q30 31 107 109.5t132 138.5q18 19 27.5 19t28.5 -19q47 -51 117 -123.5t119 -124.5 q0 -12 -6.5 -26t-16.5 -14l-241 149l-242 -149q-9 0 -17 14t-8 26z" />
<glyph unicode="&#xcf;" horiz-adv-x="751" d="M65 1805q0 49 33.5 82.5t82.5 33.5t82.5 -33.5t33.5 -82.5t-33.5 -82.5t-82.5 -33.5t-82.5 33.5t-33.5 82.5zM98.5 26.5q0.5 24.5 8.5 33.5q35 0 95 10.5t65 26.5q11 38 11 172v991q0 134 -11 171q-5 17 -65 27.5t-95 10.5q-8 9 -8.5 33.5t8.5 33.5q23 -1 85.5 -4.5 t105 -5.5t82.5 -2q32 0 69 1.5t64.5 3t70 4t68.5 3.5q8 -9 7.5 -33.5t-7.5 -33.5q-35 0 -95.5 -10.5t-64.5 -27.5q-12 -37 -12 -171v-991q0 -134 12 -172q4 -16 64.5 -26.5t95.5 -10.5q7 -9 7.5 -33.5t-7.5 -33.5q-25 1 -86 4.5t-103 5.5t-82.5 2t-83 -2t-105 -5.5 t-85.5 -4.5q-9 9 -8.5 33.5zM485 1805q0 49 33.5 82.5t82.5 33.5t82.5 -33.5t33.5 -82.5t-33.5 -82.5t-82.5 -33.5t-82.5 33.5t-33.5 82.5z" />
<glyph unicode="&#xd0;" horiz-adv-x="1647" d="M96.5 26.5q0.5 24.5 7.5 33.5q36 0 96 10.5t64 26.5q12 38 12 172v991q0 134 -12 171q-4 17 -64 27.5t-96 10.5q-7 9 -7.5 33.5t7.5 33.5q24 -1 86.5 -4.5t104.5 -5.5t83 -2q44 0 164 1.5t173 1.5q186 0 340.5 -57.5t257.5 -158t159.5 -238.5t56.5 -298q0 -88 -12.5 -168 t-41 -159.5t-72.5 -146t-111.5 -124.5t-153 -98t-201.5 -63t-253 -23h-580q-8 9 -7.5 33.5zM107 738.5q-2 16.5 0.5 38t8.5 30.5h731q4 0 6 -17t0 -37.5t-6 -30.5h-733q-5 0 -7 16.5zM480 267q0 -44 3.5 -101t10.5 -66q24 -33 190 -33q101 0 191 25t168 77.5t134.5 129 t89 186t32.5 241.5q0 153 -35.5 276.5t-96 206t-144 138.5t-176 80.5t-195.5 24.5q-16 0 -37 -0.5t-50 -3t-50 -8t-23 -13.5q-12 -37 -12 -172v-988z" />
<glyph unicode="&#xd1;" horiz-adv-x="1800" d="M89 21.5q-1 18.5 7 38.5q33 0 101.5 14.5t79.5 32.5q15 25 19 56t4 101v1007q0 49 -1.5 74t-6.5 46t-15 38q-7 13 -47 24.5t-78.5 17t-55.5 5.5q-8 20 -7 38.5t7 28.5q37 -2 115 -7t122 -5q111 0 176 5q49 -77 220 -286.5t376.5 -461.5t313.5 -403v135v744q0 51 -1 73 t-6 46t-17 41q-9 16 -75.5 31.5t-100.5 15.5q-8 11 -8.5 34.5t3.5 32.5q26 -1 82 -4.5t97.5 -5t87.5 -1.5q47 0 83.5 1.5t81 4.5t83.5 5q6 -10 7 -28.5t-7 -38.5q-32 0 -101 -14t-80 -33q-14 -24 -18.5 -55.5t-4.5 -101.5v-945q0 -199 5 -320q-3 -14 -30 -14q-13 0 -36.5 13 t-44.5 41l-1012 1278v-1053q0 -51 1 -73t6 -45.5t16 -41.5q7 -11 42.5 -22.5t73.5 -18t58 -6.5q8 -11 8.5 -34.5t-3.5 -32.5q-26 1 -81 4.5t-96.5 5.5t-87.5 2q-47 0 -83.5 -2t-80.5 -5t-84 -5q-6 10 -7 28.5zM535 1717q0 39 32 81q69 84 160 84q29 0 59.5 -8.5t48 -17.5 t48.5 -26q97 -55 141 -55q26 0 49.5 8t39.5 20.5t28 24.5t21 22.5t13 12.5q6 0 10 -7.5t4 -15.5q0 -40 -33 -81q-71 -86 -160 -86q-29 0 -59 8.5t-47.5 17t-48.5 25.5q-25 14 -38 21t-33.5 16.5t-38 13.5t-34.5 4q-26 0 -49 -8t-39 -20t-27.5 -24.5t-20.5 -23t-12 -12.5 q-4 0 -6.5 3t-4.5 7t-2.5 8t-0.5 8z" />
<glyph unicode="&#xd2;" horiz-adv-x="1735" d="M114 761q0 159 60.5 305t161.5 251.5t240 167.5t289 62q87 0 170.5 -19t158.5 -56t140.5 -88.5t118 -119t90.5 -145.5t58.5 -169.5t20.5 -188.5q0 -159 -61.5 -305t-163.5 -250.5t-241.5 -166.5t-290.5 -62t-289 58.5t-240 160.5t-162 249.5t-60 315.5zM343 812 q0 -109 23.5 -216.5t70.5 -205t112.5 -172t157 -118.5t195.5 -44q101 0 184.5 38.5t139 103.5t94 151t55.5 178.5t17 189.5q0 109 -23.5 216t-71 203.5t-113.5 170.5t-157.5 118t-195.5 44q-101 0 -184 -39t-138.5 -103t-93.5 -150t-55 -177.5t-17 -187.5zM541 1928 q0 12 4 23t14.5 22t33 18t54.5 7q28 0 42 -7q58 -44 169.5 -156t111.5 -125q0 -6 -4.5 -13.5t-9.5 -7.5q-16 0 -82 26.5t-140.5 62.5t-133.5 79t-59 71z" />
<glyph unicode="&#xd3;" horiz-adv-x="1735" d="M114 761q0 159 60.5 305t161.5 251.5t240 167.5t289 62q87 0 170.5 -19t158.5 -56t140.5 -88.5t118 -119t90.5 -145.5t58.5 -169.5t20.5 -188.5q0 -159 -61.5 -305t-163.5 -250.5t-241.5 -166.5t-290.5 -62t-289 58.5t-240 160.5t-162 249.5t-60 315.5zM343 812 q0 -109 23.5 -216.5t70.5 -205t112.5 -172t157 -118.5t195.5 -44q101 0 184.5 38.5t139 103.5t94 151t55.5 178.5t17 189.5q0 109 -23.5 216t-71 203.5t-113.5 170.5t-157.5 118t-195.5 44q-101 0 -184 -39t-138.5 -103t-93.5 -150t-55 -177.5t-17 -187.5zM724 1710 q0 13 111 125t170 156q13 7 41 7q61 0 84 -21t23 -49t-59 -71t-134 -79t-141 -62.5t-81 -26.5q-5 0 -9.5 7.5t-4.5 13.5z" />
<glyph unicode="&#xd4;" horiz-adv-x="1735" d="M114 761q0 159 60.5 305t161.5 251.5t240 167.5t289 62q87 0 170.5 -19t158.5 -56t140.5 -88.5t118 -119t90.5 -145.5t58.5 -169.5t20.5 -188.5q0 -159 -61.5 -305t-163.5 -250.5t-241.5 -166.5t-290.5 -62t-289 58.5t-240 160.5t-162 249.5t-60 315.5zM343 812 q0 -109 23.5 -216.5t70.5 -205t112.5 -172t157 -118.5t195.5 -44q101 0 184.5 38.5t139 103.5t94 151t55.5 178.5t17 189.5q0 109 -23.5 216t-71 203.5t-113.5 170.5t-157.5 118t-195.5 44q-101 0 -184 -39t-138.5 -103t-93.5 -150t-55 -177.5t-17 -187.5zM606 1726 q37 39 80.5 83t80 81.5t77.5 83.5q19 19 28.5 19t27.5 -19q39 -41 77 -80.5t78 -81.5t82 -86q0 -12 -7 -25.5t-16 -13.5l-242 148l-241 -148q-10 0 -17.5 13.5t-7.5 25.5z" />
<glyph unicode="&#xd5;" horiz-adv-x="1735" d="M114 761q0 159 60.5 305t161.5 251.5t240 167.5t289 62q87 0 170.5 -19t158.5 -56t140.5 -88.5t118 -119t90.5 -145.5t58.5 -169.5t20.5 -188.5q0 -159 -61.5 -305t-163.5 -250.5t-241.5 -166.5t-290.5 -62t-289 58.5t-240 160.5t-162 249.5t-60 315.5zM343 812 q0 -109 23.5 -216.5t70.5 -205t112.5 -172t157 -118.5t195.5 -44q101 0 184.5 38.5t139 103.5t94 151t55.5 178.5t17 189.5q0 109 -23.5 216t-71 203.5t-113.5 170.5t-157.5 118t-195.5 44q-101 0 -184 -39t-138.5 -103t-93.5 -150t-55 -177.5t-17 -187.5zM559 1714 q0 40 33 82q69 83 160 83q29 0 59 -8.5t47.5 -17t48.5 -25.5q98 -56 142 -56q26 0 49 8.5t39.5 20.5t28.5 24.5t21 23t12 12.5q7 0 10.5 -7.5t3.5 -16.5q0 -39 -32 -81q-71 -86 -160 -86q-29 0 -59.5 8.5t-48 17t-48.5 25.5q-32 19 -50 28.5t-45 18.5t-48 9q-22 0 -42.5 -6 t-34.5 -15t-26.5 -20t-20.5 -20.5t-15 -17t-10 -9.5q-6 0 -10 8.5t-4 16.5z" />
<glyph unicode="&#xd6;" horiz-adv-x="1735" d="M114 761q0 159 60.5 305t161.5 251.5t240 167.5t289 62q87 0 170.5 -19t158.5 -56t140.5 -88.5t118 -119t90.5 -145.5t58.5 -169.5t20.5 -188.5q0 -159 -61.5 -305t-163.5 -250.5t-241.5 -166.5t-290.5 -62t-289 58.5t-240 160.5t-162 249.5t-60 315.5zM343 812 q0 -109 23.5 -216.5t70.5 -205t112.5 -172t157 -118.5t195.5 -44q101 0 184.5 38.5t139 103.5t94 151t55.5 178.5t17 189.5q0 109 -23.5 216t-71 203.5t-113.5 170.5t-157.5 118t-195.5 44q-101 0 -184 -39t-138.5 -103t-93.5 -150t-55 -177.5t-17 -187.5zM543 1805 q0 49 33.5 82.5t82.5 33.5t82.5 -33.5t33.5 -82.5t-33.5 -82.5t-82.5 -33.5t-82.5 33.5t-33.5 82.5zM963 1805q0 49 33.5 82.5t82.5 33.5t82.5 -33.5t33.5 -82.5t-33.5 -82.5t-82.5 -33.5t-82.5 33.5t-33.5 82.5z" />
<glyph unicode="&#xd7;" horiz-adv-x="1076" d="M128 244q324 320 334 329l-334 334q0 25 20 56.5t35 31.5q12 0 17 -4q341 -330 345 -334l337 334q4 4 14 4q7 0 16.5 -11t16.5 -26.5t12.5 -31t5.5 -24.5q-318 -315 -325 -322l325 -336q0 -28 -16.5 -60.5t-34.5 -32.5q-12 0 -17 4l-341 341l-345 -343q-10 -5 -14 -5 q-15 0 -33 38t-18 58z" />
<glyph unicode="&#xd8;" horiz-adv-x="1735" d="M114 761q0 159 60.5 305t161.5 251.5t240 167.5t289 62q87 0 170.5 -19t158.5 -56t140.5 -88.5t118 -119t90.5 -145.5t58.5 -169.5t20.5 -188.5q0 -159 -61.5 -305t-163.5 -250.5t-241.5 -166.5t-290.5 -62t-289 58.5t-240 160.5t-162 249.5t-60 315.5zM341 23l970 1524 q18 -4 45.5 -22.5t21.5 -28.5l-970 -1526q-20 7 -46.5 25.5t-20.5 27.5zM343 812q0 -109 23.5 -216.5t70.5 -205t112.5 -172t157 -118.5t195.5 -44q101 0 184.5 38.5t139 103.5t94 151t55.5 178.5t17 189.5q0 109 -23.5 216t-71 203.5t-113.5 170.5t-157.5 118t-195.5 44 q-101 0 -184 -39t-138.5 -103t-93.5 -150t-55 -177.5t-17 -187.5z" />
<glyph unicode="&#xd9;" horiz-adv-x="1677" d="M59.5 1502.5q-0.5 24.5 7.5 33.5q24 -1 86.5 -4.5t104.5 -5.5t83 -2t83 2t103 5.5t85 4.5q9 -9 8.5 -33.5t-8.5 -33.5q-35 0 -95 -10.5t-65 -27.5q-11 -37 -11 -171v-573q0 -285 113 -427q107 -135 318 -135q441 0 450 511v628q0 73 -3.5 104t-19.5 56q-9 16 -71.5 31.5 t-95.5 15.5q-8 11 -8.5 34.5t4.5 32.5q26 -1 63.5 -3.5t62 -4t60 -2.5t71.5 -1q47 0 83.5 1.5t81 4.5t83.5 5q6 -10 7 -28.5t-7 -38.5q-32 0 -101 -14t-80 -33q-15 -24 -19 -55.5t-4 -101.5v-627q0 -170 -43 -296.5t-124.5 -203t-190.5 -113t-247 -36.5q-125 0 -230.5 39.5 t-182.5 113.5q-82 78 -127 190t-45 248v678q0 134 -12 171q-4 17 -64.5 27.5t-95.5 10.5q-7 9 -7.5 33.5zM545 1928q0 28 23.5 49t83.5 21q28 0 42 -7q29 -22 78 -67.5t93 -90t76.5 -81t32.5 -42.5t-4.5 -13.5t-9.5 -7.5q-15 0 -81 26.5t-140.5 62.5t-134 79t-59.5 71z" />
<glyph unicode="&#xda;" horiz-adv-x="1677" d="M59.5 1502.5q-0.5 24.5 7.5 33.5q24 -1 86.5 -4.5t104.5 -5.5t83 -2t83 2t103 5.5t85 4.5q9 -9 8.5 -33.5t-8.5 -33.5q-35 0 -95 -10.5t-65 -27.5q-11 -37 -11 -171v-573q0 -285 113 -427q107 -135 318 -135q441 0 450 511v628q0 73 -3.5 104t-19.5 56q-9 16 -71.5 31.5 t-95.5 15.5q-8 11 -8.5 34.5t4.5 32.5q26 -1 63.5 -3.5t62 -4t60 -2.5t71.5 -1q47 0 83.5 1.5t81 4.5t83.5 5q6 -10 7 -28.5t-7 -38.5q-32 0 -101 -14t-80 -33q-15 -24 -19 -55.5t-4 -101.5v-627q0 -170 -43 -296.5t-124.5 -203t-190.5 -113t-247 -36.5q-125 0 -230.5 39.5 t-182.5 113.5q-82 78 -127 190t-45 248v678q0 134 -12 171q-4 17 -64.5 27.5t-95.5 10.5q-7 9 -7.5 33.5zM775 1710q0 13 111 125t170 156q14 7 41 7q61 0 84 -21t23 -49t-59 -71t-134 -79t-140.5 -62.5t-81.5 -26.5q-5 0 -9.5 7.5t-4.5 13.5z" />
<glyph unicode="&#xdb;" horiz-adv-x="1677" d="M59.5 1502.5q-0.5 24.5 7.5 33.5q24 -1 86.5 -4.5t104.5 -5.5t83 -2t83 2t103 5.5t85 4.5q9 -9 8.5 -33.5t-8.5 -33.5q-35 0 -95 -10.5t-65 -27.5q-11 -37 -11 -171v-573q0 -285 113 -427q107 -135 318 -135q441 0 450 511v628q0 73 -3.5 104t-19.5 56q-9 16 -71.5 31.5 t-95.5 15.5q-8 11 -8.5 34.5t4.5 32.5q26 -1 63.5 -3.5t62 -4t60 -2.5t71.5 -1q47 0 83.5 1.5t81 4.5t83.5 5q6 -10 7 -28.5t-7 -38.5q-32 0 -101 -14t-80 -33q-15 -24 -19 -55.5t-4 -101.5v-627q0 -170 -43 -296.5t-124.5 -203t-190.5 -113t-247 -36.5q-125 0 -230.5 39.5 t-182.5 113.5q-82 78 -127 190t-45 248v678q0 134 -12 171q-4 17 -64.5 27.5t-95.5 10.5q-7 9 -7.5 33.5zM582 1726q31 32 107.5 110t131.5 138q19 19 28 19t28 -19q39 -41 77 -80.5t78 -81.5t82 -86q0 -12 -7 -25.5t-17 -13.5l-241 148l-241 -148q-10 0 -18 13.5t-8 25.5z " />
<glyph unicode="&#xdc;" horiz-adv-x="1677" d="M59.5 1502.5q-0.5 24.5 7.5 33.5q24 -1 86.5 -4.5t104.5 -5.5t83 -2t83 2t103 5.5t85 4.5q9 -9 8.5 -33.5t-8.5 -33.5q-35 0 -95 -10.5t-65 -27.5q-11 -37 -11 -171v-573q0 -285 113 -427q107 -135 318 -135q441 0 450 511v628q0 73 -3.5 104t-19.5 56q-9 16 -71.5 31.5 t-95.5 15.5q-8 11 -8.5 34.5t4.5 32.5q26 -1 63.5 -3.5t62 -4t60 -2.5t71.5 -1q47 0 83.5 1.5t81 4.5t83.5 5q6 -10 7 -28.5t-7 -38.5q-32 0 -101 -14t-80 -33q-15 -24 -19 -55.5t-4 -101.5v-627q0 -170 -43 -296.5t-124.5 -203t-190.5 -113t-247 -36.5q-125 0 -230.5 39.5 t-182.5 113.5q-82 78 -127 190t-45 248v678q0 134 -12 171q-4 17 -64.5 27.5t-95.5 10.5q-7 9 -7.5 33.5zM520 1805q0 49 33.5 82.5t82 33.5t82.5 -33.5t34 -82.5t-34 -82.5t-82.5 -33.5t-82 33.5t-33.5 82.5zM940 1805q0 49 33.5 82.5t82 33.5t82.5 -33.5t34 -82.5 t-34 -82.5t-82.5 -33.5t-82 33.5t-33.5 82.5z" />
<glyph unicode="&#xdd;" horiz-adv-x="1387" d="M-32 1498q0 29 9 38q39 -2 94.5 -5t100 -5t95.5 -2q65 0 297 12q4 -11 3.5 -39t-8.5 -28q-15 0 -36 -3.5t-45.5 -11t-41 -23.5t-16.5 -37q0 -24 28 -69l322 -557q33 59 71.5 132.5t74 143.5t67.5 135.5t55 115t34 74.5q7 21 7 35q0 9 -7.5 19t-24.5 20.5t-51 16.5t-80 6 q-5 0 -6.5 31t2.5 37q27 -2 74 -5.5t83 -5t75 -1.5q54 0 94 1.5t85.5 5t75.5 5.5q4 -11 2 -39.5t-7 -28.5q-9 0 -18 -0.5t-31 -2.5t-41.5 -8.5t-42 -16t-42 -26.5t-31.5 -39q-71 -124 -367 -675q-3 -6 -5.5 -13t-3.5 -12t-1.5 -13t-1 -11t0 -12t0.5 -11l-3 -357 q0 -134 12 -172q4 -16 64.5 -26.5t95.5 -10.5q7 -9 7.5 -33.5t-7.5 -33.5q-25 1 -86 4.5t-103 5.5t-82.5 2t-83 -2t-105 -5.5t-85.5 -4.5q-9 9 -8 33.5t8 33.5q35 0 95 10.5t65 26.5q12 38 12 172v350q0 33 -17 65q-72 131 -170 304.5t-159 282.5q-36 63 -69.5 97.5 t-83.5 62.5q-28 17 -67.5 27.5t-62.5 10.5q-9 0 -9 29zM673 1710q0 13 111 125t170 156q13 7 41 7q61 0 84 -21t23 -49t-59 -71t-134 -79t-141 -62.5t-81 -26.5q-5 0 -9.5 7.5t-4.5 13.5z" />
<glyph unicode="&#xde;" horiz-adv-x="1271" d="M96.5 26.5q0.5 24.5 7.5 33.5q36 0 96 10.5t64 26.5q12 38 12 172v991q0 134 -12 171q-4 17 -64 27.5t-96 10.5q-7 9 -7.5 33.5t7.5 33.5q24 -1 86.5 -4.5t104.5 -5.5t83 -2q32 0 68.5 1.5t64.5 3t70 4t69 3.5q8 -9 7.5 -33.5t-7.5 -33.5q-36 0 -96 -10.5t-64 -27.5 q-12 -37 -12 -171v-146q39 27 102 43.5t103 20t71 3.5q47 0 98 -12.5t101.5 -36t95 -60t79 -81t54.5 -104t20 -124.5q0 -139 -64 -245.5t-180 -163.5t-267 -57q-21 0 -52 5t-47 14q-33 21 -33 51q0 4 3 8.5t9 2.5q59 -16 88 -16q70 0 130 24t104.5 69.5t69.5 114.5t25 154 q0 170 -87.5 268t-232.5 98q-13 0 -34 -3t-48.5 -10t-52 -22t-37.5 -34q-18 -29 -18 -186v-566q0 -134 12 -172q4 -16 64 -26.5t96 -10.5q7 -9 7.5 -33.5t-7.5 -33.5q-25 1 -86 4.5t-103 5.5t-83 2t-83 -2t-104.5 -5.5t-86.5 -4.5q-8 9 -7.5 33.5z" />
<glyph unicode="&#xdf;" horiz-adv-x="1245" d="M57.5 26.5q0.5 24.5 7.5 33.5q33 0 87.5 10.5t58.5 26.5q12 38 12 172v638h-135q-3 0 -6 4t-4 8.5t-1 8.5t15 22.5t28.5 33.5t16.5 18h86v14q0 83 23 170t63 161t90 133.5t108 93.5t112 34q67 0 126.5 -11t111.5 -34.5t89.5 -58.5t59.5 -87t22 -115q0 -56 -20.5 -107.5 t-48.5 -86t-68 -71.5q-22 -20 -63 -54t-62.5 -53t-39.5 -46t-18 -51q0 -28 14 -54.5t33 -46.5t54 -43.5t59.5 -37.5t66.5 -36q30 -16 49 -26.5t48 -29.5t48 -35t41 -40t34.5 -47.5t21.5 -54.5t9 -64q0 -91 -39.5 -169t-110.5 -125t-157 -47q-97 0 -175 32.5t-98 67.5 q0 4 1 14.5t1 15.5q8 104 76 104q16 0 30.5 -10.5t22 -20.5t22.5 -34t21 -32q43 -65 104 -65q64 0 104 51t40 137q0 21 -6 41.5t-15 36.5t-24.5 32t-30 28t-37 26t-39.5 23.5t-43 23.5l-6 3q-35 18 -53 28t-49.5 30t-49 35t-40 39.5t-34 48t-20 55.5t-8.5 67q0 34 17.5 68 t37.5 56t58.5 59.5t58.5 60.5q50 56 79.5 122t29.5 154q0 116 -59.5 186.5t-168.5 70.5q-43 0 -77 -14t-57.5 -37t-40.5 -58.5t-26.5 -70.5t-15 -81t-7 -83.5t-1.5 -84.5v-833q0 -134 12 -172q4 -16 62.5 -26.5t92.5 -10.5q8 -9 8.5 -33.5t-8.5 -33.5q-29 1 -83 4.5t-94 5.5 t-80 2t-78 -2t-87 -5t-81 -5q-8 9 -7.5 33.5z" />
<glyph unicode="&#xe0;" horiz-adv-x="999" d="M86 248q0 66 36.5 118t79.5 68q37 13 107 37.5t121 42t102.5 37t75.5 29.5q9 4 14 7t8.5 9.5t4.5 16t1 25.5v63q0 52 -26 103t-72.5 85t-101.5 34q-58 0 -86 -35.5t-41 -107.5q-11 -58 -38 -85t-71 -27q-35 0 -57 30t-22 68q0 5 2 15.5t6 22.5t8 17q30 28 73.5 58.5 t100 61.5t122.5 51t126 20q101 0 177 -93t76 -225v-478q0 -109 72 -109q10 0 20 2t17 4.5t14.5 6.5t11.5 7t8.5 6t4.5 4q10 0 10 -19q0 -24 -12 -44q-27 -24 -84 -56t-90 -32q-48 0 -89 47t-52 104q-34 -34 -133.5 -95t-152.5 -61q-115 0 -193 77t-78 190zM213 1450 q0 6 1 12t5.5 16.5t12.5 18.5t25 14t40 6q15 0 30 -4t23 -8t10 -6q56 -70 140.5 -191t84.5 -132q0 -30 -21 -30q-9 0 -64.5 37.5t-119.5 86.5t-115.5 101.5t-51.5 78.5zM278 269q0 -42 20.5 -79.5t56.5 -60t79 -22.5q29 0 65.5 11.5t66 27t50 31.5t20.5 25v315 q-180 -53 -216 -67q-66 -25 -104 -71t-38 -110z" />
<glyph unicode="&#xe1;" horiz-adv-x="999" d="M86 248q0 66 36.5 118t79.5 68q37 13 107 37.5t121 42t102.5 37t75.5 29.5q9 4 14 7t8.5 9.5t4.5 16t1 25.5v63q0 52 -26 103t-72.5 85t-101.5 34q-58 0 -86 -35.5t-41 -107.5q-11 -58 -38 -85t-71 -27q-35 0 -57 30t-22 68q0 5 2 15.5t6 22.5t8 17q30 28 73.5 58.5 t100 61.5t122.5 51t126 20q101 0 177 -93t76 -225v-478q0 -109 72 -109q10 0 20 2t17 4.5t14.5 6.5t11.5 7t8.5 6t4.5 4q10 0 10 -19q0 -24 -12 -44q-27 -24 -84 -56t-90 -32q-48 0 -89 47t-52 104q-34 -34 -133.5 -95t-152.5 -61q-115 0 -193 77t-78 190zM278 269 q0 -42 20.5 -79.5t56.5 -60t79 -22.5q29 0 65.5 11.5t66 27t50 31.5t20.5 25v315q-180 -53 -216 -67q-66 -25 -104 -71t-38 -110zM348 1176q0 11 84.5 132t140.5 191q2 2 10 6t23 8t30 4q28 0 46.5 -8t25.5 -21.5t9 -21.5t2 -16q0 -26 -51.5 -78.5t-115 -101.5t-119 -86.5 t-64.5 -37.5q-21 0 -21 30z" />
<glyph unicode="&#xe2;" horiz-adv-x="999" d="M86 248q0 66 36.5 118t79.5 68q37 13 107 37.5t121 42t102.5 37t75.5 29.5q9 4 14 7t8.5 9.5t4.5 16t1 25.5v63q0 52 -26 103t-72.5 85t-101.5 34q-58 0 -86 -35.5t-41 -107.5q-11 -58 -38 -85t-71 -27q-35 0 -57 30t-22 68q0 5 2 15.5t6 22.5t8 17q30 28 73.5 58.5 t100 61.5t122.5 51t126 20q101 0 177 -93t76 -225v-478q0 -109 72 -109q10 0 20 2t17 4.5t14.5 6.5t11.5 7t8.5 6t4.5 4q10 0 10 -19q0 -24 -12 -44q-27 -24 -84 -56t-90 -32q-48 0 -89 47t-52 104q-34 -34 -133.5 -95t-152.5 -61q-115 0 -193 77t-78 190zM269 1172 q8 10 35.5 45.5t34.5 45.5t28 37.5t30.5 41.5t26.5 38.5t32 47.5t31 50q13 21 26 21t25 -21q17 -27 31.5 -50t31.5 -47.5t26.5 -38.5t30.5 -41.5t28.5 -37.5t34.5 -45.5t35 -45.5q0 -12 -8 -21.5t-17 -9.5l-218 177q-137 -112 -218 -177q-9 0 -17.5 9.5t-8.5 21.5zM278 269 q0 -42 20.5 -79.5t56.5 -60t79 -22.5q29 0 65.5 11.5t66 27t50 31.5t20.5 25v315q-180 -53 -216 -67q-66 -25 -104 -71t-38 -110z" />
<glyph unicode="&#xe3;" horiz-adv-x="999" d="M86 248q0 66 36.5 118t79.5 68q37 13 107 37.5t121 42t102.5 37t75.5 29.5q9 4 14 7t8.5 9.5t4.5 16t1 25.5v63q0 52 -26 103t-72.5 85t-101.5 34q-58 0 -86 -35.5t-41 -107.5q-11 -58 -38 -85t-71 -27q-35 0 -57 30t-22 68q0 5 2 15.5t6 22.5t8 17q30 28 73.5 58.5 t100 61.5t122.5 51t126 20q101 0 177 -93t76 -225v-478q0 -109 72 -109q10 0 20 2t17 4.5t14.5 6.5t11.5 7t8.5 6t4.5 4q10 0 10 -19q0 -24 -12 -44q-27 -24 -84 -56t-90 -32q-48 0 -89 47t-52 104q-34 -34 -133.5 -95t-152.5 -61q-115 0 -193 77t-78 190zM195 1195 q0 44 28 86q61 83 144 83q26 0 55 -9.5t41.5 -17t44.5 -26.5q88 -56 135 -56q28 0 52.5 13t37.5 28.5t24 31t16 18.5q13 0 13 -21q0 -40 -32 -88q-63 -86 -144 -86q-27 0 -54.5 8.5t-41 16.5t-43.5 26q-92 58 -137 58q-29 0 -52 -13t-34 -28.5t-20.5 -31t-14.5 -18.5 q-9 0 -13.5 8.5t-4.5 17.5zM278 269q0 -42 20.5 -79.5t56.5 -60t79 -22.5q29 0 65.5 11.5t66 27t50 31.5t20.5 25v315q-180 -53 -216 -67q-66 -25 -104 -71t-38 -110z" />
<glyph unicode="&#xe4;" horiz-adv-x="999" d="M86 248q0 66 36.5 118t79.5 68q37 13 107 37.5t121 42t102.5 37t75.5 29.5q9 4 14 7t8.5 9.5t4.5 16t1 25.5v63q0 52 -26 103t-72.5 85t-101.5 34q-58 0 -86 -35.5t-41 -107.5q-11 -58 -38 -85t-71 -27q-35 0 -57 30t-22 68q0 5 2 15.5t6 22.5t8 17q30 28 73.5 58.5 t100 61.5t122.5 51t126 20q101 0 177 -93t76 -225v-478q0 -109 72 -109q10 0 20 2t17 4.5t14.5 6.5t11.5 7t8.5 6t4.5 4q10 0 10 -19q0 -24 -12 -44q-27 -24 -84 -56t-90 -32q-48 0 -89 47t-52 104q-34 -34 -133.5 -95t-152.5 -61q-115 0 -193 77t-78 190zM148 1266.5 q0 43.5 34 75t78 31.5q43 0 75 -32.5t32 -76.5q0 -28 -15.5 -52t-40.5 -38t-53 -14q-44 0 -77 31.5t-33 75zM278 269q0 -42 20.5 -79.5t56.5 -60t79 -22.5q29 0 65.5 11.5t66 27t50 31.5t20.5 25v315q-180 -53 -216 -67q-66 -25 -104 -71t-38 -110zM573 1267q0 43 33.5 74.5 t77.5 31.5q29 0 53.5 -15t39 -40t14.5 -54q0 -28 -15 -52t-40 -38t-53.5 -14t-54 14.5t-40.5 39t-15 53.5z" />
<glyph unicode="&#xe5;" horiz-adv-x="999" d="M86 248q0 66 36.5 118t79.5 68q37 13 107 37.5t121 42t102.5 37t75.5 29.5q9 4 14 7t8.5 9.5t4.5 16t1 25.5v63q0 52 -26 103t-72.5 85t-101.5 34q-58 0 -86 -35.5t-41 -107.5q-11 -58 -38 -85t-71 -27q-35 0 -57 30t-22 68q0 5 2 15.5t6 22.5t8 17q30 28 73.5 58.5 t100 61.5t122.5 51t126 20q101 0 177 -93t76 -225v-478q0 -109 72 -109q10 0 20 2t17 4.5t14.5 6.5t11.5 7t8.5 6t4.5 4q10 0 10 -19q0 -24 -12 -44q-27 -24 -84 -56t-90 -32q-48 0 -89 47t-52 104q-34 -34 -133.5 -95t-152.5 -61q-115 0 -193 77t-78 190zM278 269 q0 -42 20.5 -79.5t56.5 -60t79 -22.5q29 0 65.5 11.5t66 27t50 31.5t20.5 25v315q-180 -53 -216 -67q-66 -25 -104 -71t-38 -110zM316 1362q0 85 60 145.5t144 60.5q83 0 142.5 -60.5t59.5 -145.5q0 -86 -59.5 -147.5t-142.5 -61.5q-84 0 -144 62t-60 147zM392 1362 q0 -54 37.5 -92t90.5 -38q52 0 88.5 38t36.5 92q0 35 -16.5 64.5t-45.5 46t-63 16.5q-26 0 -49.5 -9.5t-40.5 -26.5t-27.5 -41t-10.5 -50z" />
<glyph unicode="&#xe6;" horiz-adv-x="1514" d="M86 248q0 66 30.5 113t76.5 71q65 32 219 94.5t166 67.5q17 7 23 12.5t9 19.5q5 21 5 75t-20.5 104t-62.5 84t-96 34q-57 0 -85.5 -36t-41.5 -110q-11 -57 -38 -83t-71 -26q-35 0 -57 30t-22 68q0 13 5 30.5t11 24.5q24 24 66 53.5t99 61.5t125 54t127 22 q71 0 127.5 -41.5t88.5 -102.5q24 25 52.5 48.5t66.5 47.5t84.5 38t93.5 14q58 0 107 -12.5t84 -33.5t63 -49t45 -57t28.5 -60t16 -56.5t4.5 -46.5q0 -54 -12 -81t-43 -28q-48 -3 -301 -10t-284 -7q-3 -108 27 -194t83 -140t121.5 -82.5t146.5 -28.5q45 0 88.5 13.5t76.5 35 t54.5 40t35.5 34.5q1 0 2.5 -1t3.5 -3t4.5 -5t4 -6.5t3 -8t1.5 -9.5q0 -18 -14 -41q-19 -30 -46.5 -60t-69.5 -63t-100.5 -54t-122.5 -21q-113 0 -219.5 51.5t-163.5 146.5q-29 -31 -91.5 -76.5t-133.5 -83.5t-109 -38q-115 0 -193 77t-78 190zM278 269q0 -42 20.5 -79.5 t56.5 -60t79 -22.5q42 0 91.5 18.5t85.5 50.5t36 65q-27 62 -41 207q-5 51 -5 62q-25 -8 -62.5 -20.5t-70 -23t-48.5 -16.5q-65 -23 -103.5 -70t-38.5 -111zM786 661h379q50 0 53 54q1 14 -3.5 35t-13.5 46t-24.5 49t-36 43.5t-49.5 32t-63 12.5q-40 0 -75 -15t-59.5 -39 t-44 -53t-31.5 -58t-19.5 -53t-10.5 -39t-2 -15z" />
<glyph unicode="&#xe7;" horiz-adv-x="981" d="M90 450q0 82 25 159.5t68 138.5t99 112t118.5 85t128 52.5t125.5 18.5q126 0 209 -56q8 -7 15.5 -27.5t7.5 -36.5q0 -58 -26.5 -85t-61.5 -27q-23 0 -46.5 15t-49.5 39t-38 32q-40 26 -65 35t-68 9q-37 0 -74 -16.5t-70.5 -50t-59 -79t-41 -108.5t-15.5 -133 q0 -99 29.5 -175.5t81 -123t118.5 -70t147 -23.5q37 0 72 9t61 22t50.5 30.5t38 30.5t24.5 26q2 0 6 -4t8.5 -12t4.5 -17q0 -18 -14 -41q-19 -30 -46.5 -60t-69.5 -63t-100.5 -54t-122.5 -21q-82 0 -156 25.5t-130.5 70.5t-98 104t-63 128t-21.5 141zM415 -290q0 12 11 22 t22 10q13 0 39.5 -15t46.5 -15q46 0 72.5 22.5t26.5 54.5q0 38 -22.5 58.5t-49.5 20.5q-6 0 -11.5 -1t-9.5 -1.5t-9.5 -2.5t-9 -3t-10 -4t-10.5 -4q-4 0 -15 11.5t-8 18.5q9 15 36.5 57.5t37.5 60.5h49l-42 -53h58q44 0 73 -34t29 -80q0 -32 -11 -60t-31 -49t-47 -36.5 t-60 -23t-69 -7.5q-20 0 -44 6.5t-35 14.5q0 1 -3.5 12.5t-3.5 19.5z" />
<glyph unicode="&#xe8;" horiz-adv-x="997" d="M93 464q0 76 19.5 149t53.5 132.5t79 111t95.5 86t104.5 54t105 19.5q57 0 106.5 -12.5t84.5 -33.5t62.5 -49t45 -57t29 -60t16 -56.5t4.5 -46.5q0 -54 -12 -81t-44 -28q-47 -3 -300.5 -10t-283.5 -7v-16q0 -83 20 -153.5t55 -121t83 -85.5t103.5 -52t116.5 -17 q44 0 88 13.5t77 35t54.5 40t35.5 34.5q1 0 5.5 -4t8.5 -12t4 -17q0 -18 -13 -41q-19 -30 -47 -60t-69.5 -63t-100 -54t-122.5 -21q-135 0 -241.5 63.5t-164.5 173.5t-58 246zM251 1450q0 8 2 16t8.5 21.5t25.5 21.5t47 8q15 0 30 -4t23 -8t10 -6q56 -70 140.5 -191 t84.5 -132q0 -30 -21 -30q-7 0 -45 24t-88.5 62t-100 78.5t-83 79.5t-33.5 60zM269 661h378q54 0 54 54q0 21 -6 48t-20.5 57.5t-35.5 55t-54.5 41t-74.5 16.5q-39 0 -74 -15t-59.5 -39t-44 -53t-31.5 -58t-20 -53t-10.5 -39t-1.5 -15z" />
<glyph unicode="&#xe9;" horiz-adv-x="997" d="M93 464q0 76 19.5 149t53.5 132.5t79 111t95.5 86t104.5 54t105 19.5q57 0 106.5 -12.5t84.5 -33.5t62.5 -49t45 -57t29 -60t16 -56.5t4.5 -46.5q0 -54 -12 -81t-44 -28q-47 -3 -300.5 -10t-283.5 -7v-16q0 -83 20 -153.5t55 -121t83 -85.5t103.5 -52t116.5 -17 q44 0 88 13.5t77 35t54.5 40t35.5 34.5q1 0 5.5 -4t8.5 -12t4 -17q0 -18 -13 -41q-19 -30 -47 -60t-69.5 -63t-100 -54t-122.5 -21q-135 0 -241.5 63.5t-164.5 173.5t-58 246zM269 661h378q54 0 54 54q0 21 -6 48t-20.5 57.5t-35.5 55t-54.5 41t-74.5 16.5q-39 0 -74 -15 t-59.5 -39t-44 -53t-31.5 -58t-20 -53t-10.5 -39t-1.5 -15zM408 1176q0 11 84.5 132t140.5 191l7 3.5t13 6t20 6t23 2.5q28 0 47 -8t25.5 -21.5t9 -21.5t2.5 -16q0 -26 -51.5 -78.5t-115.5 -101.5t-119.5 -86.5t-64.5 -37.5q-21 0 -21 30z" />
<glyph unicode="&#xea;" horiz-adv-x="997" d="M93 464q0 76 19.5 149t53.5 132.5t79 111t95.5 86t104.5 54t105 19.5q57 0 106.5 -12.5t84.5 -33.5t62.5 -49t45 -57t29 -60t16 -56.5t4.5 -46.5q0 -54 -12 -81t-44 -28q-47 -3 -300.5 -10t-283.5 -7v-16q0 -83 20 -153.5t55 -121t83 -85.5t103.5 -52t116.5 -17 q44 0 88 13.5t77 35t54.5 40t35.5 34.5q1 0 5.5 -4t8.5 -12t4 -17q0 -18 -13 -41q-19 -30 -47 -60t-69.5 -63t-100 -54t-122.5 -21q-135 0 -241.5 63.5t-164.5 173.5t-58 246zM269 661h378q54 0 54 54q0 21 -6 48t-20.5 57.5t-35.5 55t-54.5 41t-74.5 16.5q-39 0 -74 -15 t-59.5 -39t-44 -53t-31.5 -58t-20 -53t-10.5 -39t-1.5 -15zM274 1172q8 10 35 45.5t34.5 45.5t28.5 37.5t30.5 41.5t26.5 38.5t31.5 47.5t31.5 50q12 21 25 21t26 -21q16 -27 31 -50t32 -47.5t26.5 -38.5t30.5 -41.5t28 -37.5t34.5 -45.5t35.5 -45.5q0 -12 -8 -21.5 t-18 -9.5l-218 177q-137 -112 -218 -177q-9 0 -17 9.5t-8 21.5z" />
<glyph unicode="&#xeb;" horiz-adv-x="997" d="M93 464q0 76 19.5 149t53.5 132.5t79 111t95.5 86t104.5 54t105 19.5q57 0 106.5 -12.5t84.5 -33.5t62.5 -49t45 -57t29 -60t16 -56.5t4.5 -46.5q0 -54 -12 -81t-44 -28q-47 -3 -300.5 -10t-283.5 -7v-16q0 -83 20 -153.5t55 -121t83 -85.5t103.5 -52t116.5 -17 q44 0 88 13.5t77 35t54.5 40t35.5 34.5q1 0 5.5 -4t8.5 -12t4 -17q0 -18 -13 -41q-19 -30 -47 -60t-69.5 -63t-100 -54t-122.5 -21q-135 0 -241.5 63.5t-164.5 173.5t-58 246zM213 1267q0 43 34 74.5t78 31.5q43 0 75 -32.5t32 -76.5q0 -43 -33 -73.5t-77 -30.5 q-28 0 -53 14.5t-40.5 39t-15.5 53.5zM269 661h378q54 0 54 54q0 21 -6 48t-20.5 57.5t-35.5 55t-54.5 41t-74.5 16.5q-39 0 -74 -15t-59.5 -39t-44 -53t-31.5 -58t-20 -53t-10.5 -39t-1.5 -15zM638 1266.5q0 43.5 33.5 75t77.5 31.5t75.5 -32.5t31.5 -76.5q0 -28 -15 -52 t-40 -38t-54 -14q-44 0 -76.5 31.5t-32.5 75z" />
<glyph unicode="&#xec;" horiz-adv-x="626" d="M46 1450q0 8 2 16t9 21.5t26 21.5t47 8q9 0 18.5 -1.5t17 -4t13.5 -5t9.5 -4.5t4.5 -3q56 -70 140.5 -191t84.5 -132q0 -30 -21 -30q-9 0 -64.5 37.5t-119.5 86.5t-115.5 101.5t-51.5 78.5zM74 890.5q-1 23.5 5 32.5q198 28 332 98q8 0 16.5 -14t8.5 -23 q-16 -114 -16 -153v-77v-485q0 -134 12 -172q1 -6 10.5 -11.5t23.5 -9t30.5 -7t32.5 -5.5t28.5 -3t20.5 -1q7 -9 7.5 -33.5t-7.5 -33.5q-32 2 -82 5t-88 5t-78.5 2t-78 -2t-86.5 -5t-81 -5q-9 9 -8.5 33.5t8.5 33.5q33 0 87 10.5t59 26.5q11 38 11 172v432q0 92 -11 120 q-8 18 -45 28.5t-62 12t-44 1.5q-4 4 -5 27.5z" />
<glyph unicode="&#xed;" horiz-adv-x="626" d="M75 890.5q-1 23.5 5 32.5q198 28 332 98q8 0 16.5 -14t8.5 -23q-16 -114 -16 -153v-77v-485q0 -134 12 -172q1 -6 10.5 -11.5t23.5 -9t30.5 -7t32.5 -5.5t28.5 -3t20.5 -1q7 -9 7.5 -33.5t-7.5 -33.5q-32 2 -82 5t-88 5t-78.5 2t-78 -2t-86.5 -5t-81 -5q-9 9 -8.5 33.5 t8.5 33.5q33 0 87 10.5t59 26.5q11 38 11 172v432q0 92 -11 120q-8 18 -45 28.5t-62 12t-44 1.5q-4 4 -5 27.5zM196 1176q0 11 84.5 132t140.5 191q2 2 9.5 6t23 8t30.5 4q28 0 46.5 -8t25.5 -21.5t9 -21.5t2 -16q0 -26 -51.5 -78.5t-115 -101.5t-119 -86.5t-64.5 -37.5 q-21 0 -21 30z" />
<glyph unicode="&#xee;" horiz-adv-x="626" d="M75 890.5q-1 23.5 5 32.5q198 28 332 98q8 0 16.5 -14t8.5 -23q-16 -114 -16 -153v-77v-485q0 -134 12 -172q1 -6 10.5 -11.5t23.5 -9t30.5 -7t32.5 -5.5t28.5 -3t20.5 -1q7 -9 7.5 -33.5t-7.5 -33.5q-32 2 -82 5t-88 5t-78.5 2t-78 -2t-86.5 -5t-81 -5q-9 9 -8.5 33.5 t8.5 33.5q33 0 87 10.5t59 26.5q11 38 11 172v432q0 92 -11 120q-8 18 -45 28.5t-62 12t-44 1.5q-4 4 -5 27.5zM119 1172q9 10 36 45.5t34.5 45.5t28 37.5t30.5 41.5t27 38.5t31.5 47.5t30.5 50q13 21 26 21t25 -21q17 -27 31.5 -50t31.5 -47.5t27 -38.5t30.5 -41.5 t28 -37.5t34.5 -45.5t36 -45.5q0 -12 -8.5 -21.5t-17.5 -9.5l-218 177q-137 -112 -218 -177q-9 0 -17.5 9.5t-8.5 21.5z" />
<glyph unicode="&#xef;" horiz-adv-x="631" d="M19 1266.5q0 30.5 16 57t43.5 41.5t58.5 15q47 0 80.5 -34t33.5 -82q0 -46 -34.5 -78.5t-81.5 -32.5q-31 0 -58 15t-42.5 41.5t-15.5 57zM74 890.5q-1 23.5 5 32.5q198 28 332 98q8 0 16.5 -14t8.5 -23q-16 -114 -16 -153v-77v-485q0 -134 12 -172q1 -6 10.5 -11.5 t23.5 -9t30.5 -7t32.5 -5.5t28.5 -3t20.5 -1q7 -9 7.5 -33.5t-7.5 -33.5q-32 2 -82 5t-88 5t-78.5 2t-78 -2t-86.5 -5t-81 -5q-9 9 -8.5 33.5t8.5 33.5q33 0 87 10.5t59 26.5q11 38 11 172v432q0 92 -11 120q-8 18 -45 28.5t-62 12t-44 1.5q-4 4 -5 27.5zM390 1267 q0 30 16.5 56.5t43.5 41.5t58 15q47 0 80.5 -34t33.5 -82q0 -46 -34.5 -78.5t-81.5 -32.5t-81.5 33.5t-34.5 80.5z" />
<glyph unicode="&#xf0;" horiz-adv-x="1199" d="M93 490q0 63 13.5 126t39 122t66.5 110t93 89t121 59.5t147 21.5q135 0 197 -37q-15 38 -24 59.5t-31.5 65t-45 76.5t-59.5 76t-81 81l-232 -158q-16 11 -33 38t-6 36l204 137q-106 78 -274 148q0 9 4 22t12 23.5t16 10.5q165 -39 325 -146l258 172q17 -11 34.5 -37 t6.5 -35l-227 -153q95 -72 188 -177q124 -141 195.5 -308.5t71.5 -338.5q0 -110 -26.5 -205.5t-72 -165t-106 -119.5t-130.5 -74.5t-143 -24.5q-93 0 -173 25.5t-140 72t-102.5 109.5t-64 139t-21.5 160zM292 527q0 -86 22.5 -169t61.5 -149.5t98 -107.5t127 -41 q88 0 150 55.5t90.5 146t28.5 207.5q0 93 -13.5 175t-32.5 119q-49 92 -118 135.5t-163 43.5q-67 0 -117 -34.5t-78.5 -94t-42 -131t-13.5 -155.5z" />
<glyph unicode="&#xf1;" horiz-adv-x="1234" d="M75 890.5q-1 23.5 5 32.5q198 28 332 98q8 0 16.5 -14t8.5 -23q-14 -98 -14 -133q0 -9 5 -9q2 0 7 5q19 21 53.5 48t78 55t93 47t88.5 19q63 0 109.5 -12.5t79.5 -40.5t54.5 -66t34 -96t17 -123t4.5 -154v-255q0 -134 12 -172q3 -11 34.5 -20t62.5 -13t49 -4 q7 -9 7.5 -33.5t-7.5 -33.5q-32 2 -81.5 5t-88 5t-79 2t-78 -2t-86.5 -5t-81 -5q-8 9 -7.5 33.5t7.5 33.5q33 0 87.5 10.5t58.5 26.5q12 38 12 172v232q0 112 -10 181.5t-36.5 116t-69.5 65t-112 18.5q-39 0 -93 -28t-90.5 -58.5t-36.5 -41.5v-485q0 -134 12 -172 q1 -6 10.5 -11.5t23.5 -9t30.5 -7t32.5 -5.5t28.5 -3t20.5 -1q7 -9 7.5 -33.5t-7.5 -33.5q-32 2 -82 5t-88 5t-78.5 2t-78 -2t-86.5 -5t-81 -5q-9 9 -8.5 33.5t8.5 33.5q33 0 87 10.5t59 26.5q11 38 11 172v422q0 102 -11 130q-8 18 -45 28.5t-62 12t-44 1.5q-4 4 -5 27.5z M319 1199q0 45 28 86q61 84 144 84q26 0 55 -10t41.5 -17t44.5 -27q88 -55 135 -55q28 0 52.5 13t37.5 28.5t24 31t16 17.5q13 0 13 -21q0 -39 -32 -88q-63 -86 -144 -86q-17 0 -33.5 3.5t-27.5 7t-28.5 12.5t-24 13t-25.5 15q-92 58 -137 58q-29 0 -52 -13t-34 -28.5 t-20.5 -31t-14.5 -17.5q-9 0 -13.5 8.5t-4.5 16.5z" />
<glyph unicode="&#xf2;" horiz-adv-x="1180" d="M95 494q0 111 38 208t103.5 166.5t157.5 109.5t195 40q150 0 264 -66t173.5 -180t59.5 -259q0 -111 -38 -209t-103 -168.5t-156.5 -111t-194.5 -40.5q-113 0 -207 39t-157.5 107t-99 162t-35.5 202zM295 541q0 -69 13 -137t40 -130t65 -109.5t91 -76t113 -28.5 q48 0 88.5 16t69.5 44t50.5 65.5t34.5 83t19.5 93t6.5 97.5q0 86 -21.5 171t-61.5 155t-102.5 113.5t-136.5 43.5q-58 0 -104 -23t-76.5 -61t-51 -90t-29 -108.5t-8.5 -118.5zM369 1450q0 8 2 16t9 21.5t25.5 21.5t46.5 8q15 0 30 -4t23 -8t10 -6q27 -34 66.5 -88t74 -103.5 t59.5 -88t25 -43.5q0 -30 -21 -30q-7 0 -45 24t-88.5 62t-99.5 78.5t-83 79.5t-34 60z" />
<glyph unicode="&#xf3;" horiz-adv-x="1180" d="M95 494q0 111 38 208t103.5 166.5t157.5 109.5t195 40q150 0 264 -66t173.5 -180t59.5 -259q0 -111 -38 -209t-103 -168.5t-156.5 -111t-194.5 -40.5q-113 0 -207 39t-157.5 107t-99 162t-35.5 202zM295 541q0 -69 13 -137t40 -130t65 -109.5t91 -76t113 -28.5 q48 0 88.5 16t69.5 44t50.5 65.5t34.5 83t19.5 93t6.5 97.5q0 86 -21.5 171t-61.5 155t-102.5 113.5t-136.5 43.5q-58 0 -104 -23t-76.5 -61t-51 -90t-29 -108.5t-8.5 -118.5zM494 1176q0 11 84.5 132t140.5 191q1 1 6.5 3.5t13.5 6t20 6t23 2.5q28 0 47 -8t25.5 -21.5 t8.5 -21.5t2 -16q0 -21 -33.5 -60t-83 -79.5t-100 -78.5t-88.5 -62t-45 -24q-21 0 -21 30z" />
<glyph unicode="&#xf4;" horiz-adv-x="1180" d="M95 494q0 111 38 208t103.5 166.5t157.5 109.5t195 40q150 0 264 -66t173.5 -180t59.5 -259q0 -111 -38 -209t-103 -168.5t-156.5 -111t-194.5 -40.5q-113 0 -207 39t-157.5 107t-99 162t-35.5 202zM295 541q0 -69 13 -137t40 -130t65 -109.5t91 -76t113 -28.5 q48 0 88.5 16t69.5 44t50.5 65.5t34.5 83t19.5 93t6.5 97.5q0 86 -21.5 171t-61.5 155t-102.5 113.5t-136.5 43.5q-58 0 -104 -23t-76.5 -61t-51 -90t-29 -108.5t-8.5 -118.5zM353 1172q8 10 35 45.5t34.5 45.5t28.5 37.5t30.5 41.5t26.5 38.5t31.5 47.5t31.5 50 q12 21 25 21t26 -21q16 -27 31 -50t32 -47.5t26.5 -38.5t30.5 -41.5t28 -37.5t34.5 -45.5t35.5 -45.5q0 -12 -8.5 -21.5t-17.5 -9.5l-218 177q-137 -112 -218 -177q-9 0 -17 9.5t-8 21.5z" />
<glyph unicode="&#xf5;" horiz-adv-x="1180" d="M95 494q0 111 38 208t103.5 166.5t157.5 109.5t195 40q150 0 264 -66t173.5 -180t59.5 -259q0 -111 -38 -209t-103 -168.5t-156.5 -111t-194.5 -40.5q-113 0 -207 39t-157.5 107t-99 162t-35.5 202zM295 541q0 -69 13 -137t40 -130t65 -109.5t91 -76t113 -28.5 q48 0 88.5 16t69.5 44t50.5 65.5t34.5 83t19.5 93t6.5 97.5q0 86 -21.5 171t-61.5 155t-102.5 113.5t-136.5 43.5q-58 0 -104 -23t-76.5 -61t-51 -90t-29 -108.5t-8.5 -118.5zM306 1197q0 44 28 86q62 83 144 83q27 0 55.5 -9.5t41.5 -17t44 -26.5q89 -56 135 -56 q20 0 37.5 6.5t29.5 15.5t23 20.5t17.5 21t12.5 17.5t10 10q14 0 14 -21q0 -39 -33 -88q-63 -86 -143 -86q-27 0 -54.5 9t-41.5 16.5t-44 25.5q-92 58 -137 58q-28 0 -51 -13t-34 -28.5t-21 -31t-14 -17.5q-5 0 -9 2.5t-6 6.5t-3 8t-1 8z" />
<glyph unicode="&#xf6;" horiz-adv-x="1180" d="M95 494q0 111 38 208t103.5 166.5t157.5 109.5t195 40q150 0 264 -66t173.5 -180t59.5 -259q0 -111 -38 -209t-103 -168.5t-156.5 -111t-194.5 -40.5q-113 0 -207 39t-157.5 107t-99 162t-35.5 202zM269 1266.5q0 43.5 34 75t77 31.5q44 0 75.5 -32.5t31.5 -76.5 q0 -28 -15 -52t-40 -38t-54 -14q-44 0 -76.5 31.5t-32.5 75zM295 541q0 -69 13 -137t40 -130t65 -109.5t91 -76t113 -28.5q48 0 88.5 16t69.5 44t50.5 65.5t34.5 83t19.5 93t6.5 97.5q0 86 -21.5 171t-61.5 155t-102.5 113.5t-136.5 43.5q-58 0 -104 -23t-76.5 -61t-51 -90 t-29 -108.5t-8.5 -118.5zM694 1267q0 43 33.5 74.5t77.5 31.5q28 0 53 -15t39.5 -40t14.5 -54q0 -28 -15 -52t-40.5 -38t-54 -14t-53.5 14.5t-40 39t-15 53.5z" />
<glyph unicode="&#xf7;" horiz-adv-x="1389" d="M139 531q0 5 3 18.5t7.5 31.5t12.5 34.5t17 22.5h1053q8 0 14.5 -7.5t6.5 -20.5q0 -27 -11.5 -57.5t-25.5 -44.5h-1063q-14 0 -14 23zM585 127.5q0 48.5 33.5 82.5t82 34t82.5 -34t34 -82.5t-34 -82t-82.5 -33.5t-82 33.5t-33.5 82zM585 1016q0 49 33.5 82.5t82 33.5 t82.5 -33.5t34 -82.5t-34 -82.5t-82.5 -33.5t-82 33.5t-33.5 82.5z" />
<glyph unicode="&#xf8;" horiz-adv-x="1180" d="M97 494q0 111 38 208t104 166.5t157.5 109.5t195.5 40q150 0 263.5 -66t173 -180t59.5 -259q0 -111 -37.5 -209t-102.5 -168.5t-156.5 -111t-195.5 -40.5q-112 0 -206.5 39t-158 107t-99 162t-35.5 202zM237 30l626 984q22 -10 44.5 -24t18.5 -23l-627 -986 q-11 6 -19 10.5t-21 12.5t-19 14.5t-3 11.5zM297 541q0 -86 21.5 -170.5t61 -154t102 -113t137.5 -43.5q42 0 77.5 12t62.5 33t49 50.5t37 64t25 74.5t14.5 81t4.5 84q0 86 -22 171t-61.5 155t-102.5 113.5t-137 43.5q-57 0 -103.5 -23t-76.5 -61t-50.5 -90t-29.5 -108.5 t-9 -118.5z" />
<glyph unicode="&#xf9;" horiz-adv-x="1194" d="M33.5 942.5q-0.5 22.5 5.5 31.5q191 8 318 47q8 0 17 -18t9 -29q-5 -9 -8.5 -34t-5.5 -58.5t-2 -67.5v-99v-242q0 -185 55 -272t177 -87q49 0 99.5 20t82 50t31.5 57v501q0 91 -19 126q-15 27 -53.5 36.5t-75.5 9.5q-6 6 -6.5 28.5t6.5 31.5q190 8 317 47q6 0 12 -11.5 t10 -25t4 -19.5q-16 -32 -16 -151v-106v-381q0 -100 16 -176q4 -15 25.5 -24.5t44.5 -12t44.5 -4t22.5 -1.5q7 -3 7 -25q0 -4 -2 -12t-7 -17t-10 -9q-34 -2 -77 -9t-81 -16.5t-70.5 -18.5t-52.5 -15l-20 -6q-9 0 -14 12t-5 26v106l-5 12q-53 -57 -149.5 -105t-179.5 -48 q-40 0 -74.5 9.5t-61 26t-49 40.5t-38 52t-27.5 61t-19.5 66t-12 70t-6.5 69.5t-2 66.5v297q0 91 -19 126q-15 27 -53.5 36.5t-76.5 9.5q-5 6 -5.5 28.5zM302 1450q0 8 2 16t8.5 21.5t25.5 21.5t47 8q15 0 30 -4t23 -8t10 -6q56 -70 140.5 -191t84.5 -132q0 -30 -21 -30 q-7 0 -45 24t-88.5 62t-100 78.5t-83 79.5t-33.5 60z" />
<glyph unicode="&#xfa;" horiz-adv-x="1194" d="M33.5 942.5q-0.5 22.5 5.5 31.5q191 8 318 47q8 0 17 -18t9 -29q-5 -9 -8.5 -34t-5.5 -58.5t-2 -67.5v-99v-242q0 -185 55 -272t177 -87q49 0 99.5 20t82 50t31.5 57v501q0 91 -19 126q-15 27 -53.5 36.5t-75.5 9.5q-6 6 -6.5 28.5t6.5 31.5q190 8 317 47q6 0 12 -11.5 t10 -25t4 -19.5q-16 -32 -16 -151v-106v-381q0 -100 16 -176q4 -15 25.5 -24.5t44.5 -12t44.5 -4t22.5 -1.5q7 -3 7 -25q0 -4 -2 -12t-7 -17t-10 -9q-34 -2 -77 -9t-81 -16.5t-70.5 -18.5t-52.5 -15l-20 -6q-9 0 -14 12t-5 26v106l-5 12q-53 -57 -149.5 -105t-179.5 -48 q-40 0 -74.5 9.5t-61 26t-49 40.5t-38 52t-27.5 61t-19.5 66t-12 70t-6.5 69.5t-2 66.5v297q0 91 -19 126q-15 27 -53.5 36.5t-76.5 9.5q-5 6 -5.5 28.5zM510 1176q0 11 84.5 132t140.5 191l7 3.5t13 6t20 6t23 2.5q28 0 47 -8t26 -21.5t9 -21.5t2 -16q0 -26 -51.5 -78.5 t-115.5 -101.5t-119.5 -86.5t-64.5 -37.5q-21 0 -21 30z" />
<glyph unicode="&#xfb;" horiz-adv-x="1194" d="M33.5 942.5q-0.5 22.5 5.5 31.5q191 8 318 47q8 0 17 -18t9 -29q-5 -9 -8.5 -34t-5.5 -58.5t-2 -67.5v-99v-242q0 -185 55 -272t177 -87q49 0 99.5 20t82 50t31.5 57v501q0 91 -19 126q-15 27 -53.5 36.5t-75.5 9.5q-6 6 -6.5 28.5t6.5 31.5q190 8 317 47q6 0 12 -11.5 t10 -25t4 -19.5q-16 -32 -16 -151v-106v-381q0 -100 16 -176q4 -15 25.5 -24.5t44.5 -12t44.5 -4t22.5 -1.5q7 -3 7 -25q0 -4 -2 -12t-7 -17t-10 -9q-34 -2 -77 -9t-81 -16.5t-70.5 -18.5t-52.5 -15l-20 -6q-9 0 -14 12t-5 26v106l-5 12q-53 -57 -149.5 -105t-179.5 -48 q-40 0 -74.5 9.5t-61 26t-49 40.5t-38 52t-27.5 61t-19.5 66t-12 70t-6.5 69.5t-2 66.5v297q0 91 -19 126q-15 27 -53.5 36.5t-76.5 9.5q-5 6 -5.5 28.5zM348 1172q8 10 35.5 45.5t34.5 45.5t28 37.5t30.5 41.5t26.5 38.5t31.5 47.5t31.5 50q13 21 26 21t25 -21 q17 -27 31.5 -50t31.5 -47.5t26.5 -38.5t30.5 -41.5t28.5 -37.5t34.5 -45.5t35 -45.5q0 -12 -8 -21.5t-17 -9.5l-218 177q-137 -112 -218 -177q-10 0 -18 9.5t-8 21.5z" />
<glyph unicode="&#xfc;" horiz-adv-x="1194" d="M33.5 942.5q-0.5 22.5 5.5 31.5q191 8 318 47q8 0 17 -18t9 -29q-5 -9 -8.5 -34t-5.5 -58.5t-2 -67.5v-99v-242q0 -185 55 -272t177 -87q49 0 99.5 20t82 50t31.5 57v501q0 91 -19 126q-15 27 -53.5 36.5t-75.5 9.5q-6 6 -6.5 28.5t6.5 31.5q190 8 317 47q6 0 12 -11.5 t10 -25t4 -19.5q-16 -32 -16 -151v-106v-381q0 -100 16 -176q4 -15 25.5 -24.5t44.5 -12t44.5 -4t22.5 -1.5q7 -3 7 -25q0 -4 -2 -12t-7 -17t-10 -9q-34 -2 -77 -9t-81 -16.5t-70.5 -18.5t-52.5 -15l-20 -6q-9 0 -14 12t-5 26v106l-5 12q-53 -57 -149.5 -105t-179.5 -48 q-40 0 -74.5 9.5t-61 26t-49 40.5t-38 52t-27.5 61t-19.5 66t-12 70t-6.5 69.5t-2 66.5v297q0 91 -19 126q-15 27 -53.5 36.5t-76.5 9.5q-5 6 -5.5 28.5zM246 1266.5q0 43.5 33.5 75t77.5 31.5t75.5 -32.5t31.5 -76.5q0 -28 -15 -52t-40 -38t-54 -14q-44 0 -76.5 31.5 t-32.5 75zM670 1267q0 43 34 74.5t78 31.5q43 0 75 -32.5t32 -76.5q0 -28 -15.5 -52t-40.5 -38t-53 -14q-22 0 -42 8.5t-35 23t-24 34t-9 41.5z" />
<glyph unicode="&#xfd;" horiz-adv-x="1088" d="M1 962q0 32 4 36q110 -12 232 -12q133 0 232 12q4 -11 1 -39.5t-11 -28.5q-15 0 -38 -2t-50.5 -11.5t-27.5 -25.5l5 -9l246 -627q116 309 204 527q14 33 14 74q0 34 -37 54t-98 20q-8 0 -8 29.5t8 38.5q87 -12 209 -12q79 0 195 12q7 -11 5 -39.5t-10 -28.5 q-9 0 -27 -3.5t-42.5 -11t-46.5 -24.5t-32 -40q-248 -592 -348 -837q-13 -32 -50 -131.5t-66.5 -163t-66.5 -118.5q-41 -61 -93.5 -95.5t-108.5 -34.5q-19 0 -35 4t-32 14t-25.5 31t-9.5 51q0 34 28 67q38 0 61 2t51.5 9t50.5 21t48 38.5t53 61.5q25 33 64.5 120.5 t46.5 114.5q-114 292 -193 483.5t-173 395.5q-7 14 -20.5 23.5t-25 14t-31.5 6.5t-26 2h-22q-4 0 -4 32zM538 1176q0 11 84.5 132t140.5 191q1 1 6.5 3.5t13.5 6t20 6t23 2.5q28 0 47 -8t25.5 -21.5t8.5 -21.5t2 -16q0 -21 -33.5 -60t-83 -79.5t-100 -78.5t-88.5 -62 t-45 -24q-21 0 -21 30z" />
<glyph unicode="&#xfe;" horiz-adv-x="1148" d="M0.5 -490.5q0.5 24.5 7.5 33.5q33 0 87.5 10t58.5 27q12 37 12 172v1543q0 92 -12 120q-18 42 -141 42q-2 0 -3 14.5t0 29.5t5 16q159 16 329 93q9 0 17.5 -12.5t8.5 -24.5q-26 -75 -26 -202v-480q0 -12 5 -12q2 0 7 5q33 28 78 56.5t103.5 52t101.5 23.5q83 0 154 -30.5 t118.5 -80t82 -113t50 -128t15.5 -126.5q0 -109 -48 -212.5t-125 -178.5t-175 -120.5t-195 -45.5q-81 0 -162 26q-10 -12 -10 -30v-225q0 -135 12 -172q4 -17 58.5 -27t87.5 -10q7 -9 7.5 -33.5t-7.5 -33.5q-32 1 -81.5 4.5t-88 5t-78.5 1.5t-78 -1.5t-87 -5t-81 -4.5 q-8 9 -7.5 33.5zM344 232q0 -43 22 -77t56 -53.5t70 -29t68 -9.5q70 0 128.5 34t96 90t58.5 125t21 140q0 101 -26 183t-70.5 135t-103 81t-125.5 28q-45 0 -91.5 -15.5t-75 -37t-28.5 -37.5v-557z" />
<glyph unicode="&#xff;" horiz-adv-x="1088" d="M1 962q0 32 4 36q110 -12 232 -12q133 0 232 12q4 -11 1 -39.5t-11 -28.5q-15 0 -38 -2t-50.5 -11.5t-27.5 -25.5l5 -9l246 -627q116 309 204 527q14 33 14 74q0 34 -37 54t-98 20q-8 0 -8 29.5t8 38.5q87 -12 209 -12q79 0 195 12q7 -11 5 -39.5t-10 -28.5 q-9 0 -27 -3.5t-42.5 -11t-46.5 -24.5t-32 -40q-248 -592 -348 -837q-13 -32 -50 -131.5t-66.5 -163t-66.5 -118.5q-41 -61 -93.5 -95.5t-108.5 -34.5q-19 0 -35 4t-32 14t-25.5 31t-9.5 51q0 34 28 67q38 0 61 2t51.5 9t50.5 21t48 38.5t53 61.5q25 33 64.5 120.5 t46.5 114.5q-114 292 -193 483.5t-173 395.5q-7 14 -20.5 23.5t-25 14t-31.5 6.5t-26 2h-22q-4 0 -4 32zM262 1266.5q0 43.5 34 75t78 31.5q43 0 74.5 -32.5t31.5 -76.5q0 -28 -15 -52t-40 -38t-54 -14q-44 0 -76.5 31.5t-32.5 75zM687 1267q0 43 33.5 74.5t77.5 31.5 q43 0 75 -32.5t32 -76.5q0 -28 -15 -52t-40.5 -38t-54 -14t-53.5 14.5t-40 39t-15 53.5z" />
<glyph unicode="&#x152;" horiz-adv-x="2359" d="M114 761q0 106 27.5 208.5t76.5 188.5t118.5 159t151 123.5t175.5 78.5t191 28q12 0 222.5 -12t299.5 -11q104 0 360 8t387 8q9 -67 35.5 -177.5t31.5 -137.5q-12 -12 -42 -12q-29 0 -32 17q-19 67 -46 111.5t-63 67t-73 31t-87 8.5h-200q-16 0 -36.5 -1t-50 -3.5t-50 -8 t-23.5 -13.5q-11 -37 -11 -165v-433q0 -14 99 -14h123h70.5t53.5 4t40 6.5t28 13t20 17t14.5 27t12 34t11.5 45.5q4 13 5 20q4 16 35 16q28 0 40 -12v-438q-10 -9 -37 -9q-30 0 -38 18q-16 64 -27.5 96t-18 40.5t-19.5 16.5q-29 19 -245 19q-167 0 -167 -21v-441v-13v-16 v-19t0.5 -20t1 -21t1 -19.5t1.5 -18.5t2.5 -15t3 -11.5t3.5 -6.5q21 -16 52 -19.5t113 -3.5h112q83 0 163.5 17t128.5 46q26 15 47.5 38.5t40 59t29.5 62t29 74.5q3 14 32 14q12 0 24 -2t21.5 -5.5t12.5 -6.5q-10 -30 -34.5 -96.5t-39 -107.5t-30 -93.5t-21.5 -87.5 q-119 0 -374.5 4.5t-416.5 4.5q-173 0 -274 -7q-139 -9 -262 -9q-150 0 -285.5 61t-232.5 164.5t-153.5 247.5t-56.5 304zM343 812q0 -90 16.5 -180.5t48 -175t80 -157.5t108.5 -127t138.5 -85t165.5 -31q56 0 97.5 3t88 11.5t80 27.5t52.5 48q20 31 32 60.5t17 70t6 69 t1 88.5v714q0 45 -6 80.5t-24.5 75t-51.5 72.5q-52 56 -138 74.5t-226 18.5q-81 0 -152 -27t-123 -74.5t-93 -110.5t-66 -137t-38 -151.5t-13 -156.5z" />
<glyph unicode="&#x153;" horiz-adv-x="1804" d="M95 494q0 111 38 208t103.5 166.5t157.5 109.5t195 40q140 0 248 -57t172 -158q70 98 163.5 155.5t184.5 57.5q58 0 107 -12.5t84 -33.5t63 -49t45 -57t28.5 -60t16 -56.5t4.5 -46.5q0 -54 -12 -81t-43 -28q-152 -6 -585 -17q0 -82 16 -150.5t45 -116.5t65.5 -83 t79.5 -55.5t85.5 -30t86.5 -9.5q45 0 88.5 13.5t76.5 35t54.5 40t35.5 34.5q1 0 2.5 -1t3.5 -3t4.5 -5t4 -6.5t3 -8t1.5 -9.5q0 -18 -14 -41q-19 -30 -46.5 -60t-69.5 -63t-100.5 -54t-122.5 -21q-123 0 -222 53t-161 147q-67 -92 -168 -144.5t-219 -52.5q-113 0 -207 39 t-157.5 107t-99 162t-35.5 202zM295 541q0 -69 13 -137t40 -130t65 -109.5t91 -76t113 -28.5q48 0 88.5 16t69.5 44t50.5 65.5t34.5 83t19.5 93t6.5 97.5q0 86 -21.5 171t-61.5 155t-102.5 113.5t-136.5 43.5q-58 0 -104 -23t-76.5 -61t-51 -90t-29 -108.5t-8.5 -118.5z M1076 661h379q50 0 53 54q1 14 -3.5 35t-13.5 46t-24.5 49t-36 43.5t-49.5 32t-63 12.5q-40 0 -75 -15t-59.5 -39t-44 -53t-31.5 -58t-19.5 -53t-10.5 -39t-2 -15z" />
<glyph unicode="&#x178;" horiz-adv-x="1387" d="M-32 1498q0 29 9 38q39 -2 94.5 -5t100 -5t95.5 -2q65 0 297 12q4 -11 3.5 -39t-8.5 -28q-15 0 -36 -3.5t-45.5 -11t-41 -23.5t-16.5 -37q0 -24 28 -69l322 -557q33 59 71.5 132.5t74 143.5t67.5 135.5t55 115t34 74.5q7 21 7 35q0 9 -7.5 19t-24.5 20.5t-51 16.5t-80 6 q-5 0 -6.5 31t2.5 37q27 -2 74 -5.5t83 -5t75 -1.5q54 0 94 1.5t85.5 5t75.5 5.5q4 -11 2 -39.5t-7 -28.5q-9 0 -18 -0.5t-31 -2.5t-41.5 -8.5t-42 -16t-42 -26.5t-31.5 -39q-71 -124 -367 -675q-3 -6 -5.5 -13t-3.5 -12t-1.5 -13t-1 -11t0 -12t0.5 -11l-3 -357 q0 -134 12 -172q4 -16 64.5 -26.5t95.5 -10.5q7 -9 7.5 -33.5t-7.5 -33.5q-25 1 -86 4.5t-103 5.5t-82.5 2t-83 -2t-105 -5.5t-85.5 -4.5q-9 9 -8 33.5t8 33.5q35 0 95 10.5t65 26.5q12 38 12 172v350q0 33 -17 65q-72 131 -170 304.5t-159 282.5q-36 63 -69.5 97.5 t-83.5 62.5q-28 17 -67.5 27.5t-62.5 10.5q-9 0 -9 29zM413 1805q0 49 33.5 82.5t82.5 33.5t82.5 -33.5t33.5 -82.5t-33.5 -82.5t-82.5 -33.5t-82.5 33.5t-33.5 82.5zM833 1805q0 49 33.5 82.5t82.5 33.5t82.5 -33.5t33.5 -82.5t-33.5 -82.5t-82.5 -33.5t-82.5 33.5 t-33.5 82.5z" />
<glyph unicode="&#x2c6;" horiz-adv-x="719" d="M116 1230q8 10 35.5 45.5t34.5 45.5t28 37.5t30.5 41.5t26.5 38.5t31.5 47.5t31.5 50q13 21 26 21t25 -21q17 -27 31.5 -50t31.5 -47.5t26.5 -38.5t30.5 -41.5t28.5 -37.5t34.5 -45.5t35 -45.5q0 -12 -8 -21.5t-17 -9.5l-218 177q-137 -112 -218 -177q-10 0 -18 9.5 t-8 21.5z" />
<glyph unicode="&#x2dc;" horiz-adv-x="823" d="M116 1213q0 44 28 86q62 84 144 84q27 0 55.5 -10t41 -17t44.5 -27q88 -55 135 -55q28 0 52.5 13t37.5 28.5t24.5 31t15.5 17.5q14 0 14 -21q0 -39 -33 -88q-63 -86 -144 -86q-27 0 -54 9t-41 16.5t-44 25.5q-92 58 -137 58q-29 0 -51.5 -13t-34 -28.5t-21 -31 t-13.5 -17.5q-7 0 -11.5 4.5t-6 10t-1.5 10.5z" />
<glyph unicode="&#x2000;" horiz-adv-x="999" />
<glyph unicode="&#x2001;" horiz-adv-x="1998" />
<glyph unicode="&#x2002;" horiz-adv-x="999" />
<glyph unicode="&#x2003;" horiz-adv-x="1998" />
<glyph unicode="&#x2004;" horiz-adv-x="666" />
<glyph unicode="&#x2005;" horiz-adv-x="499" />
<glyph unicode="&#x2006;" horiz-adv-x="333" />
<glyph unicode="&#x2007;" horiz-adv-x="333" />
<glyph unicode="&#x2008;" horiz-adv-x="249" />
<glyph unicode="&#x2009;" horiz-adv-x="399" />
<glyph unicode="&#x200a;" horiz-adv-x="111" />
<glyph unicode="&#x2010;" horiz-adv-x="874" d="M135 487q0 54 30 119q482 25 559 27q8 0 12 -4t4 -17q0 -61 -30 -125q-48 -3 -559 -25q-6 0 -9.5 2t-5 7.5t-1.5 15.5z" />
<glyph unicode="&#x2011;" horiz-adv-x="874" d="M135 487q0 54 30 119q482 25 559 27q8 0 12 -4t4 -17q0 -61 -30 -125q-48 -3 -559 -25q-6 0 -9.5 2t-5 7.5t-1.5 15.5z" />
<glyph unicode="&#x2012;" horiz-adv-x="874" d="M135 487q0 54 30 119q482 25 559 27q8 0 12 -4t4 -17q0 -61 -30 -125q-48 -3 -559 -25q-6 0 -9.5 2t-5 7.5t-1.5 15.5z" />
<glyph unicode="&#x2013;" horiz-adv-x="1308" d="M139 485q0 22 8.5 72.5t24.5 50.5h986q14 0 14 -21q0 -12 -2 -26t-5 -27t-6 -23.5t-5.5 -20t-2.5 -10.5q-2 -4 -4 -7t-4 -4.5t-4 -2.5t-3 -2h-2h-981h-0.5h-2t-3 0.5t-3 2t-2.5 4t-2 6t-1 8.5z" />
<glyph unicode="&#x2014;" horiz-adv-x="1985" d="M139 508q0 22 8.5 72.5t24.5 50.5h1661q14 0 14 -21q0 -32 -19 -107q-2 -6 -6.5 -10t-8.5 -5l-3 -1h-1657h-0.5t-2 0.5l-3 1t-3 2t-2.5 3.5t-2 5.5t-1 8.5z" />
<glyph unicode="&#x2018;" horiz-adv-x="424" d="M102 1288q0 61 24.5 119.5t59.5 98.5t72.5 71t64.5 46t34 15q29 0 44 -42q-48 -29 -83 -64.5t-50.5 -65.5t-22 -50t-6.5 -31q0 -12 6.5 -26t12 -21t21 -24.5t18.5 -21.5q37 -41 37 -74q0 -27 -22 -50.5t-57 -36.5t-72 -13q-22 0 -46 7q-15 22 -25 69.5t-10 93.5z" />
<glyph unicode="&#x2019;" horiz-adv-x="445" d="M81 1165q49 29 84 64t51 65.5t23 50.5t7 31q0 9 -3 18t-10 19.5t-11.5 16.5t-16 19t-15.5 17q-39 44 -39 77q0 40 46.5 70t104.5 30q22 0 46 -7q8 -11 14 -30t10 -41t6 -46t2 -46q0 -61 -24 -119.5t-58.5 -98.5t-72 -71t-64 -46t-33.5 -15q-14 0 -27 11.5t-20 30.5z" />
<glyph unicode="&#x201a;" horiz-adv-x="459" d="M37 -186q49 29 84 64.5t51 65.5t23 50.5t7 31.5q0 9 -3 18t-10 19.5t-11.5 16.5t-16 19t-15.5 17q-39 44 -39 77q0 40 46.5 69.5t104.5 29.5q22 0 46 -7q10 -14 17.5 -42t11 -59t3.5 -61q0 -61 -24 -119.5t-58.5 -98t-72 -70.5t-64 -45.5t-33.5 -14.5q-15 0 -27.5 10.5 t-19.5 28.5z" />
<glyph unicode="&#x201c;" horiz-adv-x="758" d="M102 1288q0 61 24.5 119.5t59.5 98.5t72.5 71t64.5 46t34 15q29 0 44 -42q-48 -29 -83 -64.5t-50.5 -65.5t-22 -50t-6.5 -31q0 -15 9 -32t16 -25t26 -29q44 -48 44 -81q0 -27 -22 -50.5t-57 -36.5t-72 -13q-22 0 -46 7q-15 22 -25 69.5t-10 93.5zM436 1288q0 51 17.5 101 t44 87t57.5 68.5t59.5 51.5t48.5 31t26 11q14 0 27 -11.5t19 -30.5q-48 -29 -83.5 -64.5t-51.5 -65.5t-22.5 -50t-6.5 -31q0 -35 41 -77q2 -1 5 -5q16 -17 24.5 -27t16.5 -26.5t8 -31.5q0 -41 -45.5 -70.5t-103.5 -29.5q-24 0 -48 7q-15 22 -24 69t-9 94z" />
<glyph unicode="&#x201d;" horiz-adv-x="779" d="M81 1165q49 29 84 64t51 65.5t23 50.5t7 31q0 35 -42 76q-1 2 -5 6q-9 10 -14 15.5t-13 15.5t-11.5 17.5t-6.5 17t-3 19.5q0 40 46.5 70t104.5 30q22 0 46 -7q8 -11 14 -30t10 -41t6 -46t2 -46q0 -61 -24 -119.5t-58.5 -98.5t-72 -71t-64 -46t-33.5 -15q-14 0 -27 11.5 t-20 30.5zM415 1165q49 29 84 64t50.5 65.5t22 50.5t6.5 31q0 9 -3 18t-10 19.5t-11.5 16.5t-16 19t-15.5 17q-39 44 -39 77q0 40 46.5 70t103.5 30q22 0 47 -7q10 -15 18 -42.5t12.5 -59.5t4.5 -61q0 -51 -17.5 -101t-44.5 -87t-58 -68.5t-60 -51.5t-49.5 -31t-26.5 -11 q-29 0 -44 42z" />
<glyph unicode="&#x201e;" horiz-adv-x="793" d="M37 -186q49 29 84 64.5t51 65.5t23 50.5t7 31.5q0 8 -3 17.5t-7 17t-11 17t-13 15.5t-15 16t-14 16q-32 37 -32 68q0 40 46.5 69.5t104.5 29.5q22 0 46 -7q10 -14 17.5 -42t11 -59t3.5 -61q0 -61 -24 -119.5t-58.5 -98t-72 -70.5t-64 -45.5t-33.5 -14.5q-15 0 -27.5 10.5 t-19.5 28.5zM371 -190q49 29 84 64t50.5 65.5t22 50.5t6.5 31q0 9 -3 18t-10 19.5t-12 16.5t-16 19t-15 17q-40 44 -40 77q0 41 47 70.5t104 29.5q22 0 47 -7q15 -22 24.5 -70t9.5 -93q0 -61 -24.5 -119t-59 -98t-72 -70.5t-64.5 -45.5t-35 -15q-29 0 -44 40z" />
<glyph unicode="&#x2022;" horiz-adv-x="869" d="M186 610.5q0 102.5 74 176.5t176 74q103 0 175.5 -74t72.5 -177t-72.5 -176.5t-175.5 -73.5q-102 0 -176 74t-74 176.5z" />
<glyph unicode="&#x2026;" horiz-adv-x="1944" d="M111 104q0 56 40.5 94.5t96.5 38.5t94 -38.5t38 -94.5t-38.5 -96t-93.5 -40t-96 40.5t-41 95.5zM838 104q0 37 18.5 67.5t50 48t67.5 17.5q56 0 94.5 -38.5t38.5 -94.5t-38.5 -96t-94.5 -40q-55 0 -95.5 40.5t-40.5 95.5zM1564 104q0 56 40 94.5t97 38.5q55 0 93.5 -38.5 t38.5 -94.5t-38.5 -96t-93.5 -40q-56 0 -96.5 40.5t-40.5 95.5z" />
<glyph unicode="&#x202f;" horiz-adv-x="399" />
<glyph unicode="&#x2039;" horiz-adv-x="716" d="M70 559q0 42 18 63q85 51 166.5 108t132 96.5t98 80.5t60 53t21.5 21q19 -5 31 -11t16 -13t5 -10.5t1 -9.5q0 -15 -28 -44q-21 -22 -113 -109q-30 -29 -109.5 -112.5t-94.5 -98.5l202 -209q23 -23 46 -45t36 -34.5t25 -24t17.5 -17.5t10 -12t5.5 -10t1 -10 q0 -10 -7 -17.5t-14 -11t-18.5 -7.5t-13.5 -6q-1 3 -17 18t-55 47t-91 72.5t-135.5 99.5t-179.5 121q-16 6 -16 32z" />
<glyph unicode="&#x203a;" horiz-adv-x="714" d="M100 937q0 10 7 18t14 12t18.5 8.5t13.5 5.5q10 -10 22.5 -22t59.5 -53t97.5 -80.5t131 -96t165.5 -107.5q21 -24 21 -63q0 -25 -19 -32q-134 -87 -246 -170t-161 -125t-69 -63q-18 5 -30 11t-16.5 12.5t-5.5 10t-1 8.5q0 6 1.5 10.5t6 11t10.5 13t18 18t24.5 23.5 t34.5 33.5t44 43.5l202 209q-15 15 -94.5 98.5t-109.5 112.5q-103 100 -121 119.5t-18 33.5z" />
<glyph unicode="&#x205f;" horiz-adv-x="499" />
<glyph unicode="&#x20ac;" horiz-adv-x="1642" d="M96 554q-12 0 0 35q14 52 37 77h92q-2 16 -2 51t5 95h-132q-12 0 0 35q14 52 37 76h116q32 120 99 223t160 178t214 118t255 43q251 0 471 -47q51 -306 51 -329q0 -16 -13.5 -24.5t-32.5 -8.5q-24 0 -30 10q-4 17 -7 29.5t-11.5 38.5t-18.5 45.5t-28.5 47t-41 48 t-55.5 42t-71.5 35.5t-91 23t-112.5 9q-99 0 -188 -39t-155 -106t-112.5 -153t-68.5 -183h580q12 0 0 -37q-14 -48 -37 -74h-559q-2 -16 -2 -48.5t4 -97.5h594q12 0 0 -37q-14 -49 -37 -75h-538q24 -101 70.5 -187t114.5 -153.5t163.5 -105.5t208.5 -38q351 0 429 355 q13 0 31 -4.5t29 -8.5l12 -4q0 -23 -13.5 -94.5t-32.5 -143t-33 -84.5q-176 -100 -478 -100q-111 0 -213.5 28.5t-186 80t-150 121.5t-111 156.5t-65.5 181.5h-146z" />
<glyph unicode="&#x2122;" horiz-adv-x="2039" d="M146 1292q5 19 10 46t8 48t8 55t7 48q9 4 25 -2q10 -5 32.5 -9.5t37.5 -4.5h236h235q14 0 38 4.5t34 9.5q13 6 23 2q3 -19 8.5 -63t10.5 -77t11 -57q-14 -7 -23 -7q-14 0 -19 5q-13 57 -41.5 91t-71.5 34h-144v-485q0 -60 7 -76q3 -8 34 -12t49 -4q4 -4 4.5 -21t-4.5 -21 q-97 4 -150.5 4t-150.5 -4q-5 4 -4.5 21t4.5 21q18 0 48 4t33 12q7 16 7 76v485h-146q-30 0 -53 -16.5t-38 -44t-23 -64.5q-5 -5 -19 -5q-9 0 -23 7zM861.5 814q0.5 17 3.5 24q19 0 51 4.5t40 13.5q3 3 5 7.5t3 7.5t2 8.5t1.5 8t1 10t1.5 9.5q14 295 14 464q0 28 -5 40 q-2 5 -18 10t-32 7.5t-24 2.5q-2 0 -2 20t2 22q111 -4 123 -4q46 0 97 4q12 -32 113.5 -220t144.5 -279q2 -2 4.5 -2t6.5 5q36 77 92.5 194t91.5 193l46 109q79 -4 100 -4q74 0 134 4l5 -42q-16 0 -44 -5t-33 -11q-7 -14 -7 -39q1 -26 3 -186t4 -234q1 -6 1.5 -19t1 -19 t1.5 -17t2 -17t3.5 -14t4.5 -14q5 -9 35.5 -13.5t46.5 -4.5q3 -5 4 -15t0 -18t-2 -9q-98 4 -144 4q-32 0 -144 -4q-2 2 -2.5 18t2.5 24q13 0 36.5 3t33.5 8q11 6 11 44q0 6 -0.5 17t-1 22.5t-0.5 18.5q-2 59 -2 128.5t-1 139.5t-4 141q0 18 -12 18q-1 0 -4 -7 q-138 -272 -255 -522q-6 -11 -22 -31.5t-25 -21.5q-2 0 -4.5 1t-4.5 1l-295 568q-9 -445 -9 -477q0 -24 5 -33q3 -7 25 -11.5t38.5 -5.5t26.5 -1q5 -6 4 -23t-4 -19q-97 4 -127.5 4t-141.5 -4q-2 1 -1.5 18z" />
<glyph unicode="&#x25fc;" horiz-adv-x="1000" d="M0 1000h1000v-1000h-1000v1000z" />
<glyph unicode="&#xfb01;" horiz-adv-x="1234" d="M57.5 26.5q0.5 24.5 7.5 33.5q33 0 87.5 10.5t58.5 26.5q12 38 12 172v608h-135q-7 0 -7 21q0 12 24 43t43 31h75v35q0 79 23.5 165.5t68 165t102.5 141.5t133 100.5t153 37.5q73 0 142.5 -34t110.5 -77q76 -77 76 -149q0 -38 -29 -66.5t-73 -28.5q-73 0 -106 84 q-5 10 -10 25.5t-9 26t-9 22t-10 18.5q-25 36 -56.5 53t-89.5 17q-65 0 -120.5 -63t-87 -160.5t-31.5 -201.5v-111h267q239 0 348 33q1 0 6 1t6 1q9 0 11.5 -20t-0.5 -29q-5 -46 -7 -61.5t-3 -41t-1 -64.5v-522q0 -134 11 -172q5 -16 59 -26.5t88 -10.5q7 -9 7.5 -33.5 t-7.5 -33.5q-32 2 -82 5t-88 5t-78.5 2t-78.5 -2t-86.5 -5t-81.5 -5q-8 9 -7.5 33.5t7.5 33.5q34 0 88 10.5t59 26.5q11 38 11 172v439q0 73 -32 125q-26 44 -170 44h-246v-608q0 -134 12 -172q4 -16 62.5 -26.5t92.5 -10.5q8 -9 8.5 -33.5t-8.5 -33.5q-29 1 -83 4.5 t-94 5.5t-80 2t-78 -2t-87 -5t-81 -5q-8 9 -7.5 33.5z" />
<glyph unicode="&#xfb02;" horiz-adv-x="1285" d="M59 31q0 29 8 29q16 0 47.5 6t61.5 17.5t33 23.5q16 67 16 162q2 372 2 578q0 6 -3 11t-8 5h-123q-7 0 -7 14q0 23 13 59t22 36h95q5 0 8 4.5t3 9.5v30q0 122 41.5 234.5t107.5 190.5t149 124.5t164 46.5q36 0 112.5 -26.5t105.5 -26.5q33 0 71.5 13t64 25.5t27.5 12.5h6 q10 0 18 -13t10 -24q-25 -75 -25 -202v-1058q0 -135 18 -206q5 -17 61 -32t79 -15q7 0 9 -28.5t-2 -38.5q-28 1 -65 3.5t-62 4t-58 3t-64 1.5q-42 0 -81 -2t-89.5 -5t-82.5 -5q-8 9 -8 38t8 29q29 0 83 15t59 32q16 67 16 162v893q0 30 -7.5 94t-17.5 87q-10 20 -34.5 49 t-58.5 58.5t-78.5 50.5t-86.5 21q-67 0 -117 -63t-73 -156.5t-23 -200.5v-118q0 -4 4 -8t7 -4h258q8 0 9.5 -2.5t1.5 -13.5q0 -37 -27 -93h-239q-6 0 -10 -4.5t-4 -9.5v-536q0 -7 0.5 -31.5t1 -32.5t1.5 -28.5t2 -31t3 -27t4.5 -29.5t5.5 -26q5 -17 61 -32t78 -15 q8 0 10 -28.5t-3 -38.5q-29 2 -80.5 5t-89.5 5t-78 2q-42 0 -81.5 -2t-90 -5t-81.5 -5q-8 9 -8 38z" />
<glyph unicode="&#xfb03;" horiz-adv-x="1890" d="M60 28q0 11 3 21.5t7 10.5q27 0 78.5 15t55.5 32q7 26 11 50t6.5 50t3 49t0.5 57q5 328 5 534q0 2 -1 5t-2.5 5.5t-3.5 4t-5 1.5h-123q-7 0 -7 14q0 23 13 59t22 36h95q5 0 8.5 4.5t3.5 9.5v30q0 98 29.5 187.5t79 157t112.5 117.5t131.5 76t134.5 26q60 0 114 -18.5 t90 -46.5t57.5 -51t33.5 -42q68 89 154 139.5t173 50.5q102 0 208 -53q38 -19 65 -40.5t44 -47t17 -51.5q0 -33 -12.5 -57.5t-36.5 -38t-56 -13.5q-30 0 -57 13.5t-40 37.5q-12 21 -15 26.5t-17.5 28t-23.5 31.5t-27 26.5t-34.5 25.5t-39.5 15t-47 7q-68 0 -120 -62.5 t-76 -158t-18 -199.5v-118q0 -4 4 -8t8 -4h257q262 0 348 33q2 0 6.5 3.5t5.5 3.5q12 0 12 -54q-5 -38 -6.5 -48t-3 -32t-2 -39.5t-0.5 -47.5v-478q0 -135 19 -206q4 -17 60 -32t79 -15q8 0 9.5 -28.5t-2.5 -38.5q-30 2 -81 5t-89.5 5t-78.5 2q-42 0 -81 -2t-89.5 -5 t-81.5 -5q-9 9 -9 38t9 29q15 0 46.5 6t61.5 17.5t33 23.5q16 67 16 162v450q0 69 -27 109q-10 14 -48 22.5t-68 10.5t-54 2h-239q-5 0 -9.5 -4.5t-4.5 -9.5v-536q0 -135 19 -206q4 -17 56 -32t74 -15q8 0 9.5 -28.5t-2.5 -38.5q-30 2 -80 5t-88.5 5t-80.5 2t-79 -2t-84 -5 t-80 -5q-9 9 -9 35q0 11 3 21.5t6 10.5q15 0 45 6t58 17.5t31 23.5q9 35 14 68.5t6 63t1 74.5q5 328 5 534q0 6 -3.5 11t-8.5 5h-445q-5 0 -9.5 -4.5t-4.5 -9.5v-536q0 -135 19 -206q4 -17 56 -32t73 -15q8 0 10 -28.5t-3 -38.5q-30 2 -79.5 5t-88 5t-80.5 2t-79.5 -2 t-84.5 -5t-79 -5q-10 9 -10 35zM406 984q0 -4 4 -8t8 -4h447q5 0 8.5 4.5t3.5 9.5v9q0 131 28 225q4 12 4 35q0 12 -9 40l-10.5 21t-20 38.5t-32.5 45t-48 44.5t-66.5 32t-86.5 13q-74 0 -127 -54.5t-78 -140.5t-25 -192v-118z" />
<glyph unicode="&#xfb04;" horiz-adv-x="1932" d="M63 28q0 11 3 21.5t6 10.5q28 0 79 15t55 32q7 26 11.5 50t6.5 50t2.5 49t0.5 57v534q0 6 -3 11t-8 5h-123q-7 0 -7 14q0 23 13 59t22 36h95q5 0 8 4.5t3 9.5v30q0 98 30 187.5t79.5 157t112.5 117.5t131.5 76t134.5 26q60 0 114 -18.5t90 -46.5t57.5 -51t32.5 -42 q66 90 153 140t174 50q36 0 112.5 -26.5t105.5 -26.5q33 0 72 13t64.5 25.5t26.5 12.5h7q9 0 17 -13t11 -24q-26 -75 -26 -202v-1058q0 -135 19 -206q4 -17 60 -32t79 -15q8 0 9.5 -28.5t-2.5 -38.5q-30 2 -81 5t-89.5 5t-77.5 2q-43 0 -82 -2t-89.5 -5t-81.5 -5q-9 9 -9 38 t9 29q28 0 82.5 15t58.5 32q16 67 16 162v893q0 30 -7 94t-18 87q-10 20 -34.5 49t-58.5 58.5t-78.5 50.5t-86.5 21q-67 0 -117 -63t-73 -156.5t-23 -200.5v-118q0 -4 4 -8t8 -4h257q8 0 10 -2.5t2 -13.5q0 -37 -28 -93h-239q-5 0 -9.5 -4.5t-4.5 -9.5l5 -536 q0 -135 18 -206q5 -17 56.5 -32t73.5 -15q8 0 9.5 -28.5t-2.5 -38.5q-30 2 -80 5t-88.5 5t-79.5 2q-43 0 -80 -2t-84 -5t-80 -5q-9 9 -9 35q0 11 3 21.5t6 10.5q28 0 79 15t56 32q13 50 17 94t4 112v534q0 6 -3.5 11t-8.5 5h-443q-5 0 -8.5 -2t-5.5 -5t-2 -7l4 -536 q0 -135 19 -206q4 -17 56 -32t74 -15q8 0 9.5 -28.5t-2.5 -38.5q-30 2 -80 5t-88.5 5t-79.5 2q-43 0 -80 -2t-84 -5t-80 -5q-9 9 -9 35zM404 984q0 -4 4 -8t7 -4h448q7 0 12 23q9 163 27 225q5 12 5 35q0 12 -9 40q-2 2 -11 21t-20 38.5t-33 45t-47.5 44.5t-66 32t-87.5 13 q-73 0 -126.5 -54.5t-78 -140.5t-24.5 -192v-118z" />
</font>
</defs>
</svg>
