<?xml version="1.0" standalone="no"?>
<!DOCTYPE svg PUBLIC "-//W3C//DTD SVG 1.1//EN" "http://www.w3.org/Graphics/SVG/1.1/DTD/svg11.dtd" >
<svg xmlns="http://www.w3.org/2000/svg">
<metadata></metadata>
<defs>
<font id="crimson_textsemibolditalic" horiz-adv-x="1057" >
<font-face units-per-em="2048" ascent="1484" descent="-564" />
<missing-glyph horiz-adv-x="506" />
<glyph horiz-adv-x="2048" />
<glyph horiz-adv-x="2048" />
<glyph unicode="&#xd;" horiz-adv-x="2048" />
<glyph unicode=" "  horiz-adv-x="506" />
<glyph unicode="&#x09;" horiz-adv-x="506" />
<glyph unicode="&#xa0;" horiz-adv-x="506" />
<glyph unicode="!" horiz-adv-x="553" d="M53 108q7 64 53.5 108t107.5 44q49 0 81 -39t25 -90q-7 -65 -52.5 -111.5t-105.5 -46.5q-52 0 -83.5 40.5t-25.5 94.5zM207 427q4 73 39 397t58 478q5 25 19 49.5t33.5 43.5t45 30.5t51.5 11.5q43 0 68 -35t18 -89q-2 -28 -43 -172.5t-105 -363.5t-96 -334 q-5 -18 -19.5 -32.5t-29 -21.5t-25.5 -7q-14 0 -14 45z" />
<glyph unicode="&#x22;" horiz-adv-x="754" d="M243 1010q9 91 9 170.5t-4.5 153t-4.5 103.5q6 39 54.5 89.5t103.5 50.5q21 0 33.5 -2.5t23 -10.5t13.5 -24t2 -43t-9 -66q-13 -69 -67 -210t-73 -206q-5 -16 -19.5 -25t-27.5 -9q-9 0 -17 3.5t-13 10.5t-4 15zM586 1010q9 91 9 170.5t-4.5 153t-4.5 103.5 q7 39 55.5 89.5t103.5 50.5q17 0 28 -1.5t21.5 -6.5t15 -15t7 -26t0 -40t-8.5 -57q-14 -69 -68 -210t-72 -206q-3 -8 -8.5 -15t-12.5 -11t-14 -6t-13 -2q-13 0 -24 8.5t-10 20.5z" />
<glyph unicode="#" horiz-adv-x="1039" d="M41 402q0 30 19 76t35 46h172l65 190h-169q-6 0 -8 0.5t-4 2.5t-2 6q0 18 9 47t22 52t23 23h172l113 339q0 1 1.5 2.5t4.5 3t8 3t12 3t15.5 2.5t20 1.5t24.5 0.5q16 0 29.5 -4t15.5 -7q-1 -3 -10 -31t-20 -59t-20 -57.5l-9 -26.5l-63 -170h195l113 339q0 3 7.5 6.5 t28 6.5t49.5 3q16 0 30 -4t16 -7q-1 -4 -16 -47t-29 -84.5t-14 -42.5l-63 -170h171q9 0 11.5 -2t2.5 -7q0 -18 -8.5 -47t-22 -52t-23.5 -23h-172l-66 -190h170h7.5t4 -2t1.5 -7q0 -29 -19 -75.5t-35 -46.5h-172l-113 -339q0 -3 -5.5 -6t-25 -6.5t-48.5 -3.5q-17 0 -33.5 3 t-18.5 6q1 3 10.5 31t20 60t19.5 58.5t9 27.5l63 169h-194l-113 -339q0 -3 -6 -6t-25 -6.5t-48 -3.5q-11 0 -23 1.5t-20 3.5t-9 4q1 4 15.5 48t29 86t14.5 43l63 169h-172q-5 0 -7.5 0.5t-4 2.5t-1.5 6zM391 524h192l66 190h-192z" />
<glyph unicode="$" horiz-adv-x="1062" d="M58 34q-4 67 0.5 180.5t13.5 174.5q4 9 23 17t31 8q13 0 21.5 -5.5t10.5 -12.5q0 -35 7 -74t23 -82.5t47.5 -82t73.5 -60.5l174 527q-37 25 -60.5 43t-55 43t-51 46t-41 48.5t-33 55t-20 59.5t-8 68.5t8.5 76.5q13 66 47.5 126.5t83.5 107.5t108 82.5t123.5 54 t125.5 18.5q32 0 48 -2l31 93q8 0 19.5 -1.5t24 -4t20.5 -7t7 -10.5l-28 -79q39 -8 103.5 -24.5t86.5 -20.5q-15 -173 -43 -335q-3 -6 -6 -9t-5.5 -3.5t-8.5 -0.5q-54 0 -54 18q2 66 -25.5 143t-83.5 119l-160 -484q2 -1 25 -18q11 -8 35 -26q29 -21 44 -32.5t42 -33.5 t41.5 -37t35.5 -39t32 -44.5t23 -48.5t16 -55t4 -60.5t-7 -68.5q-16 -87 -67.5 -163.5t-122.5 -128t-155.5 -81t-167.5 -29.5q-43 0 -65 2l-39 -113q-10 0 -27 3.5t-31 10t-12 13.5l32 95q-60 9 -215 43zM379 75q27 -5 45 -5q60 0 113.5 22.5t97 76t58.5 129.5q9 47 0 89.5 t-34 77.5t-51 59.5t-62 51.5zM454 1157q-14 -75 19.5 -137.5t102.5 -122.5l153 461q-11 3 -36 3q-90 0 -155 -50.5t-84 -153.5z" />
<glyph unicode="%" horiz-adv-x="1496" d="M127 11l1179 1453q3 5 27 1.5t32 -12.5q26 -4 32 -20l-1180 -1449q-2 -4 -34 -3t-43 10q-13 3 -13 20zM160 1026q-2 80 31 163.5t88 149t130.5 107t153.5 41.5q116 0 184 -68.5t73 -193.5q3 -80 -30.5 -163t-89 -147t-131 -105.5t-151.5 -41.5q-114 0 -184 72t-74 186z M334 1024q1 -32 7.5 -63t18.5 -60.5t33.5 -48t49.5 -18.5q48 0 88 38.5t64.5 99t37.5 129.5t11 133q-1 32 -6 62.5t-16 60.5t-31 48.5t-46 18.5q-64 0 -114.5 -65t-75 -156t-21.5 -179zM728 249q-2 63 18.5 130.5t59 125.5t88.5 104.5t112 73.5t124 27q77 0 133.5 -30.5 t88.5 -90t36 -142.5q2 -79 -31.5 -162t-89 -147.5t-131 -105.5t-151.5 -41q-75 0 -133 33.5t-90 91.5t-34 133zM902 246q1 -31 7 -62t18 -61t33.5 -48.5t49.5 -18.5q48 0 88 39t64.5 99t37.5 129t11 134q0 25 -3.5 49t-11 50t-18 45.5t-28 32t-38.5 12.5q-63 0 -114 -64.5 t-75.5 -156t-20.5 -179.5z" />
<glyph unicode="&#x26;" horiz-adv-x="1796" d="M-18 231q0 114 69 198t198 125q31 9 52 16q11 93 50 186.5t102.5 175t143 144.5t179.5 99t205 36q79 0 136.5 -54t57.5 -131q0 -60 -23.5 -115t-62 -97.5t-94 -81t-111.5 -66t-122.5 -52.5t-119 -40.5t-109.5 -28.5q5 -146 56 -250.5t142 -159t214 -54.5q78 0 154 26 t136 71t97.5 112.5t37.5 143.5q0 27 -10.5 57.5t-21.5 41.5q-41 -14 -73 -27t-69.5 -32.5t-62 -39.5t-41 -46.5t-16.5 -55.5t7 -56q-7 -4 -23.5 2t-26.5 16q-15 15 -27 44t-12 69q0 29 6.5 54t16 45t30 40.5t38.5 35.5t52 35.5t60.5 35t72.5 39.5q62 31 111.5 61.5t104.5 79 t91 102.5t59 130.5t21 163.5q26 3 52 -15q21 -26 38.5 -58.5t30 -77.5t12.5 -93q0 -67 -23.5 -128t-65 -109.5t-92.5 -87t-113 -68.5q16 -32 16 -84q0 -105 -54.5 -202t-143 -166t-205 -110t-237.5 -41q-89 0 -171 18t-156 57.5t-128.5 96.5t-87 140.5t-33.5 184.5 q-91 -25 -139.5 -56.5t-48.5 -81.5q0 -12 2.5 -21t8 -17.5t9 -12.5t13.5 -13.5t13 -12.5q22 -20 33.5 -38t11.5 -43q0 -34 -15 -59t-40 -37.5t-56 -12.5q-43 0 -65 12q-19 25 -30 65t-11 73zM536 637q59 21 108.5 43.5t99.5 54t84 67.5t55 83t21 100q0 55 -26 86.5t-73 31.5 q-69 0 -128 -64t-95.5 -170t-45.5 -232z" />
<glyph unicode="'" horiz-adv-x="411" d="M243 1010q9 91 9 170.5t-4.5 153t-4.5 103.5q6 39 54.5 89.5t103.5 50.5q21 0 33.5 -2.5t23 -10.5t13.5 -24t2 -43t-9 -66q-13 -69 -67 -210t-73 -206q-5 -16 -19.5 -25t-27.5 -9q-9 0 -17 3.5t-13 10.5t-4 15z" />
<glyph unicode="(" horiz-adv-x="605" d="M109 400q-12 139 3.5 274.5t50 246.5t87.5 217.5t107.5 187t118.5 155t113.5 122.5t98.5 87q18 -6 18 -29q-51 -53 -111 -140t-127.5 -219t-119 -275t-79 -318t-13.5 -338q20 -232 76 -376t155 -241v-4.5v-5t-1 -5t-2 -5.5t-3 -4t-6 -3q-44 15 -90 50.5t-91.5 95 t-82.5 135t-64.5 177.5t-37.5 215z" />
<glyph unicode=")" horiz-adv-x="603" d="M-48 -244q51 53 111 140t127.5 219t119 275t79 318t13.5 338q-13 157 -44 274.5t-76 198t-110 144.5q0 23 13 27q57 -19 114.5 -72t109.5 -135t90 -204t50 -262q12 -139 -3.5 -274.5t-50 -246.5t-87.5 -217.5t-107.5 -187t-118.5 -155t-113.5 -122.5t-98.5 -87 q-9 3 -14.5 12.5t-3.5 16.5z" />
<glyph unicode="*" horiz-adv-x="931" d="M154 1033q0 14 5 29.5t18.5 34t43.5 30.5t73 12q35 0 95.5 -9t80.5 -9q34 0 44 8.5t10 23.5q0 17 -18 47.5t-40 60t-40.5 68.5t-18.5 72q0 42 26 71t62 29q18 0 31.5 -7t21 -22t12.5 -29t7 -40t2.5 -41.5t0.5 -46.5q0 -1 -0.5 -12t-1 -23.5t0 -29t1.5 -31t3.5 -27.5 t7.5 -20.5t11 -7.5q13 0 31.5 20t38 50t44 64.5t49 64.5t54.5 50t59 20q25 0 40.5 -16.5t15.5 -46.5q0 -32 -22 -61.5t-55 -50t-71.5 -41.5t-72 -36.5t-55.5 -33.5t-22 -35t28.5 -27t69.5 -17.5t82 -18.5t69.5 -35t28.5 -60q0 -24 -14.5 -46.5t-36.5 -35.5t-44 -13 q-23 0 -46 14t-42 35t-38 45.5t-34.5 46t-31.5 35.5t-29 14q-23 0 -29.5 -40t-12.5 -115t-22 -126q-14 -46 -40.5 -68t-54.5 -22q-24 0 -43.5 20t-19.5 48q0 30 23.5 77t52 86.5t52.5 79.5t24 60q0 18 -21 18q-19 0 -69.5 -24t-108.5 -47.5t-95 -23.5q-30 0 -50 17t-20 44z " />
<glyph unicode="+" horiz-adv-x="1044" d="M47 504q0 47 32 88h382l77 391q1 10 15.5 18t33 11.5t32 5t18.5 1.5q13 0 19 -5t4 -13l-81 -409h384q7 0 7 -18q0 -56 -30 -88h-380l-76 -398q-4 -16 -32.5 -26t-58.5 -10q-31 0 -31 18l81 416h-384q-12 0 -12 18z" />
<glyph unicode="," horiz-adv-x="470" d="M-72 -253q6 4 18.5 15t31 28.5t37 40t35 46.5t26.5 51.5t10 51.5q0 21 -9 40t-20.5 31.5t-20.5 36t-9 52.5q0 39 15 70.5t39 50t52 28t57 9.5q11 0 26.5 -4.5t28.5 -11.5t17 -13q5 -11 5 -48q0 -69 -17 -143t-51 -132q-45 -77 -101 -132t-139 -110q-10 2 -20.5 15 t-10.5 28z" />
<glyph unicode="-" horiz-adv-x="827" d="M113 477q0 24 16.5 71t33.5 49l515 27q14 0 14 -27q0 -26 -20.5 -77t-36.5 -52l-511 -25q-11 0 -11 34z" />
<glyph unicode="." horiz-adv-x="479" d="M23 104q7 62 56 109t107 47q50 0 79.5 -37t23.5 -92q-6 -63 -53 -110.5t-105 -47.5q-52 0 -83.5 38.5t-24.5 92.5z" />
<glyph unicode="/" horiz-adv-x="888" d="M-63 -63l960 1733q6 9 24.5 20.5t43 20.5t43.5 9q18 0 27 -14l-958 -1733q-7 -12 -43 -31t-70 -19q-7 0 -16 5t-11 9z" />
<glyph unicode="0" d="M174.5 507q1.5 91 20.5 187q30 154 93.5 293t145.5 240.5t181 161.5t197 60q87 0 155 -36.5t111.5 -102.5t66.5 -154.5t23 -195.5t-23 -223q-29 -146 -90 -281t-141.5 -238t-182.5 -165t-206 -62q-66 0 -123 25t-99 70.5t-72 110t-44 142t-12.5 168.5zM419 305.5 q6 -102.5 40 -168t89 -65.5q79 0 158.5 114.5t135.5 303.5t74 400q14 82 14.5 165t-12.5 153.5t-44.5 114.5t-76.5 44q-59 0 -119.5 -66.5t-111 -178t-88 -266.5t-50.5 -323q-15 -125 -9 -227.5z" />
<glyph unicode="1" d="M285 30.5q6 28.5 15 28.5q27 0 85.5 14.5t65.5 30.5q17 38 36 129l147 759q13 63 18 91.5t7.5 60.5t-4.5 43t-23 11q-11 0 -60.5 -19t-81.5 -35q-21 11 -21 49q0 12 7 16q397 203 463 242h5q9 0 14.5 -23t3.5 -40q-6 -12 -15 -33.5t-32 -98t-39 -162.5l-149 -789 q-25 -137 -23 -201q2 -16 56 -30.5t75 -14.5q6 0 0 -41q-3 -19 -6 -25q-209 12 -303 12q-38 0 -75 -2t-88.5 -5t-76.5 -5q-7 9 -1 37.5z" />
<glyph unicode="2" d="M97 41q93 84 269.5 268.5t275.5 300.5q111 130 165 244.5t54 223.5q0 93 -49 148t-136 55q-42 0 -85.5 -15t-75.5 -35t-62 -46.5t-45 -42.5t-26 -30q-13 0 -25.5 15t-12.5 26q6 15 26.5 41.5t52 60.5t74.5 68t89.5 63t101.5 47t108 18q62 0 120.5 -22.5t104.5 -62 t74 -101t28 -133.5q0 -58 -14 -113.5t-38 -103.5t-62 -98.5t-78 -93.5t-95 -95q-40 -38 -88.5 -82t-92.5 -83.5t-88 -78.5t-79.5 -70t-63 -55.5t-42.5 -37.5t-14 -13h387q84 0 133.5 42.5t81.5 115.5q7 18 31 18q10 0 22.5 -4.5t16.5 -8.5q-156 -325 -177 -371h-750 q-5 2 -10.5 14t-5.5 27z" />
<glyph unicode="3" d="M138 122q0 66 35 103t78 37q27 0 47.5 -12.5t29.5 -25.5t22 -37.5t18 -32.5q24 -37 63 -57t82 -20q49 0 99.5 29.5t93 81.5t69.5 132.5t27 172.5q0 115 -53 177t-159 62q-45 0 -118 -18q-9 15 -9 36q0 23 9 36q50 8 102 26t102 48t89 67t63 86.5t24 102.5q0 94 -47.5 140 t-124.5 46q-45 0 -92.5 -22t-76 -46t-58 -53.5l-30.5 -30.5q-12 0 -20.5 18t-6.5 34q30 43 73 85t96.5 80t118 61t125.5 23q34 0 67.5 -8.5t68 -29t61 -50t42.5 -76t16 -103.5q0 -49 -18.5 -96t-47 -83t-66 -67.5t-71.5 -52t-68 -35.5q97 -12 175 -104t78 -204 q0 -72 -22 -140t-60.5 -122t-89 -101.5t-107.5 -82t-116.5 -59t-116 -36.5t-105.5 -12q-177 0 -271 65q-7 9 -13.5 29.5t-6.5 38.5z" />
<glyph unicode="4" d="M124 443l915 963q15 16 37 31.5t33 15.5q15 0 28.5 -18t10.5 -32l-170 -870h125q9 0 13 -19.5t0 -43.5q-3 -40 -27 -77h-138l-77 -393q-47 -14 -128 -14q-42 0 -70.5 6t-27.5 17l75 384h-583q-10 6 -14 22t-2 28zM316 533h434l113 583z" />
<glyph unicode="5" d="M140 122q0 66 35.5 103t77.5 37q27 0 47.5 -12.5t29.5 -25.5t22 -37.5t19 -32.5q23 -37 62 -57t82 -20q49 0 100 29.5t93.5 81.5t69.5 132.5t27 172.5q0 39 -7.5 74.5t-26.5 69.5t-47.5 58.5t-73.5 39.5t-103 15q-32 0 -82.5 -9t-84.5 -20q-14 9 -32 32 q40 133 78.5 277.5t66.5 257t36 140.5q452 6 551 30q23 -15 23 -32q0 -27 -32.5 -87.5t-58.5 -95.5q-44 -10 -146 -14.5t-194 -5.5t-102 -3q-4 -9 -20.5 -71t-39.5 -149t-35 -132q37 20 107.5 35t106.5 15q98 0 179.5 -48t128.5 -130.5t47 -181.5q0 -84 -29.5 -162.5 t-78.5 -140t-112.5 -112.5t-132 -84.5t-135.5 -51.5t-124 -18q-177 0 -272 65q-7 9 -13.5 29.5t-6.5 38.5z" />
<glyph unicode="6" d="M179 398q0 153 71 325.5t213 329.5q113 128 294.5 239.5t377.5 158.5q9 -3 12 -22t1 -32q-215 -91 -372 -230.5t-247 -346.5q-111 -244 -111 -490q0 -117 36 -192t104 -75q61 0 123 65t102 170t40 213q0 49 -9 89.5t-28 73t-52 50t-79 17.5q-38 0 -79 -20q-13 9 -13 29 q0 14 35.5 39t87 45t89.5 20q129 0 208 -96t79 -240q0 -102 -45 -200t-118 -170.5t-169 -117t-194 -44.5q-72 0 -136.5 29t-113.5 81t-78 130.5t-29 171.5z" />
<glyph unicode="7" d="M247 32q93 115 273.5 380.5t304.5 456.5t229 356h-504q-28 0 -53.5 -12t-44.5 -29t-38.5 -44t-31.5 -48t-27 -50q-5 -9 -22 -11q-23 -3 -48 15q14 31 86.5 188.5t87.5 200.5h626q38 0 101.5 3.5l63.5 3.5q15 0 9 -27q-4 -23 -72 -125q-3 -4 -4.5 -6.5t-4 -6.5t-5.5 -7 l-813 -1284q-7 -4 -27 -4q-24 0 -57.5 14.5t-28.5 35.5z" />
<glyph unicode="8" d="M191 364q8 39 25 75.5t36 64t49 55.5t52.5 45.5t57.5 39t53.5 31.5t50.5 27q10 5 15 8t6.5 7.5t-1.5 5.5q-25 21 -47.5 47t-45 61.5t-36 75t-19 86.5t4.5 96q15 72 55.5 138t98 115.5t131 79t149.5 29.5q57 0 108 -12.5t95 -38.5t72.5 -66t39.5 -95.5t-3 -126.5 q-11 -57 -42.5 -108t-76.5 -90.5t-89 -68.5t-95 -54q-10 -5 -2 -14q49 -38 89 -82.5t72.5 -97t45 -111.5t1.5 -115q-18 -89 -69.5 -163.5t-121 -123t-151 -75.5t-162.5 -27q-85 0 -157 29t-118.5 79.5t-66 121.5t-4.5 152zM424 348q-23 -130 20.5 -207.5t124.5 -77.5 q87 0 152 65.5t83 163.5q31 182 -197 363q-4 3 -11 3q-5 0 -7 -3q-68 -59 -108 -132t-57 -175zM607 1130q-5 -48 7 -92t37.5 -80t50 -61t57.5 -52q9 -4 11 -4q7 0 11 4q133 126 152 290q7 39 0.5 81t-20.5 77t-43.5 58t-68.5 23q-45 0 -86.5 -30.5t-70.5 -87t-37 -126.5z " />
<glyph unicode="9" d="M191 41q214 90 371 230.5t248 347.5q111 245 111 488q0 117 -36 192t-105 75q-61 0 -122.5 -65t-101.5 -170t-40 -212q0 -20 1.5 -37.5t4 -35t7 -32.5t10.5 -29.5t14 -26.5t17.5 -22.5t21.5 -18t26 -13.5t30.5 -8.5t34.5 -2.5q45 0 82 18q11 -8 11 -30q0 -13 -35.5 -37.5 t-87 -44t-90.5 -19.5q-128 0 -206 94.5t-78 239.5q0 82 28.5 161.5t79.5 145t116 116t143.5 78.5t156.5 28q71 0 135.5 -28.5t114 -80t78.5 -129.5t29 -171q0 -100 -28.5 -206.5t-93 -225t-160.5 -224.5q-114 -127 -296 -240t-378 -160q-9 3 -12.5 22.5t-0.5 32.5z" />
<glyph unicode=":" horiz-adv-x="542" d="M48 106q6 64 55 111t107 47q51 0 83.5 -38.5t25.5 -92.5q-7 -64 -56 -112t-107 -48q-53 0 -84 39t-24 94zM190 841q7 63 56 109.5t107 46.5q51 0 83 -37.5t25 -91.5q-7 -65 -56 -114t-106 -49q-52 0 -84 40.5t-25 95.5z" />
<glyph unicode=";" horiz-adv-x="535" d="M-43 -253q11 7 34 28.5t52.5 54t50.5 73.5t21 77q0 21 -8.5 40t-19.5 31.5t-19.5 36t-8.5 52.5q0 76 49 117t111 41q11 0 27 -4.5t29.5 -11.5t18.5 -13q4 -11 4 -48q0 -68 -18 -142.5t-52 -132.5q-45 -78 -100.5 -133t-136.5 -109q-11 2 -22.5 15t-11.5 28zM190 841 q7 63 55.5 109.5t107.5 46.5q51 0 83 -37.5t25 -91.5q-7 -65 -56 -114t-107 -49q-53 0 -84 40t-24 96z" />
<glyph unicode="&#x3c;" horiz-adv-x="1026" d="M40 475q4 47 49 70l866 422l9 5q2 0 4 -4t3.5 -11.5t3 -18t2.5 -25t1 -32.5q0 -13 -4 -29t-8 -18l-746 -362l611 -368q2 -5 2 -14q0 -18 -23.5 -70t-33.5 -52q-4 0 -9 3l-705 429q-30 20 -22 75z" />
<glyph unicode="=" horiz-adv-x="1245" d="M95 334q0 18 14 56.5t29 47.5h911q11 0 11 -13q0 -8 -2 -19.5t-6.5 -24.5t-11 -28t-14.5 -28q-1 0 -5 -5q-2 -1 -4 -4h-911q-11 0 -11 18zM158 651q0 9 5.5 31.5t15.5 46.5t20 30h913q9 0 9 -18q0 -17 -9 -45.5t-25 -53.5l-1 -1q0 3 -1.5 2t-6.5 -6h-911q-2 0 -3 0.5 t-2.5 1.5t-2.5 4t-1 8z" />
<glyph unicode="&#x3e;" horiz-adv-x="1028" d="M0 23.5v22.5v23v19q0 5 3 9t5 6l3 1l755 368l-608 362q0 1 -0.5 2t-1.5 5.5t0 8.5q12 38 32 80t27 42q1 0 2 -0.5t3 -2t4 -2.5l698 -422q31 -16 27 -50l-1.5 -7.5t-2 -9.5t-2 -9.5t-3 -10.5t-4 -10t-5 -11.5t-6.5 -10.5t-8.5 -10t-10 -8.5t-11.5 -7.5l-870 -429 q-9 -5 -14 -5q-2 0 -4.5 4.5t-3.5 13.5t-2 17t-1 22.5z" />
<glyph unicode="?" horiz-adv-x="779" d="M95 104q7 64 55 110t106 46q51 0 82 -37.5t24 -91.5q-7 -63 -55 -110.5t-106 -47.5q-52 0 -82.5 38t-23.5 93zM167 660q0 25 6 48.5t12.5 40.5t22 36t23.5 28.5t29 26t27 20.5t27 19q27 18 116 72t140 93q88 66 88 149q0 54 -27 83.5t-75 29.5q-23 0 -44.5 -11.5 t-38.5 -27.5t-33.5 -32.5t-36.5 -27.5t-41 -11q-31 0 -53 15t-30.5 38.5t-11 51t6.5 50.5q16 31 71.5 62t120.5 31t127 -27t106.5 -71t71.5 -100.5t27 -113.5q0 -88 -31.5 -152.5t-117.5 -125.5q-23 -18 -98 -61.5t-119 -73.5q-41 -29 -61 -58t-20 -64q0 -43 28.5 -79.5 t54.5 -51.5q0 -6 -4.5 -14.5t-10.5 -16t-12 -10.5q-12 0 -30.5 6t-41 18t-45.5 28t-45 37t-39.5 43.5t-28 49.5t-10.5 53z" />
<glyph unicode="@" horiz-adv-x="1717" d="M66 307q0 139 38 271.5t105 241.5t158.5 201t197 155t223 98t234.5 35q122 0 224.5 -34.5t174.5 -94t122 -140t74 -173.5t24 -194q0 -99 -22 -190t-58.5 -160t-84.5 -128t-100 -99t-105 -68.5t-99 -41.5t-83 -13q-81 0 -126 44t-45 114q0 20 6 68q3 18 7 32t5 18 q-21 -35 -53.5 -76.5t-76.5 -85t-96.5 -72.5t-99.5 -29q-64 0 -111 40.5t-69.5 105t-22.5 144.5q0 89 29 180t78 169.5t115.5 147.5t140 118t153 77.5t153.5 28.5q106 0 203 -34l-140 -696q-32 -154 63 -154q51 0 107 45t102.5 116.5t77 170t30.5 197.5q0 130 -32 234.5 t-95.5 181t-164 117.5t-233.5 41q-74 0 -154.5 -21t-160 -62.5t-154 -99t-138.5 -134.5t-111.5 -165t-74.5 -195t-27 -220q0 -135 51 -259.5t155 -215.5q43 -35 95 -61q-22 -18 -75 -18q-26 0 -73 25.5t-78 55.5q-87 85 -135 204.5t-48 256.5zM633 341q0 -93 24.5 -141.5 t72.5 -48.5q46 0 102.5 72.5t103.5 182.5t70 220l45 228q-26 30 -86 30q-79 0 -157 -80.5t-126.5 -207.5t-48.5 -255z" />
<glyph unicode="A" horiz-adv-x="1358" d="M-135 -9q-1 3 -1 10q-1 8 1 22q4 26 12 40q9 0 29 5t42 12.5t43 19t30 22.5q58 71 122 185l644 1115q14 23 46 48.5t47 25.5q16 0 25 -9l203 -1177q9 -46 17 -100.5t8 -55.5q4 -21 18.5 -37t31.5 -25t36.5 -15t32 -7.5t19.5 -1.5q2 -6 2 -16.5t-2 -24.5q-5 -28 -11 -36 q-19 1 -109 8.5t-144 7.5q-58 0 -167 -8t-116 -8q-7 8 -0.5 40.5t16.5 36.5q29 0 68.5 9t58.5 25q17 13 20 34q2 12 -2.5 57.5t-13.5 100.5t-18 109t-16 90l-7 36q-4 9 -11 9q-23 1 -53.5 1.5t-54.5 0t-53.5 -1t-44.5 -0.5q-135 0 -221 -5q-3 0 -9.5 -3.5t-6.5 -5.5 q-86 -144 -131 -230q-25 -48 -44.5 -94t-23.5 -64q-4 -20 14 -34.5t45.5 -21t48 -9.5t30.5 -3q5 -9 0.5 -38.5t-11.5 -38.5q-22 2 -64 6.5t-74.5 7t-74.5 2.5q-43 0 -77.5 -2.5t-78 -7t-70.5 -6.5zM446 655q0 -9 5 -9q71 -6 176 -6q76 0 174 6l9 12l-84 486z" />
<glyph unicode="B" horiz-adv-x="1306" d="M-16 -7q-2 5 -2 13q0 10 3 24q6 27 15 38q34 0 86 9t61 27q4 7 8 17t7 18t6.5 22l5.5 22t6 26t5.5 26t5.5 29.5t6 29.5l174 899q2 11 5.5 29.5t5.5 29t5 26.5t4.5 26t3 22.5t2 21.5t0.5 18.5t-1 16.5q-3 18 -51.5 27t-82.5 9q-5 10 -0.5 37.5t14.5 37.5q181 -9 273 -9 q39 0 141.5 3.5t168.5 3.5q50 0 97 -8t92.5 -25t80 -44t60 -65.5t31.5 -89.5q2 -19 2 -40q0 -35 -6 -76q-10 -51 -36.5 -98t-57.5 -81t-68 -62.5t-66 -45t-52 -25.5q-6 -2 -9 -5t-2.5 -5.5t2.5 -3.5q31 -3 69 -20.5t76 -49t66 -76.5q28 -44 40 -102q6 -27 6 -57 q0 -33 -7 -70q-20 -103 -92.5 -200.5t-169.5 -156.5q-62 -39 -140.5 -60t-145.5 -27t-159 -6h-486zM414 156q-1 -10 0 -18q0 -19 4 -25q12 -21 47 -27.5t95 -6.5q41 0 79.5 8.5t80.5 31t75.5 57.5t61.5 92t42 130q11 54 12 102v7q-1 45 -13 89q-14 48 -42.5 81.5t-83 54.5 t-130.5 21h-118l-97 -495q-3 -17 -7 -42.5t-6 -59.5zM542 838h161q93 0 161.5 74t91.5 189q11 55 11 101q0 79 -33 127q-52 77 -168 77q-96 0 -111 -25q-4 -8 -8 -19t-8 -28.5t-6.5 -29.5t-8 -38.5t-7.5 -38.5z" />
<glyph unicode="C" horiz-adv-x="1457" d="M124 610q0 138 37 263.5t101 223t150.5 176.5t187 130.5t208.5 78.5q101 25 203 25h15q144 -2 402 -63q-3 -76 -27 -328q-1 -7 -6.5 -13t-13.5 -8.5t-16 -2.5q-27 0 -36 13v6q1 39 -11 79q-12 43 -40 84t-67 73.5t-96 52t-123 19.5q-121 0 -230 -57t-190 -159.5 t-128.5 -253t-47.5 -327.5q0 -63 9 -124.5t28.5 -124.5t53.5 -116t79 -95t109 -66t141 -24q84 0 159 29t132 78q42 34 83.5 87.5t64 91.5t35.5 67q22 0 41 -7.5t25 -15.5q-6 -32 -71.5 -171t-86.5 -154q-94 -51 -197 -73t-248 -22q-118 0 -220 34.5t-176 95t-127 140 t-79.5 171t-26.5 187.5z" />
<glyph unicode="D" horiz-adv-x="1584" d="M-16 -7q-2 5 -2 13q0 10 3 24q6 27 15 38q34 0 86 9t61 27q4 7 8 17t7 18t6.5 22l5.5 22t6 26t5.5 26t5.5 29.5t6 29.5l174 899q2 11 5.5 29.5t5.5 29t5 26.5t4.5 26t3 22.5t2 21.5t0.5 18.5t-1 16.5q-3 18 -51.5 27t-82.5 9q-5 10 -0.5 37.5t14.5 37.5q181 -9 273 -9 q40 0 148.5 2t165.5 2q120 0 222 -25t179 -72t133.5 -114t85.5 -150.5t36 -181.5q2 -23 1 -47q0 -78 -17 -162q-33 -172 -111.5 -309t-197 -234t-282 -149t-361.5 -52h-567zM418 122q7 -19 49 -31t93 -12q128 0 234 37t192.5 112.5t147.5 197t93 284.5q22 120 22 219 q0 49 -5 91q-16 132 -77.5 217t-157 127t-220.5 42q-40 0 -81 -6.5t-50 -20.5q-4 -7 -7.5 -15t-6.5 -18.5t-5.5 -19t-5.5 -22.5t-5 -23t-5.5 -27t-5.5 -27l-181 -933q-21 -103 -21 -148q0 -16 3 -24z" />
<glyph unicode="E" horiz-adv-x="1276" d="M-14 30q4 28 14 38q35 0 87.5 9t61.5 27q4 7 7.5 14.5t6.5 17t5.5 17.5t5.5 20.5t5 20.5t5 23.5t4.5 24t5 26t5.5 26.5l174 899q6 30 8 41t6 35t5.5 35.5t3.5 28.5t1.5 28.5t-1.5 21.5q-3 18 -51.5 27t-82.5 9q-5 11 0.5 38t15.5 37q226 -11 273 -11q67 0 329 9t354 9 q-3 -51 -3 -105.5t1.5 -118.5t1.5 -97q-11 -12 -48 -12q-27 0 -27 16q-11 115 -57.5 166t-136.5 51h-179q-113 0 -128 -25q-7 -11 -12.5 -29t-8.5 -32.5t-8.5 -43.5t-9.5 -44l-81 -409q-2 -9 24.5 -14.5t63.5 -5.5h111q32 0 54 0.5t43 5t33.5 8t26.5 14.5t22 19.5t19.5 28.5 t19 36.5t21.5 47.5q8 18 32 18q25 0 34 -13l-82 -430q-9 -9 -38 -9q-27 0 -27 18q-2 56 -8.5 87.5t-12.5 41t-17 16.5q-27 16 -188 16q-153 0 -158 -25l-75 -389q-21 -102 -21 -144q0 -15 3 -23q10 -19 42.5 -25.5t93.5 -6.5h119q64 0 132 16.5t113 47.5q82 60 165 221 q6 14 33 14q16 0 33.5 -4.5t21.5 -9.5q-13 -25 -49.5 -94t-57 -108.5t-45 -92t-36.5 -87.5q-54 0 -310.5 2.5t-414.5 2.5q-53 0 -109 -1.5t-99 -2.5t-64 -1q-3 5 -3 15q1 9 3 22z" />
<glyph unicode="F" horiz-adv-x="1168" d="M-16 -9q-2 5 -2 13q0 10 3 24q6 27 15 38q33 0 85.5 10t61.5 28q4 7 8 17t7 18t6.5 22l5.5 22t6 26t5.5 26t5.5 29.5t6 29.5l176 899q6 30 8 41t6 35t5.5 35.5t3.5 28.5t1.5 28.5t-1.5 21.5q-3 18 -51.5 27t-82.5 9q-5 11 0.5 38t15.5 37q226 -11 271 -11q67 0 328.5 9 t354.5 9q-3 -51 -3 -105.5t1.5 -118.5t1.5 -97q-12 -12 -48 -12q-27 0 -27 16q-12 115 -58 166t-136 51h-177q-116 0 -131 -25q-6 -11 -11.5 -29t-8.5 -32.5l-9 -43.5t-9 -44l-81 -413q-2 -10 24.5 -15.5t63.5 -5.5h110q29 0 49.5 1.5t39 3t32.5 6.5t25.5 9.5t21.5 16 t18 20.5t17.5 27.5t17 33.5t19.5 43q7 18 32 18t34 -14l-82 -429q-9 -9 -38 -9q-27 0 -27 18q-2 55 -8.5 87t-13 41.5t-17.5 16.5q-26 15 -187 15q-154 0 -159 -25l-72 -379q-6 -30 -8 -41t-6 -35t-5.5 -35.5t-3.5 -28.5t-1.5 -28.5t2.5 -21.5q3 -18 59.5 -28t91.5 -10 q5 -11 -0.5 -38t-15.5 -37q-163 14 -289 14q-42 0 -88.5 -2.5t-105.5 -6.5t-82 -5z" />
<glyph unicode="G" horiz-adv-x="1541" d="M124 610q0 138 37 263.5t101 223t150.5 176.5t187 130.5t208.5 78.5q102 25 203 25h15q144 -2 402 -63q-3 -76 -27 -328q-1 -7 -6.5 -13t-13.5 -8.5t-16 -2.5q-27 0 -36 13v8q0 38 -9 77q-10 43 -35 84.5t-60.5 73.5t-90 51.5t-119.5 19.5q-97 0 -189 -36t-170 -106 t-136.5 -165.5t-91 -222t-32.5 -267.5q0 -63 9.5 -124.5t29 -124.5t53 -116.5t77.5 -95t107 -65.5t137 -24q120 0 194 50q16 10 23 36q48 253 50 262t6.5 32.5t5.5 29.5l4.5 27t2 25.5t-0.5 25.5q-2 15 -20.5 25.5t-44.5 15.5t-46.5 7t-33.5 2q-7 3 -1.5 35t15.5 40 q28 -2 71.5 -4.5t75 -4.5t71.5 -3.5t73 -1.5q38 0 78.5 2.5t89.5 6t79 5.5q1 -5 1 -11q0 -13 -4 -32q-6 -28 -13 -32q-22 0 -67.5 -10t-56.5 -24q-25 -35 -46 -133q-4 -19 -20 -107t-20 -108q-3 -11 -3 -23t1 -20t2.5 -17t1.5 -14q-3 -30 -66 -61q-51 -26 -87.5 -41.5 t-95 -33.5t-128.5 -27t-154 -9q-115 0 -215.5 34.5t-174 95t-126.5 140t-79.5 171t-26.5 187.5z" />
<glyph unicode="H" horiz-adv-x="1572" d="M-16 -9q-2 5 -2 13q0 10 3 24q6 27 15 38q33 0 85.5 10t61.5 28q4 7 8 17t7 18t6.5 22l5.5 22t6 26t5.5 26t5.5 29.5t6 29.5l176 899q6 30 8 41t6 35t5.5 35.5t3.5 28.5t1.5 28.5t-1.5 21.5q-3 18 -52 28.5t-82 10.5q-5 10 0.5 37t15.5 37q167 -13 271 -13q102 0 274 13 q6 -10 1 -37t-15 -37q-32 0 -85 -10.5t-62 -28.5q-23 -42 -52 -190l-70 -361l2 -7q272 -7 292 -7q27 0 285 7q6 4 6 9l68 359q6 30 8 41t6.5 35t6 35.5t3 28.5t1.5 28.5t-2 21.5q-3 18 -51 28.5t-80 10.5q-6 9 -1 36.5t14 37.5q168 -13 274 -13q102 0 273 13q4 -5 4 -16 q0 -9 -3 -21q-6 -27 -17 -37q-32 0 -85 -10.5t-61 -28.5q-5 -7 -8.5 -16.5t-6.5 -18t-7 -22.5t-6 -22t-5.5 -26t-5 -26t-6 -29.5t-5.5 -29.5l-174 -899q-2 -11 -6.5 -33.5t-6.5 -33.5t-5.5 -29t-4.5 -28.5t-2.5 -24t-1 -23.5t1.5 -18q3 -18 52 -28t81 -10q5 -11 -0.5 -38 t-15.5 -37q-162 14 -271 14q-101 0 -273 -14q-7 10 -2 37t15 38q18 0 48 3.5t62.5 13t39.5 21.5q4 7 8 17t6.5 18t6.5 22t6 22t5.5 26t5 26t6 29.5t5.5 29.5l82 416l-3 9q-176 4 -282 4q-278 0 -296 -9l-5 -7l-79 -413q-6 -30 -8 -41t-6 -35t-5.5 -35.5t-3.5 -28.5 t-1.5 -28.5t2.5 -21.5q3 -18 51 -28t80 -10q5 -10 0.5 -37.5t-14.5 -37.5q-163 14 -271 14q-104 0 -276 -14z" />
<glyph unicode="I" horiz-adv-x="752" d="M-16 -9q-2 5 -2 13q0 10 3 24q6 27 15 38q33 0 85.5 10t61.5 28q4 7 8 17t7 18t6.5 22l5.5 22t6 26t5.5 26t5.5 29.5t6 29.5l176 899q6 30 8 41t6 35t5.5 35.5t3.5 28.5t1.5 28.5t-1.5 21.5q-3 18 -52 28.5t-82 10.5q-5 10 0.5 37t15.5 37q167 -13 271 -13q102 0 274 13 q3 -5 3 -16q0 -9 -2 -21q-5 -27 -15 -37q-32 0 -85 -10.5t-62 -28.5q-23 -42 -52 -190l-174 -899q-6 -30 -8 -41t-6 -35t-5.5 -35.5t-3.5 -28.5t-1.5 -28.5t2.5 -21.5q3 -18 51 -28t80 -10q5 -10 0.5 -37.5t-14.5 -37.5q-163 14 -271 14q-104 0 -276 -14z" />
<glyph unicode="J" horiz-adv-x="716" d="M-246 -475l2 14q91 39 159 101t118.5 155.5t86 208t65.5 272.5l168 881q10 58 14 83.5t7 62.5q2 22 2 42q0 13 -1 25q-1 22 -51 35.5t-82 13.5q-4 7 2.5 35.5t13.5 37.5q171 -14 271 -14q95 0 267 14q1 -2 1 -10t-1 -24q-4 -28 -12 -39q-25 0 -77 -13.5t-61 -31.5 q-35 -70 -58 -212l-165 -868q-22 -115 -61.5 -218.5t-87 -181t-103.5 -144t-111.5 -111.5t-110 -78t-99.5 -50t-81 -22q-6 5 -10.5 16t-4.5 20z" />
<glyph unicode="K" horiz-adv-x="1468" d="M-16 -9q-2 5 -2 13q0 10 3 24q6 27 15 38q33 0 85.5 10t61.5 28q4 7 8 17t7 18t6.5 22l5.5 22t6 26t5.5 26t5.5 29.5t6 29.5l174 899q2 11 5.5 29.5t5.5 29t5 26.5t4.5 26t3 22.5t2 21.5t0.5 18.5t-1 16.5q-3 18 -52 28.5t-82 10.5q-5 10 0.5 37t15.5 37q167 -13 271 -13 q102 0 274 13q6 -10 1 -37t-15 -37q-33 0 -86.5 -10.5t-62.5 -28.5q-4 -7 -8 -16.5t-7 -18t-6.5 -22.5l-5.5 -22t-6 -26t-5.5 -26t-5.5 -29.5t-6 -29.5l-83 -429q108 74 269 217q26 24 75 67t64 56t46 41.5t48 46t43 44t56 59.5q30 30 40 72q4 18 -8.5 30.5t-34.5 17 t-36.5 6t-28.5 1.5q-3 11 1 35t13 39q21 -1 60 -4t67 -4.5t63.5 -3t62.5 -1.5q83 0 246 13q1 -3 1 -8q0 -12 -4 -32q-6 -28 -15 -32q-158 -18 -240 -93q-49 -48 -131.5 -122.5t-217.5 -195t-195 -175.5q-21 -17 -9 -36q209 -340 370 -562q39 -56 76.5 -92.5t72 -53.5t58 -23 t53.5 -8q6 -8 -0.5 -33t-10.5 -35q-35 -1 -65 -1q-102 0 -157 8q-94 4 -156 40t-119 121q-112 164 -333 522q-4 7 -17.5 7t-22.5 -9l-75 -389q-6 -30 -8 -41t-6 -35t-5.5 -35.5t-3.5 -28.5t-1.5 -28.5t2.5 -21.5q3 -18 51 -28t80 -10q5 -10 0.5 -37.5t-14.5 -37.5 q-163 14 -271 14q-104 0 -276 -14z" />
<glyph unicode="L" horiz-adv-x="1215" d="M-16 -7q-2 5 -2 13q0 10 3 24q6 27 15 38q34 0 86 9t61 27q4 7 8 17t7 18t6.5 22l5.5 22t6 26t5.5 26t5.5 29.5t6 29.5l174 899q2 11 5.5 29.5t5.5 29t5 26.5t4.5 26t3 22.5t2 21.5t0.5 18.5t-1 16.5q-3 18 -52 28.5t-82 10.5q-5 9 -0.5 36.5t14.5 37.5q167 -13 273 -13 q102 0 274 13q6 -10 0 -37t-16 -37q-33 0 -85.5 -10.5t-61.5 -28.5q-4 -7 -8 -16.5t-7 -18t-6.5 -22.5l-5.5 -22t-6 -26t-5.5 -26t-5.5 -29.5t-6 -29.5l-176 -899q-21 -104 -21 -148q0 -16 3 -24q17 -34 135 -34h132q145 0 232 66q83 60 165 221q7 14 34 14q16 0 33.5 -4.5 t20.5 -9.5q-13 -25 -49.5 -94t-56.5 -108.5t-44.5 -92t-36.5 -87.5q-55 0 -309 2.5t-412 2.5q-54 0 -110.5 -1.5t-100 -2.5t-65.5 -1z" />
<glyph unicode="M" horiz-adv-x="1932" d="M-61 -9q-2 3 -2 11q1 8 3 22q4 26 13 39q33 0 99.5 17t85.5 47q13 19 31 70.5t25 84.5q104 439 231 1020q6 31 6 51q0 12 -2 21q-4 18 -53.5 33t-79.5 15q-4 6 4 38t12 36q34 -2 99 -7.5t120 -5.5q32 0 64.5 2t70.5 6t62 5q7 -49 32.5 -174t55 -261.5t66.5 -317 t63 -309.5q0 -5 6 -5q2 0 4 2t4.5 5t3.5 5q366 653 438 788q24 45 57 110.5t54 108.5l20 44q82 -9 195 -9q34 0 244 13q2 -4 2 -15q1 -9 -1 -23q-2 -32 -8 -39q-23 0 -72.5 -9.5t-63.5 -21.5q-29 -30 -38 -91q-131 -763 -163 -967q-18 -121 -18 -185q0 -23 2 -39 q3 -20 52 -29t79 -9q4 -15 1 -41t-10 -36q-13 1 -111 8.5t-153 7.5q-57 0 -165.5 -7.5t-130.5 -8.5q-3 5 2 34t11 43q30 0 81 8.5t69 22.5q6 7 13.5 23t12.5 34t8 32q19 115 22 133l147 879q3 14 3 33t-10 19q-4 0 -13 -16l-629 -1137q-7 -12 -24.5 -35t-41 -45t-38.5 -24 q-4 0 -18 5l-248 1252q-133 -616 -224 -1017q-14 -72 -14 -113q2 -14 25 -25.5t53 -17t53 -8.5t32 -3q4 -11 0 -39t-11 -38q-24 1 -104 8.5t-133 7.5q-56 0 -140 -7t-118 -9z" />
<glyph unicode="N" horiz-adv-x="1636" d="M-34 -9q-1 4 -1 9q0 10 4 28q6 26 13 38q31 0 95 14.5t79 37.5q35 53 61 192q41 224 174 890q15 74 15 113.5t-10 65.5q-8 17 -61.5 31t-81.5 14q-6 10 -1.5 38t12.5 36q22 -1 70 -4.5t83.5 -5t72.5 -1.5q98 0 197 9q26 -78 121 -253t227.5 -409t200.5 -366q2 4 5 18.5 t6 31t5 22.5l120 613q26 134 26 191q0 21 -4 32q-5 21 -63 34.5t-93 13.5q-3 7 1 34t11 40q29 -1 110.5 -8t136 -7t138.5 7t112 8q2 -5 2 -12q0 -9 -3 -23q-5 -24 -17 -39q-16 0 -50.5 -4.5t-76 -17t-52.5 -28.5q-14 -22 -32 -86t-31 -131l-163 -843q-29 -155 -54 -316 q-9 -9 -47 -9q-9 0 -19.5 6t-20 18t-17.5 28l-655 1188l-179 -922q-20 -99 -20 -151q0 -22 4 -36q5 -15 40 -27.5t69 -18.5t50 -6q5 -17 0 -40t-12 -37q-19 1 -107.5 8.5t-143.5 7.5q-42 0 -81 -3t-83 -7t-82 -6z" />
<glyph unicode="O" horiz-adv-x="1597" d="M124 608q0 113 25 220t70 195.5t106 165t134.5 134.5t154 99t166 62t169.5 21q106 0 199 -34.5t161.5 -94.5t117.5 -140t74 -173t25 -191q0 -135 -34 -258t-92.5 -220t-138 -176.5t-172 -131.5t-193.5 -80.5t-202 -28.5q-125 0 -232.5 50.5t-181 136t-115 201 t-41.5 243.5zM393 579q0 -82 10.5 -153.5t36 -138.5t64 -114.5t99 -76t136.5 -28.5q68 0 131 26t114 72.5t95 109.5t76.5 138t55.5 157.5t34.5 168t11.5 169.5q0 75 -10.5 144.5t-35.5 136.5t-63.5 116t-98.5 79t-136 30q-109 0 -206.5 -71t-165.5 -187.5t-108 -268 t-40 -309.5z" />
<glyph unicode="P" horiz-adv-x="1204" d="M-16 -9q-2 5 -2 13q0 10 3 24q6 27 15 38q33 0 85.5 10t61.5 28q4 7 8 17t7 18t6.5 22l5.5 22t6 26t5.5 26t5.5 29.5t6 29.5l176 899q6 30 8 41t6 35t5.5 35.5t3.5 28.5t1.5 28.5t-1.5 21.5q-3 18 -51.5 27t-82.5 9q-5 11 0.5 38t15.5 37q181 -9 273 -9q37 0 142 3.5 t173 3.5q83 0 156.5 -30.5t124 -82t76.5 -123.5q20 -55 20 -113q0 -18 -2 -36q-8 -84 -42.5 -159.5t-87.5 -131t-119.5 -96.5t-140 -62t-146.5 -21q-28 0 -52 5.5t-37 12t-19 14.5q-6 5 -11 18.5t-5 22.5q0 6 4 12t7 6q30 -9 72 -9q51 0 105 28t98.5 74t75.5 111.5t36 134.5 q2 37 2 73v24q-1 48 -16 92t-39 77t-65 53t-95 20q-93 0 -108 -25q-15 -26 -41 -154l-181 -933q-6 -30 -8 -41t-6 -35t-5.5 -35.5t-3.5 -28.5t-1.5 -28.5t2.5 -21.5q3 -18 51 -28t80 -10q5 -10 0.5 -37.5t-14.5 -37.5q-163 14 -271 14q-104 0 -276 -14z" />
<glyph unicode="Q" horiz-adv-x="1584" d="M122 664q10 121 50.5 234t102.5 204.5t142.5 168t170 128t185 80t187.5 28.5q109 0 204.5 -36t165 -101.5t117 -151.5t65.5 -190q10 -58 10 -119q0 -47 -6 -95q-9 -122 -49 -233.5t-100 -199.5t-137.5 -161t-162 -123.5t-174.5 -80.5q42 -24 94.5 -59t83.5 -54t74 -39 t92.5 -29t111.5 -9q78 0 134 16q12 0 23.5 -6.5t14.5 -16.5q-223 -131 -364 -131q-65 0 -129 22t-122.5 58.5t-115.5 75.5t-130.5 80.5t-144.5 66.5q-204 72 -312 253q-86 144 -86 326q0 46 5 94zM387 520q4 -74 17 -141t41 -124t66 -98.5t93 -65t121 -23.5q76 0 145 31.5 t123 86.5t99 127.5t76.5 156.5t51.5 170.5t28 173.5q7 51 7 101q0 25 -2 49q-5 75 -18.5 142t-42.5 124t-67.5 98.5t-92.5 65t-119 23.5q-76 0 -145 -31.5t-123 -86.5t-98.5 -127.5t-75.5 -156.5t-50.5 -170.5t-27.5 -173.5q-7 -54 -7 -108q0 -21 1 -43z" />
<glyph unicode="R" horiz-adv-x="1385" d="M-16 -9q-2 5 -2 13q0 10 3 24q6 27 15 38q33 0 85.5 10t61.5 28q4 7 8 17t7 18t6.5 22l5.5 22t6 26t5.5 26t5.5 29.5t6 29.5l176 899q6 30 8 41t6 35t5.5 35.5t3.5 28.5t1.5 28.5t-1.5 21.5q-3 18 -51.5 27t-82.5 9q-5 11 0.5 38t15.5 37q181 -9 276 -9q36 0 140 3.5 t172 3.5q85 0 158 -29.5t124.5 -82t72.5 -134.5q11 -43 11 -90q0 -43 -9 -89q-11 -52 -41 -101.5t-69 -87t-85.5 -69.5t-89.5 -53t-81 -33q52 -122 79.5 -183t65 -135.5t85.5 -160.5q25 -40 53.5 -72t55.5 -51.5t56 -33t52.5 -19.5t46.5 -7q3 -5 3 -14t-2 -21 q-6 -26 -10 -35q-24 -1 -47 -1q-90 0 -156 10q-45 1 -83.5 9t-67 21.5t-51 29.5t-40 36.5t-28.5 37.5t-21 38q-23 44 -108 225t-114 252q-5 9 -17.5 19t-27.5 10h-70l-75 -384q-6 -30 -8 -41t-6 -35t-5.5 -35.5t-3.5 -28.5t-1.5 -28.5t2.5 -21.5q3 -18 51 -28t80 -10 q5 -10 0.5 -37.5t-14.5 -37.5q-163 14 -271 14q-104 0 -276 -14zM527 757h104q115 0 208.5 73t123.5 198q12 58 15 110q1 12 1 23q-1 41 -9 79q-10 50 -33.5 86t-66.5 58t-102 22q-95 0 -110 -25q-15 -26 -41 -154z" />
<glyph unicode="S" horiz-adv-x="1098" d="M66 262q2 112 9 156q6 8 27.5 15.5t33.5 7.5q21 0 24 -16q0 -35 9.5 -79.5t32.5 -94t55.5 -90t83.5 -67t111 -26.5q46 0 89 14.5t80 43.5t62 77t31 109q3 31 -2 61t-13.5 53.5t-26.5 50t-32.5 44t-40.5 41.5t-41 36.5t-44 35.5q-17 14 -26 21q-15 13 -44 36 q-48 39 -72.5 60t-61 61.5t-52.5 75.5q-18 36 -28 88q-7 33 -6 70q0 21 2 43q5 52 23.5 101t48 90.5t67.5 77.5t82 63.5t90.5 47.5t94.5 30.5t93 10.5t92 -6t75.5 -12.5t84 -20.5t81.5 -20q-29 -208 -55 -350q-9 -16 -27 -16q-47 0 -52 18q1 18 1 36q1 21 -1 41 q-4 38 -13 74.5t-26.5 66.5t-42 53.5t-59.5 36.5t-78 13q-99 0 -165 -62.5t-77 -163.5q-2 -27 1 -52t12.5 -48.5t19 -43t28.5 -42t32 -37t38 -36.5t38 -33t41 -33.5t39 -31.5q14 -12 43 -34q45 -35 68 -54.5t58.5 -58.5t52 -74.5t26.5 -89.5q6 -31 6 -65q0 -24 -3 -49 q-7 -77 -41.5 -147t-88 -122t-119.5 -91t-137.5 -59t-140.5 -20q-62 0 -133.5 14t-114.5 27.5t-113 37.5q-9 80 -9 172v34z" />
<glyph unicode="T" horiz-adv-x="1331" d="M127 1125q15 42 65.5 194.5t67.5 208.5q8 3 17 3t19 -3q9 -2 32.5 -13t55 -19.5t73.5 -8.5h370h389q41 0 77.5 8.5t66 19.5t37.5 13q10 2 18 2t13 -2q-22 -339 -22 -403q-6 -5 -24 -11.5t-31 -6.5q-22 0 -22 14v19q0 47 -8 89q-10 50 -30 87.5t-51 59t-69 21.5h-231 l-215 -1103q-2 -11 -6.5 -33.5t-6.5 -33.5t-5 -29t-4.5 -28.5t-2.5 -24t-1 -23.5t2 -18q3 -18 52 -28t81 -10q5 -10 0.5 -37.5t-14.5 -37.5q-162 14 -269 14q-104 0 -275 -14q-7 10 -2 37t15 38q33 0 85.5 10t61.5 28q23 42 52 190l213 1103h-233q-76 0 -150.5 -79 t-116.5 -197q-7 -14 -27 -14q-13 0 -28.5 6.5t-18.5 11.5z" />
<glyph unicode="U" horiz-adv-x="1557" d="M224 624l110 569q6 30 8 41t6.5 35t6 35.5t3 28.5t1.5 28.5t-2 21.5q-3 18 -51 28.5t-80 10.5q-3 5 -3 15q1 9 3 21q4 28 14 38q162 -13 271 -13q101 0 273 13q7 -10 2 -37t-15 -37q-33 0 -85.5 -10.5t-61.5 -28.5q-23 -42 -52 -190l-93 -486q-17 -87 -23 -152 q-4 -42 -4 -83v-44q4 -62 20 -112q53 -183 276 -183q60 0 116 17t112 56t102.5 98.5t85 150t61.5 205.5l97 497q21 106 21 167q0 31 -5 50q-6 21 -59 35.5t-86 14.5q-3 9 -1.5 23t6 28t9.5 21q19 -1 50 -3.5t49 -4t43 -3t50 -2t52 -0.5q42 0 80 2t81.5 5.5t77.5 5.5 q2 -6 2 -15q0 -7 -2 -19q-4 -24 -13 -38q-35 0 -96 -13t-76 -37q-37 -60 -68 -215l-101 -524q-27 -134 -76.5 -242.5t-115 -183.5t-146.5 -125.5t-169 -74t-185 -23.5q-127 0 -225.5 46.5t-154.5 134.5q-62 99 -62 253q0 92 22 204z" />
<glyph unicode="V" horiz-adv-x="1389" d="M140 1422q-1 2 -1 7q0 9 4 29q6 30 13 38q176 -13 269 -13q108 0 280 13q2 -5 1 -16t-3 -23t-6 -22t-8 -13q-12 0 -30 -3t-43 -9t-44 -21t-23 -35q-2 -11 -2 -30q0 -45 13 -135l150 -827l46 80q47 81 114 199.5t133.5 235.5t117.5 206.5t54 96.5q64 117 75 171 q3 20 -13.5 35t-42.5 22t-47.5 10.5t-34.5 3.5q-7 6 -2 35t15 39q172 -13 236 -13q55 0 126.5 6t94.5 7q1 -3 1 -9q0 -11 -4 -30q-6 -29 -13 -35q-30 0 -77 -12t-72 -38q-55 -58 -138 -208q-310 -545 -633 -1094q-21 -35 -53.5 -59.5t-54.5 -24.5q-6 0 -9 4t-6 15.5t-3 12.5 q-17 108 -103.5 575t-102.5 564q-23 131 -47 201q-9 31 -52.5 47.5t-74.5 16.5z" />
<glyph unicode="W" horiz-adv-x="1948" d="M146 1443q2 15 6 32t8 21q172 -13 265 -13q104 0 276 13q1 -8 0 -23t-6 -31t-10 -20q-12 0 -31 -3.5t-43.5 -11t-43 -25t-20.5 -42.5q-1 -7 -1 -21q0 -34 8 -112q6 -61 26.5 -246.5t33.5 -312t19 -201.5q438 898 479 970q17 32 43 55.5t43 23.5q11 0 18 -36 q29 -186 81 -542.5t70 -510.5q346 737 364 773q57 130 66 171q3 20 -14 35t-43.5 22t-48 10.5t-34.5 3.5q-7 6 -1 35t16 39q172 -13 235 -13q42 0 77.5 2t75 5.5t71.5 5.5q2 -4 2 -10q-1 -11 -5 -29q-6 -29 -13 -35q-26 0 -75 -13.5t-76 -36.5q-58 -58 -115 -179 q-38 -74 -259.5 -534t-283.5 -578q-16 -36 -47 -65.5t-52 -29.5q-14 0 -25 32q-13 110 -75.5 517t-75.5 511q-389 -798 -473 -960q-8 -17 -25 -39.5t-37 -41.5t-33 -19q-14 0 -25 32l-133 1159q-4 52 -6 71t-8.5 49.5t-17.5 63.5q-10 29 -53 45t-73 16q-2 4 -2 12q1 4 1 9z " />
<glyph unicode="X" horiz-adv-x="1444" d="M-131 -9q-1 3 -1 9q0 11 4 29q6 28 13 37q12 0 34 2.5t59.5 11t77.5 30t68 53.5l511 576l-201 486q-47 126 -95 163q-12 10 -38 18t-49 12t-37 4q-11 0 0 41q8 26 16 33q13 0 121 -6.5t170 -6.5q47 0 96 2t110 6t83 5q2 -12 -4 -43t-14 -31q-13 0 -32 -3.5t-40.5 -10 t-38.5 -19.5t-20 -28q-7 -24 9 -59l165 -391l33 36q92 101 142 156t111 126t80 100q2 2 5.5 8.5t6 11.5t2.5 9q4 23 -33.5 42t-104.5 19q-4 3 -3.5 17.5t5 34t9.5 25.5q119 -13 251 -13q127 0 244 13q2 -4 2 -12q0 -12 -4 -30q-6 -30 -16 -35q-12 0 -30.5 -2.5t-53.5 -11.5 t-74.5 -32t-71.5 -58l-466 -490q31 -75 96 -229t124 -290.5t65 -145.5q13 -25 37.5 -44.5t52.5 -30t53.5 -15t46.5 -4.5q3 -12 -2 -39t-12 -36q-23 1 -64.5 4t-72 4.5t-68.5 3.5t-68 2q-69 0 -184 -6.5t-140 -7.5q-3 8 -2 24.5t7 33.5t11 17q27 0 77.5 19t56.5 46q3 9 -3 25 l-205 490q-357 -405 -409 -479q-22 -32 -23 -36q-2 -12 9 -24t31.5 -21t50.5 -14.5t63 -5.5q5 -11 1.5 -37t-10.5 -38q-217 14 -256 14q-48 0 -92.5 -2.5t-94 -6.5t-77.5 -5z" />
<glyph unicode="Y" horiz-adv-x="1279" d="M144 1457q6 29 16 39q181 -13 278 -13q113 0 285 13q4 -11 -1 -39.5t-15 -34.5q-14 0 -32 -2.5t-43 -8.5t-43 -20.5t-22 -34.5q-2 -2 -0.5 -11t2.5 -12.5t4.5 -14.5t5.5 -16l167 -520q35 44 112.5 153t149 214.5t115.5 172.5q12 17 16 43q2 13 -18.5 26t-54.5 20.5 t-69 7.5q-5 9 -0.5 38.5t11.5 38.5q20 -1 57 -4.5t55.5 -5t49.5 -2.5t62 -1q44 0 82.5 2t81 6t73.5 5q1 -2 1 -6q0 -10 -5 -32q-7 -32 -14 -39q-129 0 -183 -72q-23 -27 -242 -324.5t-249 -344.5q-4 -7 -8 -15.5t-5 -14t-3.5 -16t-3.5 -13.5l-65 -325q-25 -111 -25 -166 q0 -14 2 -24q2 -12 30 -21.5t56 -13t45 -3.5q5 -10 0.5 -37.5t-14.5 -37.5q-162 14 -271 14q-101 0 -273 -14q-7 10 -2 37t15 38q33 0 85.5 10t61.5 28q7 12 12.5 26.5t11 36t9 36t10 45.5t9.5 46l64 330q2 20 -5 54q-4 18 -23 80.5t-44 140t-49.5 152t-40.5 124.5l-17 50 q-9 27 -17 46.5t-17 35.5t-18 29t-23 29q-18 27 -55.5 42t-63.5 15q-4 3 -4 13q0 9 3 22z" />
<glyph unicode="Z" horiz-adv-x="1369" d="M-34 41l1130 1356l-452 -3q-53 0 -100 -16t-82 -42.5t-67.5 -67.5t-56 -82t-49.5 -94q-7 -12 -27 -12q-15 0 -33 4.5t-21 9.5q78 169 151 411q25 -6 104.5 -12t117.5 -6h350q173 0 470 23q7 -2 13 -24q4 -15 4 -27q0 -6 -1 -10q-2 -6 -95 -121t-235 -287.5t-294 -356.5 t-290 -348.5t-205 -240.5h504q128 0 226 95q70 67 140 196q8 12 30 12q10 0 22 -2.5t21 -7t11 -8.5q-10 -21 -34.5 -71.5t-35 -72t-29.5 -62t-30 -64.5t-24 -54.5t-23 -55.5h-1071q-18 0 -32 16q-9 11 -9 18q0 4 2 7z" />
<glyph unicode="[" horiz-adv-x="594" d="M16 -212l363 1871q2 6 5.5 12t12 14t19.5 8q119 0 354 18q9 -9 9 -21q0 -23 -17 -43.5t-30 -26.5q-27 -11 -96.5 -22.5t-127.5 -13.5q-4 0 -7 -2t-4 -3.5t-3 -5.5t-2 -5l-332 -1686q0 -15 12 -18q53 -7 115 -24.5t95 -38.5q10 -6 22 -20.5t12 -26.5q0 -21 -18 -39 q-8 2 -55 10.5t-77.5 13.5t-76.5 12t-86 10.5t-72 3.5q-7 0 -12 6.5t-3 16.5z" />
<glyph unicode="\" horiz-adv-x="854" d="M269 1706q4 6 13 11t19 5q21 0 42 -16.5t32 -35t14 -32.5l282 -1647q5 -25 -21 -53t-47 -28q-18 0 -27 6z" />
<glyph unicode="]" horiz-adv-x="578" d="M-133 -262q0 4 1 7.5t4.5 9t5 7.5t7.5 9t7 8q33 39 122 72q77 27 117 31q2 0 21 88t44.5 212.5t50.5 249.5t43 213l17 87q0 1 40 212t78.5 420t35.5 209q-30 5 -113 36q-31 3 -60 11.5t-44.5 16.5t-15.5 13q0 3 -2 4.5t-3.5 2t-3.5 2t-3 6t-1 12.5q0 12 7 23t13 11 q183 -21 353 -21q24 0 24 -29q0 -8 -93.5 -483.5t-93.5 -476.5q-176 -909 -185 -909q-41 -5 -107.5 -29t-91.5 -30h-52t-48.5 -0.5t-37 0t-27.5 1.5t-9 4z" />
<glyph unicode="^" horiz-adv-x="707" d="M38 1128q5 7 29.5 28.5t62 55t81 76.5t95.5 107.5t96 134.5q4 6 8 13.5t5.5 10t5 4t8.5 1.5q15 0 22.5 -5.5t14.5 -23.5t13.5 -40.5t24 -67t41.5 -93.5q10 -19 27 -45.5t34.5 -51t33.5 -47t26.5 -37.5t11.5 -18q-6 -18 -18 -40.5t-23 -22.5q-29 0 -112 93.5t-129 172.5 q-78 -88 -197 -177t-145 -89q-16 0 -16 61z" />
<glyph unicode="_" horiz-adv-x="1080" d="M-80 -81q0 11 19 63t35 52h940q9 0 9 -14q0 -22 -38 -106q-3 -6 -7 -9.5t-7 -3.5h-2h-938q-2 0 -4 0.5t-5 5t-2 12.5z" />
<glyph unicode="`" horiz-adv-x="381" d="M47 1483q0 22 25.5 44.5t76.5 22.5q53 0 68 -18q14 -22 30.5 -54.5t31 -65.5t28.5 -66.5t23.5 -59.5t16 -43.5t6.5 -19.5q0 -11 -12.5 -25t-24.5 -14q-8 0 -50.5 34t-91 80t-88 99t-39.5 86z" />
<glyph unicode="a" horiz-adv-x="1059" d="M34 258q0 96 30.5 192.5t81.5 176.5t118.5 150t142 118.5t152 76t146.5 27.5q105 0 208 -36l-140 -694q-1 -4 -3.5 -20t-4 -32.5t-1.5 -22.5q0 -52 27 -52q22 0 62.5 34.5t64.5 61.5t33 40q4 0 9 -6t9 -14.5t7 -17.5t3 -14q-13 -23 -49.5 -62.5t-83.5 -80t-101 -70 t-94 -29.5q-48 0 -78.5 36t-30.5 98q0 18 9 81q2 13 4.5 24t4.5 19t3 13q-19 -34 -53.5 -76.5t-79 -87.5t-99 -75t-100.5 -30q-92 0 -144.5 76t-52.5 196zM260 344q0 -94 25 -143.5t72 -49.5q46 0 102.5 73t103.5 183.5t70 220.5l47 233q-12 14 -39 21.5t-53 7.5 q-80 0 -156.5 -81.5t-124 -209t-47.5 -255.5z" />
<glyph unicode="b" horiz-adv-x="1010" d="M88 246q0 27 14 116l178 904q18 81 18 117q0 45 -135 45q-5 7 -1.5 28.5t10.5 28.5q84 7 195 32.5t157 41.5q12 -6 12 -40q0 -31 -30 -172l-131 -646q79 129 191 213.5t184 84.5q87 0 135 -66.5t48 -186.5q0 -101 -27.5 -200.5t-74.5 -181.5t-108.5 -153.5t-129 -120 t-137 -76.5t-131.5 -28q-104 0 -170.5 70.5t-66.5 189.5zM298 256v-19q0 -41 7 -74q9 -41 31.5 -64.5t56.5 -23.5q48 0 96 43.5t85.5 113t67 151t45.5 161t16 139.5q0 31 -2.5 54t-9.5 48t-23 38t-40 13q-49 0 -115.5 -70t-123 -181t-77.5 -219q-12 -58 -14 -110z" />
<glyph unicode="c" horiz-adv-x="833" d="M45 307q0 75 18 151t50.5 143t75.5 128.5t94.5 110t106 84.5t112 55.5t110.5 19.5q99 0 170 -54q27 -41 27 -86q0 -46 -29.5 -83t-72.5 -37q-32 0 -57 18.5t-40 47.5q-1 1 -8.5 13l-10 16t-10 14.5t-12 15t-13 12t-16 10.5t-18 6t-20.5 3q-39 0 -79.5 -43.5t-73 -114 t-53 -167.5t-20.5 -195q0 -47 7 -85.5t23 -72t46.5 -52t72.5 -18.5q15 0 31 4t31 11t30.5 16t29.5 19.5t27.5 21.5t24.5 21.5t21 20.5t16.5 17t11.5 12l5 6q9 0 19.5 -20t10.5 -32q-11 -16 -35.5 -45t-64.5 -66t-83.5 -69.5t-95.5 -55t-97 -22.5q-55 0 -102.5 21t-83 60 t-56 101t-20.5 139z" />
<glyph unicode="d" horiz-adv-x="1059" d="M34 262q0 67 15.5 135.5t43.5 131t67.5 121.5t85.5 109.5t99 93t107.5 73.5t111 50t109.5 23h37l49 267q2 12 6 31t7 33.5t5.5 29.5t2.5 23q0 45 -138 45q-5 7 -1.5 28.5t10.5 28.5q57 5 134 20t134 29.5t84 24.5q14 -8 14 -40q0 -31 -29 -172l-215 -1078q-1 -4 -3.5 -20 t-4 -32.5t-1.5 -22.5q0 -49 27 -49q22 0 62 33t64.5 60.5t33.5 39.5q4 0 9 -6t9 -14.5t7 -17.5t3 -14q-13 -23 -49.5 -62.5t-83.5 -80t-101 -70t-94 -29.5q-36 0 -60.5 23t-34.5 63q-7 19 -7 58q0 21 2 48l12 79q-17 -32 -51 -75t-79 -87.5t-100 -75.5t-102 -31 q-64 0 -110 40t-66.5 101t-20.5 135zM260 341q0 -190 97 -190q45 0 104 78t106.5 189t65.5 210q27 143 27 156v13q0 37 -14 63q-18 30 -54 30q-61 0 -122 -49t-107 -126.5t-74.5 -177t-28.5 -196.5z" />
<glyph unicode="e" horiz-adv-x="856" d="M45 316q0 82 24.5 167t65.5 159.5t97.5 140.5t119 113.5t131 75t132.5 27.5q58 0 102.5 -19.5t70.5 -59.5t26 -95q0 -47 -22.5 -93t-59.5 -84.5t-85 -73t-99.5 -60.5t-102 -45.5t-94 -29.5t-73.5 -10q-5 -13 -5 -63q0 -44 7.5 -81.5t23.5 -69.5t46 -50t70 -18q17 0 35 5 t35 13.5t34 19t32.5 23t29 24.5t25.5 24t20 20.5t14 15.5l6 6q9 0 20.5 -22t11.5 -34q-13 -21 -54 -61.5t-95.5 -84.5t-120 -77t-115.5 -33q-120 0 -186.5 86.5t-66.5 243.5zM285 502q22 0 53.5 12t66 33.5t69 52t62 65t44.5 76.5t17 82q0 37 -22 62.5t-55 25.5 q-38 0 -74 -31.5t-62.5 -79.5t-48.5 -104.5t-34.5 -107t-15.5 -86.5z" />
<glyph unicode="f" horiz-adv-x="687" d="M-307 -407q1 41 22.5 71.5t53.5 30.5q50 0 91 -52q1 -2 7.5 -10t9 -11t8.5 -10t10.5 -9.5t11 -6.5t13.5 -5.5t14 -1.5q59 0 91 96t88 382q4 24 7 37l131 748h-170q-4 0 -4 7q0 20 35.5 54t70.5 34h84q26 133 83.5 251t127 195t144 121.5t137.5 44.5q50 0 88.5 -15 t56.5 -34q9 -23 9 -46q-2 -43 -22.5 -75.5t-54.5 -32.5q-49 0 -90 52q-1 1 -5.5 7t-6 7.5t-6 6.5t-6.5 7l-6.5 6.5t-7.5 6t-8 4.5t-9 4t-9 2t-11 1q-56 0 -94.5 -111.5t-95.5 -401.5h226q12 0 12 -29.5t-23 -65.5h-233q-74 -455 -129 -739q-26 -134 -81 -253t-122 -199 t-142 -126t-143 -46q-50 0 -88.5 15t-55.5 35q-9 32 -9 54z" />
<glyph unicode="g" horiz-adv-x="965" d="M-120 -276q0 33 12 63.5t28.5 54t46.5 47t53 38.5t61 33.5t58.5 27t57.5 23.5q-61 32 -70 41q-2 1 -9 6.5t-8.5 7t-7 6.5t-7 8t-5.5 8.5t-5 10t-2.5 11.5t-1.5 14q0 27 50.5 65.5t114.5 69t111 42.5q-34 5 -68.5 18.5t-71 37.5t-64 54.5t-45.5 75.5t-18 96 q0 88 35.5 167.5t93.5 136t134.5 90t157.5 33.5q58 0 104.5 -13.5t98.5 -38.5q12 -6 46.5 1.5t73 19.5t47.5 13q27 -8 65.5 -35.5t38.5 -45.5q0 -13 -9 -24.5t-22 -11.5q-16 0 -84.5 1t-83.5 1q1 -2 7 -14.5t12.5 -28.5t13 -36.5t11 -46.5t4.5 -50q0 -47 -10.5 -90.5 t-27.5 -77.5t-40.5 -65t-47 -53.5t-49.5 -42t-46 -31t-39 -20.5q-23 -12 -80.5 -31.5t-90 -37t-32.5 -40.5q0 -12 19 -25t50 -24.5t71 -27t81.5 -31.5t81 -40t71 -50.5t50.5 -65t19 -81.5q0 -80 -41.5 -151t-114 -123t-177 -82.5t-223.5 -30.5q-112 0 -198 31.5t-133 87 t-47 125.5zM95 -219q0 -68 40.5 -115t104 -68t144.5 -21q59 0 113.5 19.5t90.5 57t36 84.5q0 131 -348 239q-38 -17 -65.5 -34t-56.5 -41t-44 -55t-15 -66zM303 592v-10q0 -52 9 -95q11 -47 39.5 -80t71.5 -34h2q54 0 100 45q47 47 72.5 116t26.5 139v11q0 38 -6 75 q-6 43 -20 81.5t-38.5 63t-55.5 25.5h-2q-59 0 -104 -52q-47 -53 -70 -128.5t-25 -156.5z" />
<glyph unicode="h" horiz-adv-x="1100" d="M41 0q2 10 63.5 329.5t121 626.5t59.5 310q18 81 18 117q0 45 -136 45q-5 7 -1.5 28.5t10.5 28.5q84 7 195.5 32.5t157.5 41.5q11 -6 11 -40q0 -25 -29 -172q-120 -610 -122 -619q-2 -5 -6 -28t-8.5 -47.5t-8.5 -47.5t-4 -26q15 32 49 83t81 109.5t96.5 109.5t100.5 84.5 t88 33.5q53 0 86 -21t46 -57.5t13 -93.5q0 -27 -5 -68t-9.5 -65.5t-15 -79t-11.5 -58.5l-58 -287q-1 -4 -3.5 -20t-4 -32.5t-1.5 -22.5q0 -52 27 -52q22 0 62 34.5t63 61t33 40.5q8 0 17.5 -20.5t9.5 -31.5q-13 -23 -49 -62.5t-82.5 -80t-100.5 -70t-93 -29.5 q-50 0 -80.5 36t-30.5 102q0 20 5.5 63t12.5 66l65 321q23 113 23 147q0 72 -41 72q-27 0 -77.5 -48.5t-104.5 -124t-103 -179.5t-69 -202q-3 -16 -13.5 -62t-23 -102t-15.5 -73q-16 -5 -50 -8t-54 -3q-59 0 -104 11z" />
<glyph unicode="i" horiz-adv-x="646" d="M38 757q13 24 48 63t80.5 79.5t98 70t92.5 29.5q52 0 85 -38.5t33 -101.5q0 -30 -18 -127l-100 -463q-7 -24 -7 -75q0 -52 25 -52q22 0 62.5 34.5t64.5 61.5t34 40q4 0 9 -6t8.5 -14.5t6.5 -17.5t3 -14q-13 -23 -49.5 -62.5t-83.5 -80t-101 -70t-94 -29.5q-48 0 -78 36 t-30 102q0 44 18 129l99 463q9 45 9 72q0 55 -27 55q-22 0 -62.5 -34t-64.5 -61.5t-33 -40.5q-8 0 -18 20.5t-10 31.5zM280 1347q0 63 44.5 111.5t104.5 48.5q47 0 75.5 -33t28.5 -82q0 -65 -44 -115t-105 -50q-46 0 -75 35.5t-29 84.5z" />
<glyph unicode="j" horiz-adv-x="605" d="M-197 -463q144 100 222.5 238.5t123.5 362.5l113 576q9 45 9 72q0 55 -27 55q-22 0 -62 -34.5t-63 -61t-33 -40.5q-8 0 -17.5 20.5t-9.5 31.5q13 24 47.5 63t79.5 79.5t97.5 70t91.5 29.5q52 0 85 -38.5t33 -101.5q0 -42 -16 -127q-88 -461 -106 -547q-48 -240 -177 -411 q-65 -87 -185.5 -175t-184.5 -110q-5 2 -9.5 10t-8 18.5t-3.5 19.5zM328 1347q0 64 43.5 113.5t103.5 49.5q46 0 76 -34.5t30 -83.5q0 -65 -44.5 -114t-104.5 -49q-31 0 -55 16.5t-36.5 43t-12.5 58.5z" />
<glyph unicode="k" horiz-adv-x="1087" d="M41 0q2 10 63.5 329.5t121 626.5t59.5 310q20 91 20 117q0 45 -138 45q-5 7 -1.5 28.5t10.5 28.5q84 7 195.5 32.5t157.5 41.5q13 -8 13 -40q0 -25 -29 -172l-115 -597q6 13 28.5 39.5t62.5 63t85.5 69t104 55t112.5 22.5q81 0 130 -43.5t49 -114.5q0 -64 -38 -121 t-101.5 -99t-138 -73t-156.5 -51q28 -50 42.5 -74t39 -65t39 -61t35.5 -49t36 -43t33.5 -29t35.5 -21t35 -6q20 0 55.5 28.5t57 52t40.5 46.5q5 0 10 -6.5t9 -14.5t6 -16.5t2 -12.5q-8 -19 -40.5 -56.5t-76.5 -78t-97.5 -70.5t-94.5 -30q-26 0 -51.5 9.5t-47 22t-45 38 t-40 45t-38 55.5t-33.5 57.5t-32 63t-28 59.5t-26 59.5t-23 51.5l-88 -452q-17 -5 -50 -9.5t-52 -4.5q-54 0 -108 14zM357 540q56 0 120.5 17.5t122.5 48t96 78.5t38 102q0 11 -1.5 20.5t-6 20t-12 17.5t-20.5 12t-30 5q-46 0 -100.5 -36.5t-97 -88t-73.5 -106t-36 -90.5z " />
<glyph unicode="l" horiz-adv-x="592" d="M75 122q0 44 18 129l196 1015q23 101 23 117q0 45 -140 45q-5 7 -1.5 28.5t10.5 28.5q84 7 195 32.5t157 41.5q16 -9 16 -40t-29 -172l-213 -1078q-9 -45 -9 -75q0 -52 27 -52q23 0 62.5 34.5t62.5 61t34 40.5q8 0 17.5 -20.5t9.5 -31.5q-13 -23 -49 -62.5t-82.5 -80 t-100.5 -70t-94 -29.5q-49 0 -79.5 36t-30.5 102z" />
<glyph unicode="m" horiz-adv-x="1663" d="M38 757q13 24 48 63t80.5 79.5t98 70t92.5 29.5q52 0 85 -38.5t33 -101.5q0 -30 -18 -127q-5 -24 -11 -51.5t-13.5 -59t-9.5 -42.5q29 58 76.5 128.5t102.5 136.5t113 110.5t99 44.5q46 0 78.5 -15.5t49 -45.5t23.5 -64.5t7 -80.5q0 -33 -7 -86t-16 -88 q43 78 110.5 163.5t145.5 151t128 65.5q84 0 119 -42.5t35 -129.5q0 -19 -2.5 -44.5t-5 -45.5t-8 -52t-8 -45.5t-9.5 -47t-8 -36.5q-2 -11 -31 -140.5t-32 -146.5q-7 -34 -7 -75q0 -49 25 -49q22 0 62 33t65 60.5t34 39.5q8 0 17.5 -20.5t9.5 -31.5q-13 -23 -49.5 -62.5 t-83.5 -80t-101 -70t-94 -29.5q-48 0 -78 36t-30 102q0 44 18 129l67 321q23 113 23 147q0 72 -41 72q-28 0 -79 -48.5t-103 -123t-99 -174.5t-67 -192l-52 -253q-54 -9 -106 -9q-45 0 -104 9l122 594q6 26 12 69.5t6 59.5q0 32 -10.5 50t-29.5 18q-31 0 -82.5 -51.5 t-103 -129t-97.5 -179t-65 -191.5l-50 -240q-68 -11 -104 -11q-33 0 -106 11l142 714q9 45 9 72q0 55 -27 55q-22 0 -62.5 -34t-64.5 -61.5t-33 -40.5q-8 0 -18 20.5t-10 31.5z" />
<glyph unicode="n" horiz-adv-x="1170" d="M38 757q13 24 48 63t80.5 79.5t98 70t92.5 29.5q52 0 85 -38.5t33 -101.5q0 -19 -6 -59.5t-12 -67.5l-32 -144q13 26 39 66t60.5 86.5t76 92t82 83t81.5 60.5t72 23q84 0 119 -42.5t35 -129.5q0 -68 -41 -271l-59 -287q-6 -24 -6 -75q0 -52 25 -52q22 0 62 34.5t64 61.5 t34 40q8 0 17.5 -20.5t9.5 -31.5q-12 -23 -49 -62.5t-84 -80t-101 -70t-94 -29.5q-31 0 -55 15.5t-38.5 47t-14.5 75.5t18 129l63 321q23 113 23 147q0 72 -41 72q-28 0 -79.5 -47t-106.5 -121t-105 -178.5t-70 -204.5q-1 -5 -50 -240q-68 -11 -104 -11q-33 0 -106 11 l142 714q9 45 9 72q0 55 -27 55q-22 0 -62.5 -34t-64.5 -61.5t-33 -40.5q-8 0 -18 20.5t-10 31.5z" />
<glyph unicode="o" horiz-adv-x="983" d="M45 316q0 95 31 194.5t85.5 185.5t122.5 155t149 108.5t159 39.5q70 0 125.5 -21t95.5 -62t61 -106t21 -150q0 -94 -32 -193t-87.5 -183.5t-125 -152t-151.5 -106.5t-160 -39q-139 0 -216.5 88t-77.5 242zM276 321q0 -48 5 -90t16 -80t31.5 -60.5t48.5 -22.5 q52 0 98.5 39t80 102.5t59 142t37.5 158.5t12 150q0 51 -4.5 94t-15 81.5t-31 60.5t-48.5 22q-52 0 -99 -39.5t-81 -103t-59 -142t-37.5 -159.5t-12.5 -153z" />
<glyph unicode="p" horiz-adv-x="1071" d="M-122 -480q3 30 11 35q59 0 91 38q21 28 36 95l174 857l-109 -109q-6 8 -10.5 24.5t-4.5 27.5q0 26 20 41l124 126l63 335q42 11 113 11t102 -16q-5 -21 -18.5 -92t-15.5 -79q39 38 88.5 76.5t119 73.5t122.5 35q105 0 157.5 -74.5t52.5 -199.5q0 -89 -26.5 -181 t-71.5 -172.5t-106 -151.5t-128.5 -122t-141 -80t-140.5 -29q-58 0 -82 20l-67 -316q-7 -31 -7 -64q0 -12 8 -28.5t23 -20.5q39 -9 107 -9q7 -2 4 -32.5t-11 -33.5q-15 0 -41 1t-38 1q-223 0 -391 -20q-7 2 -7 21v12zM357 316q-10 -50 -10 -90q0 -48 14 -83q25 -64 75 -64 q63 0 125 61.5t105.5 152.5t70.5 196t27 191q0 161 -104 161q-52 0 -117.5 -41t-108.5 -95z" />
<glyph unicode="q" horiz-adv-x="994" d="M34 260q0 76 20.5 154.5t57.5 150t86.5 138t110 120t125 93t135 61.5t136.5 22q124 0 199 -41l-131 -682l-109 -597q-4 -36 -4 -45q0 -15 3 -25t13.5 -20t33.5 -15.5t58 -5.5q5 0 5.5 -15t-3 -31t-8.5 -19q-16 0 -70 2t-68 2q-130 0 -339 -22q-5 3 -4 35.5t11 32.5 q35 3 64.5 12.5t53 29.5t28.5 48l113 599q-20 -34 -53 -75t-76 -83t-95.5 -70t-98.5 -28q-49 0 -87 24t-61 64t-34.5 87.5t-11.5 98.5zM260 348q0 -62 11.5 -106t33.5 -67.5t52 -23.5q35 0 78 44.5t81 113t70 153t47 162.5q2 16 13.5 73.5t13.5 73.5q3 13 3 26q0 12 -3 25 q-4 26 -21.5 47t-46.5 21q-81 0 -159 -80.5t-125.5 -207t-47.5 -254.5z" />
<glyph unicode="r" horiz-adv-x="888" d="M36 757q13 24 47.5 63t79.5 79.5t97.5 70t92.5 29.5q51 0 85 -38.5t34 -101.5q0 -30 -18 -127q-21 -116 -34 -167q30 91 90.5 191.5t133.5 171.5t127 71q40 0 66 -9.5t51 -29.5q30 -39 30 -81q0 -60 -32 -95.5t-77 -35.5q-38 0 -86 38q-8 6 -11.5 8.5t-10 5.5t-13.5 4 t-17 1q-26 0 -70.5 -52.5t-89.5 -131.5t-86.5 -183t-60.5 -198l-48 -240q-45 -9 -101 -9q-55 0 -109 9l134 714q11 57 11 72q0 9 -1.5 17.5t-4.5 17.5t-9.5 14.5t-14.5 5.5q-22 0 -61.5 -34.5t-62.5 -61t-34 -40.5q-8 0 -17.5 20.5t-9.5 31.5z" />
<glyph unicode="s" horiz-adv-x="775" d="M0 131q0 48 27 80.5t68 32.5q16 0 30.5 -6t29 -21t23.5 -27t26 -36q6 -8 8 -12q27 -37 54 -55.5t68 -18.5q49 0 76.5 36.5t27.5 76.5q0 32 -18.5 67t-39 58t-60 62.5t-56.5 58.5q-3 4 -19.5 22.5t-21 23.5t-18.5 22.5t-18.5 24.5t-16 24t-15.5 27.5t-11 28t-10 32 t-5 33.5t-2 38q0 57 26 111t71 95.5t110.5 66.5t140.5 25q141 0 221 -65q11 -13 18 -39t7 -43q0 -40 -26.5 -72t-68.5 -32q-33 0 -61.5 26t-58.5 67q-14 21 -21 30t-20.5 22.5t-29.5 19t-37 5.5q-30 0 -54 -18t-36 -44t-12 -53q0 -25 11 -50.5t33 -52t42 -47.5t51.5 -51 t47.5 -48q31 -33 48.5 -54.5t40 -56.5t32.5 -74t10 -84q0 -90 -49.5 -159.5t-133 -105.5t-185.5 -36q-63 0 -121.5 17.5t-97.5 50.5q-10 14 -17.5 37t-7.5 40z" />
<glyph unicode="t" horiz-adv-x="684" d="M81 859q0 20 35.5 54t71.5 34h74l32 156q19 24 101 86.5t95 62.5q21 0 39 -14l-54 -291h185q9 0 9 -29.5t-23 -65.5h-189l-113 -583q-12 -45 -12 -75q0 -19 7 -35.5t23 -16.5q22 0 61.5 34.5t62.5 61t34 40.5q4 0 9 -6t9 -14.5t6.5 -17.5t2.5 -14q-13 -23 -49.5 -62.5 t-83.5 -80t-101 -70t-94 -29.5q-48 0 -79.5 36.5t-31.5 101.5q0 52 19 129l117 601h-158q-5 0 -5 7z" />
<glyph unicode="u" horiz-adv-x="1157" d="M29 757q13 24 48 63t80.5 79.5t98 70t92.5 29.5q52 0 85 -38.5t33 -101.5q0 -30 -19 -127l-63 -321q-22 -113 -22 -147q0 -72 40 -72q27 0 79 54t106.5 135t103.5 191.5t68 209.5q5 25 21 100.5t20 100.5q38 11 97 11q66 0 111 -11l-136 -714q-9 -36 -9 -75q0 -52 27 -52 q23 0 62.5 34.5t62.5 61t34 40.5q8 0 17.5 -20.5t9.5 -31.5q-13 -23 -49 -62.5t-82.5 -80t-100.5 -70t-94 -29.5q-48 0 -79 36.5t-31 101.5q0 31 15 118q8 42 34 158q-27 -58 -80 -129.5t-113 -135t-124 -106.5t-108 -43q-72 0 -100 44t-28 135q0 78 38 257q0 2 28.5 134.5 t32.5 159.5q9 45 9 72q0 55 -27 55q-22 0 -62.5 -34t-64.5 -61.5t-34 -40.5q-7 0 -17 20.5t-10 31.5z" />
<glyph unicode="v" horiz-adv-x="1021" d="M29 757q13 24 48 63t80.5 79.5t98 70t92.5 29.5q26 0 46 -10t31 -27t16.5 -39t5.5 -48v-98v-194q0 -82 5 -166t11.5 -142t13.5 -76q88 71 144 138.5t100 155.5q16 31 27.5 65.5t17.5 64.5t8.5 54.5t2.5 45.5q0 40 -21 84.5t-55 73.5q3 30 23 57.5t48 44t55 16.5 q33 0 60.5 -12.5t48 -36.5t32 -61t11.5 -84q0 -69 -42 -160t-107.5 -179.5t-146.5 -176.5t-158.5 -154t-145 -107.5t-103.5 -41.5q-22 46 -36 205t-14 304v282q0 55 -25 55q-26 0 -75 -50t-70 -77q-7 0 -17 20.5t-10 31.5z" />
<glyph unicode="w" horiz-adv-x="1530" d="M29 757q13 24 48 63t80.5 79.5t98 70t92.5 29.5q26 0 46 -10t31 -27t16.5 -39t5.5 -48v-98v-194q0 -81 5 -156t11.5 -122t13.5 -65q54 49 115.5 137t96.5 156q53 100 88 224q13 35 78 78t99 46q0 -144 22 -415q22 -226 41 -254q152 115 226 281q19 39 28.5 87t11 74 t1.5 65q0 43 -21 87.5t-56 74.5q5 45 46 81.5t83 36.5q43 0 76.5 -21.5t53 -66t19.5 -106.5q0 -69 -38 -159.5t-97 -179t-134 -176t-147.5 -153.5t-138 -107t-105.5 -41q-15 21 -32.5 117.5t-26.5 178.5q-16 118 -16 174q-58 -95 -142.5 -197t-176.5 -181.5t-153 -94.5 q-22 47 -37 207t-15 302v282q0 55 -25 55q-26 0 -75 -50t-70 -77q-7 0 -17 20.5t-10 31.5z" />
<glyph unicode="x" horiz-adv-x="1120" d="M-11 118q0 47 25 86.5t72 39.5q21 0 41 -9.5t32.5 -22t21.5 -27.5q7 -12 16 -22t19 -17.5t19 -7.5q32 0 70 70l133 233l-90 300q-9 33 -30 62t-51 29q-24 0 -75 -49t-70 -76q-5 0 -11.5 10.5t-11 22.5t-4.5 19q9 17 33 46t58.5 62.5t72 63t78.5 49t72 19.5 q47 0 80.5 -45.5t52.5 -115.5l59 -201l113 206q37 68 89 112t110 44q43 0 84 -15t63 -35q25 -50 25 -86q0 -21 -6.5 -42t-19 -39t-32.5 -29.5t-44 -11.5q-31 0 -55 17.5t-38 41.5q-11 20 -26 35t-28 15q-28 0 -68 -68l-140 -240l95 -307q27 -90 82 -90q29 0 82.5 51.5 t75.5 81.5q8 0 17.5 -20.5t9.5 -31.5q-11 -21 -46.5 -59.5t-82 -79.5t-100 -71t-92.5 -30q-92 0 -145 172q0 2 -54 188l-113 -201q-37 -69 -89 -114t-110 -45q-73 0 -142 50q-27 32 -27 82z" />
<glyph unicode="y" horiz-adv-x="1068" d="M-210 -393q0 29 18 61t43 45q18 -11 51 -24t76 -24t74 -11q50 0 90.5 12t69.5 35t47 43t37 48q8 15 13.5 35.5t8.5 46.5t5 49t2.5 55t0.5 52t-0.5 52t-0.5 45q0 106 -7.5 220t-23.5 227t-46 185.5t-69 72.5q-15 0 -34.5 -12.5t-38 -31t-33.5 -36t-26.5 -32t-12.5 -15.5 q-9 0 -18 21t-9 31q11 20 41.5 56.5t72 80t90 74.5t85.5 31q46 0 83.5 -32.5t62.5 -93.5t44 -128t30 -157.5t18 -160t9.5 -157t3 -126t0.5 -88.5v-11q35 43 74.5 106t81 146.5t68.5 182t27 184.5q0 121 -75 213q7 50 46.5 86t84.5 36q43 0 75 -27t47.5 -71t15.5 -96 q0 -128 -57.5 -281t-149.5 -296t-209 -279t-233.5 -236.5t-226 -162t-184.5 -61.5q-62 0 -102 32t-40 86z" />
<glyph unicode="z" horiz-adv-x="935" d="M-27 50q0 16 170.5 192t343 348t173.5 174q-68 -34 -118 -34q-73 0 -153 36q-3 2 -24.5 11.5t-30 13t-25.5 9.5t-30.5 8.5t-25.5 2.5q-18 0 -36.5 -11t-34 -30t-26.5 -35.5t-21.5 -35.5t-12.5 -21q-12 0 -21 14.5t-11 30.5q9 23 27.5 55.5t46.5 72t58 72.5t66.5 55.5 t68.5 22.5q12 0 24 -0.5t22 -2t21 -3.5t19.5 -4t19.5 -5t18 -5.5t18 -6.5t17.5 -6.5t17.5 -7t17 -6.5q88 -34 159 -34q63 0 175 75q4 3 5 4q37 -5 37 -54q0 -14 -166 -186.5t-335.5 -343.5t-170.5 -171q7 3 21 8t37 10t42 5q83 0 156 -36q6 -3 24 -11.5t28.5 -13t25.5 -10 t28 -8.5t25 -3q18 0 36 11t34 30t27 34.5t22 35t12 20.5q10 0 18 -7.5t11.5 -17t4.5 -20.5q-18 -37 -45 -80t-64 -89t-81 -76.5t-84 -30.5q-50 0 -95 13t-101 37q-83 34 -174 34q-21 0 -44.5 -9.5t-39 -20t-38.5 -28t-32 -23.5q-31 2 -36 52z" />
<glyph unicode="{" horiz-adv-x="515" d="M55.5 -44.5q-12.5 69.5 1.5 152.5q6 33 21 69.5t25.5 56t32.5 60.5q2 3 11.5 19.5t12.5 21t11 18.5t10.5 20.5t8.5 19.5t9 21.5t6.5 20t5.5 22.5q6 45 0.5 78.5t-26.5 58.5t-45.5 40.5t-55.5 25.5q-3 7 0 23q6 24 9 27q36 10 67 25.5t60.5 39t50 58.5t28.5 78q3 17 4 34 t-0.5 36.5t-3.5 31.5l-6 36t-5 34q-22 102 -7 176q12 63 42.5 124t69 107.5t82 84.5t82.5 61.5t70 33.5q10 0 18.5 -16t3.5 -29q-26 -13 -58.5 -37.5t-66.5 -58t-60 -77.5t-34 -87q-8 -40 -8 -79t4 -59t13 -61q7 -34 10.5 -56t3 -61.5t-8.5 -81.5q-8 -38 -24.5 -74.5 t-37 -65.5t-44.5 -54.5t-47.5 -43.5t-44.5 -30t-37 -16q22 -8 47 -30t47.5 -59t31 -85.5t-1.5 -108.5q-20 -100 -81 -201q-3 -5 -16.5 -28t-17.5 -30.5t-14.5 -28t-15.5 -33.5t-11.5 -33.5t-10.5 -40.5q-8 -44 1 -88t28.5 -78t42 -59t43.5 -38q0 -13 -14 -29t-24 -16 q-36 13 -73 46.5t-69.5 88t-45 124z" />
<glyph unicode="|" horiz-adv-x="458" d="M4 -260q306 1587 384 1971q30 29 84 29q15 0 26.5 -5.5t9.5 -14.5l-382 -1971q-14 -13 -41.5 -21t-50.5 -8q-13 0 -22.5 6.5t-7.5 13.5z" />
<glyph unicode="}" horiz-adv-x="519" d="M-81 -258q26 13 57.5 38t64.5 59t59 78t34 88q7 40 7 77t-3.5 58t-12.5 59q-7 33 -10.5 56t-3 63t8.5 82q11 56 41 108t65.5 86.5t69.5 57.5t59 31q-22 7 -47 29.5t-47.5 60t-31 86t1.5 108.5q12 64 33 110.5t53 97.5q17 29 25.5 44t21 40.5t21 51t13.5 54.5 q8 43 -0.5 87t-28 77.5t-41.5 58t-43 37.5q0 13 13 30t23 17q36 -12 73 -46.5t69.5 -89t45 -124t-1.5 -153.5q-15 -71 -77 -179q-13 -22 -16.5 -28t-14.5 -26t-15.5 -30t-12 -26.5t-11.5 -30.5t-7 -28q-6 -46 -0.5 -78.5t26.5 -57.5t45 -40t56 -25q1 -4 1 -12.5t-1 -14.5 q-5 -19 -9 -23q-36 -10 -67 -26t-60.5 -40t-50 -59t-28.5 -78q-3 -15 -4 -30t-0.5 -27t2.5 -28t3.5 -26t5 -28t4.5 -26q22 -109 7 -184q-15 -78 -57.5 -152t-95 -125.5t-103 -86t-90.5 -47.5q-11 0 -17 15.5t-1 29.5z" />
<glyph unicode="~" horiz-adv-x="1224" d="M129 608q0 36 31 72.5t77.5 63.5t101 44t99.5 17q55 0 105.5 -12.5t91 -29.5t80.5 -34.5t90.5 -29.5t105.5 -12q36 0 73 14.5t60 29.5t65 47q8 6 12 8q11 -11 11 -29q0 -31 -27.5 -66.5t-70 -64t-98.5 -47.5t-109 -19q-55 0 -106 12.5t-91.5 29.5t-81.5 34.5t-92 29.5 t-106 12q-36 0 -73 -14.5t-60 -29.5t-65 -47q-8 -5 -12 -8q-11 11 -11 29z" />
<glyph unicode="&#xa1;" horiz-adv-x="494" d="M-45 -344q2 29 41.5 170t107 370.5t95.5 330.5q5 17 19.5 32t29.5 22t26 7q13 0 13 -46q-4 -80 -38.5 -403t-58.5 -473q-11 -54 -54 -95t-95 -41q-43 0 -68 36.5t-18 89.5zM174 836q7 66 52.5 113.5t105.5 47.5q52 0 84 -41.5t25 -96.5q-7 -63 -53.5 -106t-107.5 -43 q-49 0 -81 37.5t-25 88.5z" />
<glyph unicode="&#xa2;" horiz-adv-x="861" d="M52 307q0 75 18 151t50.5 143t75 128.5t94 110t106.5 84.5t112.5 55.5t110.5 19.5q99 0 170 -54q27 -41 27 -86q0 -46 -29.5 -83t-72.5 -37q-32 0 -57.5 18.5t-39.5 47.5q-1 1 -8.5 13l-10 16t-10 14.5t-12.5 15t-13.5 12t-16 10.5t-17.5 6t-21 3q-38 0 -78.5 -43.5 t-73 -114t-53.5 -167.5t-21 -195q0 -47 7.5 -85.5t23.5 -72t46 -52t73 -18.5q16 0 34 5t35 13t33.5 19t32 23t29 24t25 23.5t19.5 20t14 15l6 6.5q9 0 19 -20t10 -32q-10 -16 -34.5 -45t-64.5 -66t-83.5 -69.5t-95.5 -55t-97 -22.5q-115 0 -188.5 84t-73.5 237zM212 -81 l398 1152q8 0 18.5 -0.5t24 -2t22 -5.5t8.5 -10l-398 -1155q-6 0 -15 0.5t-19.5 2t-19 4t-14 6t-5.5 8.5z" />
<glyph unicode="&#xa3;" horiz-adv-x="1046" d="M4 36q22 32 77.5 89.5t73.5 82.5q65 130 102 321q7 39 11 135h-140q-6 16 13.5 48.5t36.5 42.5h90q0 104 12 158q19 99 60.5 185.5t95.5 148.5t118 106.5t129.5 66.5t129.5 22q53 0 84 -18t54 -52q4 -20 -0.5 -47t-16.5 -52t-33.5 -42t-46.5 -17q-22 0 -39 8.5t-27 21.5 t-21 28.5t-20.5 28.5t-25.5 21.5t-37 8.5q-40 0 -73 -25t-56 -71t-38 -95.5t-27 -113.5q-4 -21 -7 -45.5t-4.5 -43t-3 -48t-1.5 -43.5t-1 -48t-1 -43h314q12 -10 -5.5 -44.5t-35.5 -46.5h-278q-4 -50 -9 -79q-23 -114 -79 -203t-117 -145q50 23 156 23q39 0 95.5 -21 l113 -42t96.5 -21q20 0 40 7.5t34 17.5t30 27.5t24.5 28.5t21.5 30.5t17 24.5q7 2 14 -6t11 -21q5 -12 0 -32q-15 -28 -34 -58t-51 -70t-66 -70t-79 -51.5t-89 -21.5q-47 0 -100.5 17t-94.5 37.5t-93 37t-96 16.5q-52 0 -181 -108q-14 0 -22.5 19.5t-4.5 34.5z" />
<glyph unicode="&#xa4;" horiz-adv-x="1172" d="M99 348l136 115q-36 87 -23 188q7 85 44 164t92 141l-86 127q-2 4 2 13q7 18 42.5 43.5t68.5 35.5l84 -124q108 70 228 70q131 0 217 -93l149 125q6 6 16 0q8 -4 16.5 -14t15.5 -23.5t12.5 -30t7.5 -32.5l-154 -126q35 -94 23 -188q-4 -56 -23 -112t-44 -98.5t-55 -78.5 l86 -131q4 -8 0 -14q-7 -18 -42.5 -44.5t-66.5 -34.5l-86 124q-115 -79 -239 -79q-135 0 -222 91l-131 -113q-5 -6 -16 0q-15 5 -31.5 36t-20.5 63zM393 669q-10 -90 8 -164t58.5 -115.5t94.5 -41.5q31 0 62 14.5t57.5 39.5t49.5 60t40.5 76t29.5 87.5t16 93.5 q10 90 -7 164.5t-56 117.5t-93 43q-62 0 -119.5 -54t-94.5 -140t-46 -181z" />
<glyph unicode="&#xa5;" horiz-adv-x="1387" d="M209 1402q4 28 14 38q172 -14 271 -14q111 0 274 14q4 -12 -1 -39t-15 -34q-10 0 -23.5 -1t-32 -5.5t-34 -11t-28 -18.5t-15.5 -27q-1 -2 -1.5 -5t-0.5 -5.5t0.5 -5.5t1.5 -5.5t2 -6t2 -6.5l2.5 -7.5t2.5 -8.5l160 -501q51 63 175 241t189 278q12 18 16 41q2 13 -18 25.5 t-52.5 19.5t-67.5 7q-5 9 -0.5 36.5t11.5 35.5q21 -1 56 -4.5t53 -5t47 -2.5t59 -1q57 0 134.5 6t93.5 7q4 -7 -2.5 -36t-13.5 -36q-128 0 -178 -68q-22 -25 -231.5 -313t-238.5 -333q-11 -16 -20 -54l-3 -12h210q7 0 7 -15q0 -18 -7 -40t-22 -37h-206l-20 -97h212 q7 0 7 -16q0 -18 -7 -40t-22 -37h-208l-5 -18q-29 -133 -20 -186q3 -17 48 -26.5t78 -9.5q6 -10 1.5 -36t-14.5 -36q-158 14 -262 14q-102 0 -265 -14q-6 10 0 36t16 36q33 0 82 9.5t58 26.5q8 14 15.5 36t11 39t11.5 54.5t12 56.5l4 18h-192q-9 0 -9 18q0 16 9.5 38.5 t22.5 36.5h188l18 97h-192q-9 0 -9 15q0 17 9 40.5t22 36.5h188l2 14q3 19 -5 52q-6 26 -47.5 158t-80.5 252l-39 119q-16 50 -30.5 77.5t-39.5 57.5q-11 18 -35 30.5t-44.5 17t-35.5 4.5q-7 7 -3 35z" />
<glyph unicode="&#xa6;" horiz-adv-x="470" d="M9 -260q88 446 163 830q29 29 83 29q15 0 26.5 -5.5t9.5 -14.5l-160 -830q-15 -13 -42 -21t-51 -8q-13 0 -22 6.5t-7 13.5zM230 877q89 448 161 832q27 27 86 27q37 0 33 -18l-160 -832q-15 -13 -41 -21t-49 -8q-13 0 -22.5 6.5t-7.5 13.5z" />
<glyph unicode="&#xa7;" horiz-adv-x="942" d="M48 -108q7 33 35.5 61.5t61.5 28.5q14 0 26.5 -5t17.5 -8.5t17.5 -15t13.5 -12.5q20 -20 67 -20q37 0 75.5 12t73 41t41.5 69q22 113 -190 373q-26 34 -41.5 53.5t-39 54.5t-36.5 60t-27 62t-19 70t-5 73.5t8 82.5q6 34 24 73t43 77.5t56 79t63.5 76t65 68.5t61 58 t51.5 43q-98 -91 -129 -197q-33 -40 -51.5 -76t-29.5 -89q-8 -39 -8 -77.5t5.5 -72t17.5 -68t26 -62.5t33.5 -58.5t37 -54t39.5 -50.5q9 -11 25.5 -30t27.5 -32.5t27 -33t27 -35t23.5 -36.5t21 -39t16 -40t10.5 -42.5t3 -44t-5 -46.5q-4 -23 -9 -34q-12 -18 -40 -50 q-55 -45 -82 -86q-8 -11 -11.5 -22t-5.5 -24.5t-5 -23.5q1 1 3 2.5t4 2.5q-65 -56 -148 -88t-173 -32q-45 0 -91 25q-7 29 -2 59zM350.5 1074.5q0.5 23.5 4.5 46.5q5 18 7 29q2 3 19 21.5t26 30.5q55 48 82 88q8 11 11.5 22t5.5 25t5 24l-20 -14q67 60 152.5 94.5 t179.5 34.5q43 0 93 -25q7 -23 0 -63q-8 -33 -34.5 -59.5t-60.5 -26.5q-14 0 -26.5 4t-18 8t-17 13t-13.5 11q-29 25 -70 25q-36 0 -74 -12t-72 -41t-41 -69q-22 -113 189 -373q26 -32 43 -54t39 -54.5t35.5 -59.5t27 -62.5t18.5 -69.5t4.5 -74.5t-8.5 -82.5 q-11 -59 -58 -136t-106.5 -144.5t-116 -122t-94.5 -80.5q104 89 137 201q34 41 53.5 78t30.5 91q7 35 8 68.5t-3 64.5t-11.5 60t-20 57t-25.5 52.5t-30 50.5t-32.5 46.5t-34.5 43.5q-10 12 -25.5 30.5t-27.5 32.5t-27.5 33.5t-27 35t-24.5 36.5t-21.5 39t-16 40t-11 42.5 t-3 44z" />
<glyph unicode="&#xa8;" horiz-adv-x="781" d="M177 1168q5 57 45.5 97.5t94.5 40.5q45 0 72.5 -35.5t22.5 -84.5q-5 -57 -46 -99.5t-94 -42.5q-47 0 -73.5 37t-21.5 87zM581 1168q5 57 46 97.5t94 40.5q45 0 73 -35.5t22 -84.5q-5 -56 -47 -99t-95 -43q-46 0 -72 37t-21 87z" />
<glyph unicode="&#xa9;" horiz-adv-x="1376" d="M156 737q16 126 75.5 240t146 196.5t198.5 131.5t228.5 49t217 -49t168 -131.5t99 -197t15.5 -240t-75.5 -239.5t-147 -196t-199.5 -130.5t-228.5 -48.5t-217 48.5t-167 130.5t-98 196t-15.5 240zM240 595.5q9 -68.5 33.5 -126.5t64 -106.5t89 -82.5t111.5 -53t129 -19 q101 0 197.5 41.5t171 112t125.5 169t64 206.5t-14 206.5t-84.5 169.5t-144 113t-187 42t-196.5 -42t-170.5 -113t-125 -169.5t-63.5 -206.5q-9 -73 0 -141.5zM430 723q11 93 62 171t127 122t159 44q42 0 99.5 -11t103.5 -27q0 -2 7 -69t7 -72q0 -4 -6.5 -8.5t-15 -7 t-15 -2.5t-11.5 5q-2 12 -5.5 25t-15.5 32t-28.5 33t-46.5 24t-69 10q-42 0 -80.5 -21.5t-66 -56.5t-46 -80t-24.5 -93q-15 -119 34.5 -196t132.5 -77q85 0 136 43q15 14 28.5 36.5t21.5 40t9 18.5q8 0 22.5 -3t17.5 -6q0 -10 -23.5 -73.5t-32.5 -66.5q-30 -12 -50.5 -19.5 t-50 -16t-59 -12.5t-59.5 -4q-132 0 -205.5 88.5t-56.5 229.5z" />
<glyph unicode="&#xaa;" horiz-adv-x="879" d="M129 746q0 66 23 132.5t61.5 121.5t89.5 103.5t106.5 81.5t113.5 52.5t110 19.5q84 0 153 -25l-101 -468q0 -4 -3.5 -25t-3.5 -25q0 -36 20 -36q13 0 33.5 13.5t39 30.5t32 31t15.5 18q5 -3 9.5 -11t7 -18t1.5 -17q-12 -22 -52.5 -60t-96 -71.5t-95.5 -33.5q-36 0 -60 22 t-24 64q0 25 7 59l9 36q-9 -15 -24 -33t-34 -38.5t-42 -39.5t-47.5 -35t-50.5 -25.5t-50 -9.5q-70 0 -108.5 51t-38.5 135zM296 805q0 -132 75 -132q34 0 77 50.5t78.5 126.5t52.5 151l33 152q-9 9 -30.5 15.5t-39.5 6.5q-59 0 -116.5 -54.5t-93.5 -141t-36 -174.5z" />
<glyph unicode="&#xab;" horiz-adv-x="1089" d="M59 554q0 25 27 43q79 45 150 90.5t128.5 87.5t93.5 69.5t81.5 65t57.5 46.5q6 -2 14 -6t17.5 -13t11.5 -19q-8 -14 -164 -166t-200 -192q23 -30 121.5 -185t101.5 -167q-9 -15 -26 -27t-30 -16q-47 61 -146.5 162.5t-221.5 192.5q-16 16 -16 34zM459 554q0 25 27 43 q58 33 111.5 66t98 63.5t81.5 57t71.5 53.5t58 46t50 40.5t40.5 32.5q10 -3 25 -13.5t18 -24.5q-6 -10 -87.5 -91t-167 -163t-109.5 -104q23 -30 121.5 -185t101.5 -167q-6 -11 -17.5 -20.5t-21 -14.5t-17.5 -8q-47 61 -146.5 162.5t-221.5 192.5q-16 16 -16 34z" />
<glyph unicode="&#xac;" horiz-adv-x="1191" d="M122 739q0 25 11.5 48t29.5 33h917l-104 -526q-1 -4 -10 -9t-21.5 -10.5t-27.5 -9t-27 -3.5q-9 0 -17.5 2t-14 6.5t-4.5 9.5l82 434h-805q-3 0 -6 7.5t-3 17.5z" />
<glyph unicode="&#xad;" horiz-adv-x="827" d="M113 477q0 24 16.5 71t33.5 49l515 27q14 0 14 -27q0 -26 -20.5 -77t-36.5 -52l-511 -25q-11 0 -11 34z" />
<glyph unicode="&#xae;" horiz-adv-x="1376" d="M181 868q16 126 75.5 240t146 196.5t198.5 131.5t228.5 49t217 -49t168 -131.5t99 -197t15.5 -240t-75.5 -239.5t-147 -197t-199.5 -131.5t-228.5 -48.5t-217 48.5t-167 131.5t-98 197t-15.5 240zM264.5 868q-13.5 -108 13.5 -206.5t84 -169.5t143 -113t186.5 -42t197 42 t171.5 113t126 169.5t64 206.5q11 87 -4 167.5t-53 145.5t-92.5 114t-127 75.5t-152.5 26.5q-101 0 -197 -42t-170.5 -112.5t-125 -168.5t-64 -206zM458 588q2 12 5 18q7 0 20 2t26 6.5t15 9.5q5 7 7 17t4 31t3 29l45 363q9 64 5 77q-2 8 -22.5 12t-34.5 4q-2 5 0 18t5 16 q38 -2 122 -2q16 0 59 1t70 1q75 0 128 -45t43 -122q-6 -50 -50 -93t-90 -59q52 -99 116 -196q44 -63 101 -68q1 -2 0.5 -8t-1.5 -12t-2 -11l-1 -5q-68 0 -118 4q-55 4 -90 61q-1 3 -25 45t-51 91t-37 70q-7 14 -18 14h-23l-20 -156q-8 -58 -2 -77q1 -8 21.5 -13t32.5 -5 q2 -5 0.5 -18t-5.5 -16q-108 7 -115 7q-14 0 -122 -7q-3 4 -1 16zM674 899h38q51 0 86.5 29.5t42.5 81.5q7 64 -13.5 102t-74.5 38q-41 0 -45 -9q-2 -5 -12 -65z" />
<glyph unicode="&#xaf;" horiz-adv-x="589" d="M34 1272q0 11 6.5 31t13.5 30h502q5 0 8 -6.5t3 -13.5q0 -9 -3 -21.5t-9 -25t-13 -18.5h-497q-5 0 -8 7.5t-3 16.5z" />
<glyph unicode="&#xb0;" horiz-adv-x="619" d="M213 1191q10 105 91 181.5t176 76.5q85 0 136 -62.5t40 -152.5q-10 -104 -90.5 -182t-175.5 -78q-86 0 -136.5 63t-40.5 154zM302 1198q-7 -54 24 -91.5t82 -37.5q58 0 105.5 46t54.5 110q7 54 -24 92.5t-82 38.5q-58 0 -106 -47t-54 -111z" />
<glyph unicode="&#xb1;" horiz-adv-x="1127" d="M7 54q0 47 31 88h884q7 0 7 -18q0 -56 -30 -88h-881q-11 0 -11 18zM136 710q0 47 31 88h382l75 391q1 10 16 17.5t34.5 11.5t33.5 5.5t20 1.5q22 0 18 -18l-79 -409h382q9 0 9 -16q0 -61 -27 -90h-382l-79 -398q-4 -16 -31.5 -26t-57.5 -10q-29 0 -29 18l79 416h-386 q-9 0 -9 18z" />
<glyph unicode="&#xb2;" horiz-adv-x="775" d="M102 610q11 11 50.5 48.5t58.5 55.5t55 53.5t60.5 60t54.5 56t55 58.5q138 155 138 281q0 55 -33.5 89.5t-86.5 34.5q-20 0 -39 -4.5t-35 -13t-29 -17t-25.5 -20.5t-19.5 -19t-16 -18t-10 -12q-7 0 -16.5 13.5t-8.5 24.5q12 20 36 47t60.5 58.5t88.5 52.5t105 21 q94 0 156.5 -56t62.5 -143q0 -36 -13 -73.5t-32 -69.5t-48.5 -67t-55.5 -61t-59 -57q-105 -99 -258 -212h238q25 0 45.5 9.5t37 29t26 34.5t24.5 42q6 9 18 9q6 0 18 -4t14 -7q-67 -138 -122 -260h-486q-3 3 -6 16.5t-3 19.5z" />
<glyph unicode="&#xb3;" horiz-adv-x="736" d="M101 653q3 21 15 42t31 36t38 15q8 0 15 -2t12.5 -4t11.5 -8.5t9 -9t8.5 -11.5t7 -11.5t7 -13.5l6.5 -13q27 -47 90 -47q64 0 117 66t53 165q0 68 -33.5 113t-95.5 45q-45 0 -72 -7q-7 10 -7 18q0 23 4 32q29 4 59.5 13.5t62 27t56 39t40 53t15.5 66.5q0 41 -25 71 t-72 30q-28 0 -57 -14t-46.5 -30.5t-34 -33.5t-18.5 -19q-8 0 -18 14t-7 27q54 73 120.5 115.5t139.5 42.5q22 0 45 -5t46 -17.5t40.5 -30.5t29 -46.5t11.5 -63.5q0 -32 -14 -62.5t-34 -53t-47 -42.5t-48.5 -31.5t-41.5 -20.5q28 -2 59 -14t60.5 -33.5t48.5 -58.5t19 -82 q0 -66 -30.5 -124t-77.5 -97t-104.5 -67.5t-112.5 -41.5t-100 -13q-54 0 -101 12.5t-68 30.5q-14 34 -12 54z" />
<glyph unicode="&#xb4;" horiz-adv-x="479" d="M172 1225q0 9 46 68.5t104.5 128t91.5 101.5q27 27 92 27q45 0 63.5 -17.5t15.5 -36.5q-3 -30 -61 -84.5t-128 -104t-129.5 -86.5t-67.5 -37q-9 0 -18 15.5t-9 25.5z" />
<glyph unicode="&#xb5;" horiz-adv-x="1107" d="M-1 -393q-10 30 3.5 172t39.5 287q5 115 115 501q4 18 12.5 65.5t19 103t15.5 82.5q4 10 7 23.5t9 48.5t11 64q11 14 39 29.5t47 15.5q20 0 64.5 -33t39.5 -53q-13 -92 -108 -334l-27 -75q-29 -134 -17 -232t64 -98q155 0 292 307q11 42 35.5 146.5t48 208t31.5 134.5 q9 8 21 15t25 10.5t24 3.5q43 -3 82 -33t33 -53q-15 -91 -119 -357l-21 -52q-9 -42 -15.5 -77.5t-10.5 -71t-4.5 -63.5t3 -53t11.5 -41.5t22.5 -25.5t34.5 -9q24 0 53.5 13.5t49 29t30.5 27.5q5 0 10.5 -10t7.5 -20q0 -24 -2 -31q-22 -49 -60 -90.5t-82 -66t-84 -24.5 q-35 1 -59 27.5t-34 68.5t-13.5 95t2.5 107q-40 -66 -76 -116t-81 -96.5t-94 -71.5t-99 -25q-19 0 -33.5 6.5t-24 21t-16 27.5t-10.5 36.5t-6 37t-5 38.5q-2 17 -2 25q-1 -11 -13.5 -55t-25.5 -95t-25 -117.5t-12.5 -122.5t12.5 -110q-12 -89 -52 -117q-37 2 -53 10.5 t-30 41.5z" />
<glyph unicode="&#xb6;" horiz-adv-x="1179" d="M149 994q0 79 27 150t71.5 123.5t101 96t117.5 70.5t118.5 41t107.5 14q67 0 175 -3t143 -3q84 0 256 13q6 -10 1 -37t-15 -37q-17 0 -43.5 -4t-55 -13.5t-34.5 -21.5q-25 -44 -52 -190q-51 -292 -140 -764q-27 -134 -82 -252.5t-122 -198.5t-142 -126t-143 -46 q-49 0 -88 15t-56 34q-9 32 -9 55q2 40 23 69.5t54 29.5q49 0 90 -52q1 -1 5.5 -7t6 -7.5t6 -6.5t6.5 -7l6.5 -6.5t7.5 -6t8 -4.5t9 -4t9 -2t11 -1q58 0 90 96t88 382q1 8 2 12.5t2.5 11.5t2.5 13l154 794q27 138 22 169q-5 23 -43 23q-49 0 -101 -57t-87 -150t-35 -187 q0 -113 26.5 -179.5t81.5 -98.5q4 -1 10 -9t6 -11q0 -26 -38.5 -49.5t-86.5 -35.5t-85 -12q-80 0 -146 24t-110 62.5t-74 88.5t-43.5 101t-13.5 101z" />
<glyph unicode="&#xb7;" horiz-adv-x="519" d="M115 567q0 71 53.5 125t118.5 54q32 0 57.5 -15.5t39.5 -42t14 -60.5q0 -68 -52 -126.5t-115 -58.5q-50 0 -83 36t-33 88z" />
<glyph unicode="&#xb8;" horiz-adv-x="641" d="M138 -314q0 24 13 38t25 14q15 0 43 -20.5t54 -20.5q45 0 73.5 25t28.5 66q0 33 -18 51.5t-41 18.5q-21 0 -61 -16q-4 0 -14 9.5t-10 15.5q0 3 11.5 17t37.5 44.5t50 62.5h54l-50 -54h46q39 0 67 -27.5t28 -67.5q0 -77 -73 -138t-178 -61q-19 0 -44.5 7.5t-37.5 15.5 q-4 9 -4 20z" />
<glyph unicode="&#xb9;" horiz-adv-x="587" d="M108 597q2 1 16.5 10.5t29.5 19.5t18 13q2 2 30.5 21.5t34.5 32.5q5 4 32.5 130.5t31.5 147.5q7 33 7.5 41.5t-5.5 21.5q-9 0 -16 119q-3 54 -7 53q4 61 -16 68q-19 0 -47 -12q42 23 96 60t58 44l4 9q183 73 185 68q-9 -23 -18 -65q2 0 -8 -71.5t-21 -144t-11 -74.5 q-29 -93 -39 -158q0 -18 4.5 -123t7.5 -105q-7 -59 0 -79q2 -5 9 -9t14 -6.5t14 -4.5t8 -3q-12 1 -58.5 -13t-59.5 -14q-15 0 -56 0.5t-75.5 0.5t-58.5 -1q-8 2 -49.5 12.5t-54.5 10.5z" />
<glyph unicode="&#xba;" horiz-adv-x="790" d="M138 786q0 80 36.5 164.5t94 150.5t132 108.5t146.5 42.5q106 0 165 -57.5t59 -172.5q0 -80 -37.5 -163.5t-95.5 -148t-133.5 -106t-147.5 -41.5q-103 0 -161 59t-58 164zM310 791q0 -43 7.5 -80t26 -63t45.5 -26q47 0 88.5 40t67 101.5t40 129.5t14.5 129 q0 47 -6.5 83.5t-23.5 62t-42 25.5q-49 0 -91 -39.5t-69 -100.5t-42 -130t-15 -132z" />
<glyph unicode="&#xbb;" horiz-adv-x="1087" d="M47 203q8 14 164 166t200 191q-23 30 -120.5 185.5t-100.5 167.5q9 15 25 27t29 16q46 -59 147 -161t224 -194q13 -13 13 -34q0 -25 -27 -43q-79 -45 -150 -90.5t-127.5 -87t-93.5 -70.5t-80.5 -65t-56.5 -46q-12 3 -27.5 13.5t-18.5 24.5zM447 203q6 10 88.5 91 t168 162.5t110.5 103.5q-15 20 -70 103.5t-104.5 163t-51.5 86.5q9 15 26 27t30 16q47 -61 146.5 -162.5t221.5 -192.5q16 -16 16 -34q0 -25 -27 -43q-97 -56 -189 -117.5t-134.5 -93.5t-112 -89t-72.5 -59q-12 3 -27.5 13.5t-18.5 24.5z" />
<glyph unicode="&#xbc;" horiz-adv-x="1511" d="M108 574q-4 5 0 28.5t9 23.5q21 0 62 7.5t49 19.5q11 23 20 77l84 423q20 102 13 118q-4 8 -11 8q-22 0 -118 -38q-6 3 -9.5 16t-3.5 22q0 8 7 11q52 26 135.5 67.5t139.5 69t73 35.5h4q5 0 8.5 -13t3.5 -25q-32 -61 -55 -181l-90 -468q-14 -68 -14 -117q0 -12 27.5 -20 t50 -10t33.5 -2q3 -2 2.5 -14t-2.5 -20q-1 -3 -1.5 -7t-1 -7t-1.5 -4q-150 7 -224 7q-34 0 -190 -7zM302 9q0 5 5 14l1015 1437q2 0 5.5 -0.5t13 -2t16.5 -4t13 -8t6 -12.5t-2 -9l-1013 -1440h-6t-14 1.5t-18 4t-14.5 7.5t-6.5 12zM741 276l594 614q18 19 45 19q7 0 14 -6.5 t11 -14.5t2 -13l-103 -531h76q12 0 7 -46q0 -18 -18 -54h-86l-45 -239q-41 -10 -90 -10q-28 0 -52.5 4t-22.5 10l45 235h-368q-6 3 -8.5 13.5t-0.5 18.5zM888 344h248l66 329z" />
<glyph unicode="&#xbd;" horiz-adv-x="1622" d="M108 574q-4 5 0 28.5t9 23.5q21 0 62 7.5t49 19.5q11 23 20 77l84 423q20 102 13 118q-4 8 -11 8q-22 0 -118 -38q-6 3 -9.5 16t-3.5 22q0 8 7 11q52 26 135.5 67.5t139.5 69t73 35.5h4q5 0 8.5 -13t3.5 -25q-32 -61 -55 -181l-90 -468q-14 -68 -14 -117q0 -12 27.5 -20 t50 -10t33.5 -2q3 -2 2.5 -14t-2.5 -20q-1 -3 -1.5 -7t-1 -7t-1.5 -4q-150 7 -224 7q-34 0 -190 -7zM302 9q0 5 5 14l1015 1437q2 0 5.5 -0.5t13 -2t16.5 -4t13 -8t6 -12.5t-2 -9l-1013 -1440h-6t-14 1.5t-18 4t-14.5 7.5t-6.5 12zM870 34q235 225 334 334q138 155 138 278 q0 56 -33.5 90.5t-86.5 34.5q-20 0 -39 -4.5t-35 -13t-29 -17t-25.5 -20.5t-19.5 -19.5t-16 -18t-10 -11.5q-7 0 -16.5 14.5t-8.5 25.5q12 20 36 46.5t60.5 57.5t88.5 52t105 21q94 0 156.5 -55t62.5 -142q0 -44 -17.5 -90t-50 -89.5t-64.5 -78t-74 -72.5q-87 -82 -260 -210 h238q24 0 45 9t37.5 28t26.5 34.5t24 41.5q7 11 20 11q4 0 11 -2.5t13.5 -5.5t7.5 -5q-85 -175 -122 -258h-488q-3 3 -6 15.5t-3 18.5z" />
<glyph unicode="&#xbe;" horiz-adv-x="1532" d="M80 653q3 33 28.5 63t54.5 30q8 0 15.5 -2t12.5 -4t11 -8.5t9 -9t8.5 -11.5t7 -11.5t7.5 -13.5t6 -13q27 -47 91 -47q29 0 59.5 17t55 46.5t39.5 73.5t15 94q0 68 -33.5 113t-95.5 45q-45 0 -72 -7q-7 10 -7 18q0 23 5 32q29 4 59 13.5t61.5 27t56 39t40.5 53t16 66.5 q0 41 -25 71t-73 30q-28 0 -56.5 -14t-46.5 -30.5t-34 -33.5t-19 -19q-7 0 -17.5 14t-6.5 27q53 73 119.5 115.5t139.5 42.5q29 0 57.5 -8.5t55 -26.5t43 -51t16.5 -77q0 -39 -19.5 -76t-51.5 -63t-59.5 -43t-54.5 -28q28 -2 59 -14t60.5 -33.5t49 -58.5t19.5 -82 q0 -66 -30.5 -124t-78 -97t-105 -67.5t-112 -41.5t-99.5 -13q-54 0 -101.5 12.5t-68.5 30.5q-14 34 -11 54zM301 9q0 5 5 14l1017 1437q2 0 5.5 -0.5t13 -2t16.5 -4t13 -8t6 -12.5t-2 -9l-1015 -1440h-6t-14 1.5t-18 4t-14.5 7.5t-6.5 12zM762 276l595 614q18 19 45 19 q10 0 19.5 -13t7.5 -21l-104 -531h77q12 0 7 -46q0 -18 -18 -54h-84l-47 -239q-41 -10 -91 -10q-27 0 -51.5 4t-22.5 10l45 235h-369q-6 3 -8.5 13.5t-0.5 18.5zM909 344h249l65 329z" />
<glyph unicode="&#xbf;" horiz-adv-x="761" d="M-59 -160q0 88 31.5 152.5t117.5 125.5q24 18 99 62t118 73q42 28 62 57t20 65q0 43 -28.5 79t-55.5 52q0 9 8.5 22.5t16.5 18.5q17 0 46 -12t62.5 -34.5t63.5 -51t50 -65t20 -72.5q0 -25 -6 -49t-12.5 -40.5t-22 -35.5t-23.5 -28.5t-29 -26t-26.5 -20.5t-27.5 -19 q-35 -25 -122 -76.5t-136 -88.5q-41 -33 -63.5 -66.5t-22.5 -82.5q0 -54 26 -82.5t74 -28.5q28 0 55 17t45.5 37t44.5 37t51 17q31 0 53 -15.5t30.5 -38.5t11 -50.5t-5.5 -51.5q-10 -18 -36.5 -38t-69 -36t-87.5 -16q-65 0 -126.5 27t-106.5 70t-72 99.5t-27 113.5zM375 841 q7 63 56 111.5t107 48.5q52 0 81.5 -39t22.5 -94q-7 -64 -53.5 -109t-104.5 -45q-52 0 -84 36.5t-25 90.5z" />
<glyph unicode="&#xc0;" horiz-adv-x="1358" d="M-133 -9q-3 6 0.5 32t11.5 40q9 0 29 5t42 12.5t43 19t30 22.5q58 71 122 185l644 1115q14 23 46 48.5t47 25.5q16 0 25 -9l203 -1177q9 -46 17 -100.5t8 -55.5q4 -21 18.5 -37t31.5 -25t36.5 -15t32 -7.5t19.5 -1.5q5 -13 0 -41t-11 -36q-19 1 -109 8.5t-144 7.5 q-58 0 -167 -8t-116 -8q-7 8 -0.5 40.5t16.5 36.5q29 0 68.5 9t58.5 25q17 13 20 34q2 12 -2.5 57.5t-13.5 100.5t-18 109t-16 90l-7 36q-4 9 -11 9q-23 1 -53.5 1.5t-54.5 0t-53.5 -1t-44.5 -0.5q-135 0 -221 -5q-3 0 -9.5 -3.5t-6.5 -5.5q-86 -144 -131 -230 q-25 -48 -44.5 -94t-23.5 -64q-4 -20 14 -34.5t45.5 -21t48 -9.5t30.5 -3q5 -9 0.5 -38.5t-11.5 -38.5q-22 2 -64 6.5t-74.5 7t-74.5 2.5q-43 0 -77.5 -2.5t-78 -7t-70.5 -6.5zM448 655q0 -9 5 -9q71 -6 176 -6q76 0 174 6l9 12l-84 486zM552 1835q0 29 35 45t83 16 q20 0 46 -3.5t35 -9.5q36 -21 93.5 -70.5t100.5 -92.5t46 -52q0 -11 -16 -27q-11 0 -57 13.5t-107 35t-119.5 46t-99 52t-40.5 47.5z" />
<glyph unicode="&#xc1;" horiz-adv-x="1358" d="M-133 -9q-3 6 0.5 32t11.5 40q9 0 29 5t42 12.5t43 19t30 22.5q58 71 122 185l644 1115q14 23 46 48.5t47 25.5q16 0 25 -9l203 -1177q9 -46 17 -100.5t8 -55.5q4 -21 18.5 -37t31.5 -25t36.5 -15t32 -7.5t19.5 -1.5q5 -13 0 -41t-11 -36q-19 1 -109 8.5t-144 7.5 q-58 0 -167 -8t-116 -8q-7 8 -0.5 40.5t16.5 36.5q29 0 68.5 9t58.5 25q17 13 20 34q2 12 -2.5 57.5t-13.5 100.5t-18 109t-16 90l-7 36q-4 9 -11 9q-23 1 -53.5 1.5t-54.5 0t-53.5 -1t-44.5 -0.5q-135 0 -221 -5q-3 0 -9.5 -3.5t-6.5 -5.5q-86 -144 -131 -230 q-25 -48 -44.5 -94t-23.5 -64q-4 -20 14 -34.5t45.5 -21t48 -9.5t30.5 -3q5 -9 0.5 -38.5t-11.5 -38.5q-22 2 -64 6.5t-74.5 7t-74.5 2.5q-43 0 -77.5 -2.5t-78 -7t-70.5 -6.5zM448 655q0 -9 5 -9q71 -6 176 -6q76 0 174 6l9 12l-84 486zM796 1668q4 15 95.5 99t144.5 116 q9 6 35 9.5t46 3.5q31 0 57 -6.5t43.5 -20.5t17.5 -34q0 -25 -60.5 -60t-137.5 -63.5t-142.5 -49t-80.5 -21.5q-18 18 -18 27z" />
<glyph unicode="&#xc2;" horiz-adv-x="1358" d="M-133 -9q-3 6 0.5 32t11.5 40q9 0 29 5t42 12.5t43 19t30 22.5q58 71 122 185l644 1115q14 23 46 48.5t47 25.5q16 0 25 -9l203 -1177q9 -46 17 -100.5t8 -55.5q4 -21 18.5 -37t31.5 -25t36.5 -15t32 -7.5t19.5 -1.5q5 -13 0 -41t-11 -36q-19 1 -109 8.5t-144 7.5 q-58 0 -167 -8t-116 -8q-7 8 -0.5 40.5t16.5 36.5q29 0 68.5 9t58.5 25q17 13 20 34q2 12 -2.5 57.5t-13.5 100.5t-18 109t-16 90l-7 36q-4 9 -11 9q-23 1 -53.5 1.5t-54.5 0t-53.5 -1t-44.5 -0.5q-135 0 -221 -5q-3 0 -9.5 -3.5t-6.5 -5.5q-86 -144 -131 -230 q-25 -48 -44.5 -94t-23.5 -64q-4 -20 14 -34.5t45.5 -21t48 -9.5t30.5 -3q5 -9 0.5 -38.5t-11.5 -38.5q-22 2 -64 6.5t-74.5 7t-74.5 2.5q-43 0 -77.5 -2.5t-78 -7t-70.5 -6.5zM448 655q0 -9 5 -9q71 -6 176 -6q76 0 174 6l9 12l-84 486zM615 1672q208 162 306 254 q21 18 31 18q14 0 25 -18q66 -103 194 -254q-3 -22 -29 -27q-202 118 -224 134q-17 -10 -68 -34.5t-126.5 -59t-87.5 -40.5q-9 2 -15.5 10t-5.5 17z" />
<glyph unicode="&#xc3;" horiz-adv-x="1358" d="M-133 -9q-3 6 0.5 32t11.5 40q9 0 29 5t42 12.5t43 19t30 22.5q58 71 122 185l644 1115q14 23 46 48.5t47 25.5q16 0 25 -9l203 -1177q9 -46 17 -100.5t8 -55.5q4 -21 18.5 -37t31.5 -25t36.5 -15t32 -7.5t19.5 -1.5q5 -13 0 -41t-11 -36q-19 1 -109 8.5t-144 7.5 q-58 0 -167 -8t-116 -8q-7 8 -0.5 40.5t16.5 36.5q29 0 68.5 9t58.5 25q17 13 20 34q2 12 -2.5 57.5t-13.5 100.5t-18 109t-16 90l-7 36q-4 9 -11 9q-23 1 -53.5 1.5t-54.5 0t-53.5 -1t-44.5 -0.5q-135 0 -221 -5q-3 0 -9.5 -3.5t-6.5 -5.5q-86 -144 -131 -230 q-25 -48 -44.5 -94t-23.5 -64q-4 -20 14 -34.5t45.5 -21t48 -9.5t30.5 -3q5 -9 0.5 -38.5t-11.5 -38.5q-22 2 -64 6.5t-74.5 7t-74.5 2.5q-43 0 -77.5 -2.5t-78 -7t-70.5 -6.5zM448 655q0 -9 5 -9q71 -6 176 -6q76 0 174 6l9 12l-84 486zM584 1668q0 43 43 90q42 43 83.5 60 t94.5 17q30 0 50.5 -2t43 -9t46.5 -21q7 -3 21 -11t22 -12l21 -10.5t23.5 -10t24 -7.5t27.5 -5.5t29 -1.5q26 0 52.5 11t46.5 28t31 28.5t19 22.5q18 -6 18 -27q0 -38 -43 -86q-44 -44 -85.5 -62.5t-93.5 -18.5q-40 0 -71.5 8t-68.5 28t-52 27.5t-48 17t-67 9.5 q-22 0 -44 -8t-38 -18.5t-31 -24.5t-22.5 -22.5t-13.5 -16.5q-18 6 -18 27z" />
<glyph unicode="&#xc4;" horiz-adv-x="1358" d="M-133 -9q-3 6 0.5 32t11.5 40q9 0 29 5t42 12.5t43 19t30 22.5q58 71 122 185l644 1115q14 23 46 48.5t47 25.5q16 0 25 -9l203 -1177q9 -46 17 -100.5t8 -55.5q4 -21 18.5 -37t31.5 -25t36.5 -15t32 -7.5t19.5 -1.5q5 -13 0 -41t-11 -36q-19 1 -109 8.5t-144 7.5 q-58 0 -167 -8t-116 -8q-7 8 -0.5 40.5t16.5 36.5q29 0 68.5 9t58.5 25q17 13 20 34q2 12 -2.5 57.5t-13.5 100.5t-18 109t-16 90l-7 36q-4 9 -11 9q-23 1 -53.5 1.5t-54.5 0t-53.5 -1t-44.5 -0.5q-135 0 -221 -5q-3 0 -9.5 -3.5t-6.5 -5.5q-86 -144 -131 -230 q-25 -48 -44.5 -94t-23.5 -64q-4 -20 14 -34.5t45.5 -21t48 -9.5t30.5 -3q5 -9 0.5 -38.5t-11.5 -38.5q-22 2 -64 6.5t-74.5 7t-74.5 2.5q-43 0 -77.5 -2.5t-78 -7t-70.5 -6.5zM448 655q0 -9 5 -9q71 -6 176 -6q76 0 174 6l9 12l-84 486zM595 1779q10 54 54 92.5t95 38.5 t80.5 -38.5t19.5 -92.5q-11 -55 -55 -96.5t-94 -41.5q-35 0 -60 19t-36 51t-4 68zM1027 1779q10 54 54 92.5t95 38.5t80.5 -38.5t18.5 -92.5q-10 -55 -54 -96.5t-95 -41.5q-34 0 -59.5 19t-36 51t-3.5 68z" />
<glyph unicode="&#xc5;" horiz-adv-x="1358" d="M-133 -9q-3 6 0.5 32t11.5 40q9 0 29 5t42 12.5t43 19t30 22.5q58 71 122 185l644 1115q14 23 46 48.5t47 25.5q16 0 25 -9l203 -1177q9 -46 17 -100.5t8 -55.5q4 -21 18.5 -37t31.5 -25t36.5 -15t32 -7.5t19.5 -1.5q5 -13 0 -41t-11 -36q-19 1 -109 8.5t-144 7.5 q-58 0 -167 -8t-116 -8q-7 8 -0.5 40.5t16.5 36.5q29 0 68.5 9t58.5 25q17 13 20 34q2 12 -2.5 57.5t-13.5 100.5t-18 109t-16 90l-7 36q-4 9 -11 9q-23 1 -53.5 1.5t-54.5 0t-53.5 -1t-44.5 -0.5q-135 0 -221 -5q-3 0 -9.5 -3.5t-6.5 -5.5q-86 -144 -131 -230 q-25 -48 -44.5 -94t-23.5 -64q-4 -20 14 -34.5t45.5 -21t48 -9.5t30.5 -3q5 -9 0.5 -38.5t-11.5 -38.5q-22 2 -64 6.5t-74.5 7t-74.5 2.5q-43 0 -77.5 -2.5t-78 -7t-70.5 -6.5zM448 655q0 -9 5 -9q71 -6 176 -6q76 0 174 6l9 12l-84 486zM728 1706q17 88 87.5 149t152.5 61 q81 0 126 -61t28 -149t-86.5 -151t-151 -63t-127.5 63t-29 151zM812 1706q-10 -51 16.5 -87.5t73.5 -36.5t86.5 36.5t49.5 87.5q6 26 1 48t-16.5 38.5t-30.5 26t-42 9.5q-47 0 -87.5 -35.5t-50.5 -86.5z" />
<glyph unicode="&#xc6;" horiz-adv-x="1869" d="M-142 24.5q0 29.5 9 38.5q23 0 76.5 19t74.5 40q68 71 147 185l710 1022q4 4 9.5 15.5t5.5 20.5q0 17 -19.5 31t-43.5 14q-5 8 -2 37t9 40q45 -4 262 -4q67 0 328.5 9t354.5 9q0 -39 -0.5 -105.5t-0.5 -118t1 -95.5q-12 -11 -43 -11q-11 0 -20.5 5t-9.5 13 q-28 208 -194 208h-154q-34 0 -51.5 -0.5t-41.5 -3t-37 -8.5t-17 -15q-3 -10 -6 -20.5t-5 -22.5t-4 -23t-4 -26.5t-3 -26.5t-3.5 -30.5t-3.5 -31.5l-36 -391q0 -18 79 -18h93q43 0 67.5 1t48.5 8t35.5 15t26 29.5t24 42t26.5 62.5q6 16 29 16q30 0 36 -9 q-12 -49 -29.5 -206.5t-22.5 -227.5q-9 -9 -33 -9q-30 0 -30 16q-3 41 -8.5 69t-13.5 42t-13 19.5t-15 11.5q-26 16 -189 16q-122 0 -125 -27l-31 -315q0 -1 -4.5 -47t-7 -84.5t-0.5 -62.5q7 -43 136 -43h86q146 0 228 57q67 51 147 221q7 14 32 14q15 0 33 -4.5t21 -9.5 q-118 -244 -158 -382q-60 0 -304 3.5t-374 3.5q-49 0 -102.5 -1t-89 -2.5t-63 -2.5t-30.5 -1q-5 10 -1 41.5t12 37.5q30 0 86.5 12.5t65.5 28.5q17 29 27 87t20 157q2 22 12.5 132.5t12.5 132.5q0 5 -3 9t-8 4q-34 2 -168 2q-106 0 -174 -2q-6 0 -15 -9q-204 -294 -226 -325 q-91 -133 -95 -170q-4 -16 13 -30t41.5 -21.5t45 -12t28.5 -4.5q4 -6 2 -36t-8 -36q-18 2 -54.5 5.5t-57.5 5t-55 3.5t-66 2q-44 0 -77.5 -2.5t-76.5 -7t-70 -6.5q-4 4 -4 33.5zM599 755q0 -9 4 -9q41 -5 131 -5q100 0 154 5q1 0 4 3.5t5 6.5l2 3q52 482 52 500z" />
<glyph unicode="&#xc7;" horiz-adv-x="1457" d="M124 610q0 138 37 263.5t101 223t150.5 176.5t187 130.5t209 78.5t217.5 25q144 -2 402 -63q-3 -76 -27 -328q-1 -7 -6.5 -13t-13.5 -8.5t-16 -2.5q-27 0 -36 13q1 42 -11.5 85t-40 84t-66.5 73.5t-96 52t-123 19.5q-121 0 -230 -57t-190 -159.5t-128.5 -253 t-47.5 -327.5q0 -63 9 -124.5t28.5 -124.5t53.5 -116t79 -95t109 -66t141 -24q84 0 159 29t132 78q42 34 83.5 87.5t64 91.5t35.5 67q22 0 41 -7.5t25 -15.5q-6 -32 -71.5 -171t-86.5 -154q-94 -51 -197 -73t-248 -22q-118 0 -220 34.5t-176 95t-127 140t-79.5 171 t-26.5 187.5zM540 -303q0 25 13 38.5t26 13.5q15 0 42.5 -20.5t54.5 -20.5q44 0 74 25.5t30 65.5q0 33 -19 51.5t-42 18.5q-22 0 -61 -16q-4 0 -14.5 9.5t-10.5 15.5q0 4 11 17.5t37 44t49 62.5h54l-47 -54h43q40 0 69.5 -27.5t29.5 -67.5q0 -77 -74 -138t-179 -61 q-19 0 -44.5 7.5t-36.5 15.5q-5 9 -5 20z" />
<glyph unicode="&#xc8;" horiz-adv-x="1276" d="M-9.5 30.5q4.5 27.5 14.5 37.5q35 0 87.5 9t61.5 27q4 7 7.5 14.5t6.5 17t5.5 17.5t5.5 20.5t5 20.5t5 23.5t4.5 24t5 26t5.5 26.5l174 899q6 30 8 41t6 35t5.5 35.5t3.5 28.5t1.5 28.5t-1.5 21.5q-3 18 -51.5 27t-82.5 9q-5 11 0.5 38t15.5 37q226 -11 273 -11 q67 0 329 9t354 9q-3 -51 -3 -105.5t1.5 -118.5t1.5 -97q-11 -12 -48 -12q-27 0 -27 16q-11 115 -57.5 166t-136.5 51h-179q-113 0 -128 -25q-7 -11 -12.5 -29t-8.5 -32.5t-8.5 -43.5t-9.5 -44l-81 -409q-2 -9 24.5 -14.5t63.5 -5.5h111q32 0 54 0.5t43 5t33.5 8t26.5 14.5 t22 19.5t19.5 28.5t19 36.5t21.5 47.5q8 18 32 18q25 0 34 -13l-82 -430q-9 -9 -38 -9q-27 0 -27 18q-2 56 -8.5 87.5t-12.5 41t-17 16.5q-27 16 -188 16q-153 0 -158 -25l-75 -389q-28 -138 -18 -167q10 -19 42.5 -25.5t93.5 -6.5h119q64 0 132 16.5t113 47.5 q82 60 165 221q6 14 33 14q16 0 33.5 -4.5t21.5 -9.5q-13 -25 -49.5 -94t-57 -108.5t-45 -92t-36.5 -87.5q-54 0 -310.5 2.5t-414.5 2.5q-53 0 -109 -1.5t-99 -2.5t-64 -1q-5 10 -0.5 37.5zM541 1835q0 29 34.5 45t82.5 16q20 0 46 -3.5t35 -9.5q28 -16 69.5 -50t78 -68 t63.5 -62t29 -35q0 -11 -16 -27q-15 1 -80.5 21.5t-143 49t-138 63.5t-60.5 60z" />
<glyph unicode="&#xc9;" horiz-adv-x="1276" d="M-9.5 30.5q4.5 27.5 14.5 37.5q35 0 87.5 9t61.5 27q4 7 7.5 14.5t6.5 17t5.5 17.5t5.5 20.5t5 20.5t5 23.5t4.5 24t5 26t5.5 26.5l174 899q6 30 8 41t6 35t5.5 35.5t3.5 28.5t1.5 28.5t-1.5 21.5q-3 18 -51.5 27t-82.5 9q-5 11 0.5 38t15.5 37q226 -11 273 -11 q67 0 329 9t354 9q-3 -51 -3 -105.5t1.5 -118.5t1.5 -97q-11 -12 -48 -12q-27 0 -27 16q-11 115 -57.5 166t-136.5 51h-179q-113 0 -128 -25q-7 -11 -12.5 -29t-8.5 -32.5t-8.5 -43.5t-9.5 -44l-81 -409q-2 -9 24.5 -14.5t63.5 -5.5h111q32 0 54 0.5t43 5t33.5 8t26.5 14.5 t22 19.5t19.5 28.5t19 36.5t21.5 47.5q8 18 32 18q25 0 34 -13l-82 -430q-9 -9 -38 -9q-27 0 -27 18q-2 56 -8.5 87.5t-12.5 41t-17 16.5q-27 16 -188 16q-153 0 -158 -25l-75 -389q-28 -138 -18 -167q10 -19 42.5 -25.5t93.5 -6.5h119q64 0 132 16.5t113 47.5 q82 60 165 221q6 14 33 14q16 0 33.5 -4.5t21.5 -9.5q-13 -25 -49.5 -94t-57 -108.5t-45 -92t-36.5 -87.5q-54 0 -310.5 2.5t-414.5 2.5q-53 0 -109 -1.5t-99 -2.5t-64 -1q-5 10 -0.5 37.5zM658 1668q4 15 95 99t145 116q9 6 35 9.5t46 3.5q31 0 57 -6.5t43.5 -20.5 t17.5 -34q0 -25 -61 -60t-137.5 -63.5t-142 -49t-80.5 -21.5q-18 18 -18 27z" />
<glyph unicode="&#xca;" horiz-adv-x="1276" d="M-9.5 30.5q4.5 27.5 14.5 37.5q35 0 87.5 9t61.5 27q4 7 7.5 14.5t6.5 17t5.5 17.5t5.5 20.5t5 20.5t5 23.5t4.5 24t5 26t5.5 26.5l174 899q6 30 8 41t6 35t5.5 35.5t3.5 28.5t1.5 28.5t-1.5 21.5q-3 18 -51.5 27t-82.5 9q-5 11 0.5 38t15.5 37q226 -11 273 -11 q67 0 329 9t354 9q-3 -51 -3 -105.5t1.5 -118.5t1.5 -97q-11 -12 -48 -12q-27 0 -27 16q-11 115 -57.5 166t-136.5 51h-179q-113 0 -128 -25q-7 -11 -12.5 -29t-8.5 -32.5t-8.5 -43.5t-9.5 -44l-81 -409q-2 -9 24.5 -14.5t63.5 -5.5h111q32 0 54 0.5t43 5t33.5 8t26.5 14.5 t22 19.5t19.5 28.5t19 36.5t21.5 47.5q8 18 32 18q25 0 34 -13l-82 -430q-9 -9 -38 -9q-27 0 -27 18q-2 56 -8.5 87.5t-12.5 41t-17 16.5q-27 16 -188 16q-153 0 -158 -25l-75 -389q-28 -138 -18 -167q10 -19 42.5 -25.5t93.5 -6.5h119q64 0 132 16.5t113 47.5 q82 60 165 221q6 14 33 14q16 0 33.5 -4.5t21.5 -9.5q-13 -25 -49.5 -94t-57 -108.5t-45 -92t-36.5 -87.5q-54 0 -310.5 2.5t-414.5 2.5q-53 0 -109 -1.5t-99 -2.5t-64 -1q-5 10 -0.5 37.5zM536 1672q207 162 305 254q22 18 32 18q14 0 25 -18q66 -103 194 -254 q-3 -22 -29 -27q-202 118 -224 134q-17 -10 -68 -34.5t-126.5 -59t-88.5 -40.5q-9 2 -15.5 10t-4.5 17z" />
<glyph unicode="&#xcb;" horiz-adv-x="1276" d="M-9.5 30.5q4.5 27.5 14.5 37.5q35 0 87.5 9t61.5 27q4 7 7.5 14.5t6.5 17t5.5 17.5t5.5 20.5t5 20.5t5 23.5t4.5 24t5 26t5.5 26.5l174 899q6 30 8 41t6 35t5.5 35.5t3.5 28.5t1.5 28.5t-1.5 21.5q-3 18 -51.5 27t-82.5 9q-5 11 0.5 38t15.5 37q226 -11 273 -11 q67 0 329 9t354 9q-3 -51 -3 -105.5t1.5 -118.5t1.5 -97q-11 -12 -48 -12q-27 0 -27 16q-11 115 -57.5 166t-136.5 51h-179q-113 0 -128 -25q-7 -11 -12.5 -29t-8.5 -32.5t-8.5 -43.5t-9.5 -44l-81 -409q-2 -9 24.5 -14.5t63.5 -5.5h111q32 0 54 0.5t43 5t33.5 8t26.5 14.5 t22 19.5t19.5 28.5t19 36.5t21.5 47.5q8 18 32 18q25 0 34 -13l-82 -430q-9 -9 -38 -9q-27 0 -27 18q-2 56 -8.5 87.5t-12.5 41t-17 16.5q-27 16 -188 16q-153 0 -158 -25l-75 -389q-28 -138 -18 -167q10 -19 42.5 -25.5t93.5 -6.5h119q64 0 132 16.5t113 47.5 q82 60 165 221q6 14 33 14q16 0 33.5 -4.5t21.5 -9.5q-13 -25 -49.5 -94t-57 -108.5t-45 -92t-36.5 -87.5q-54 0 -310.5 2.5t-414.5 2.5q-53 0 -109 -1.5t-99 -2.5t-64 -1q-5 10 -0.5 37.5zM477 1779q10 54 54 92.5t95 38.5t80.5 -38.5t19.5 -92.5q-4 -22 -14 -42.5 t-25 -37.5t-32.5 -30.5t-37.5 -20.5t-40 -7q-52 0 -81 41.5t-19 96.5zM909 1779q10 54 54 92.5t95 38.5t80.5 -38.5t19.5 -92.5q-11 -55 -55 -96.5t-95 -41.5t-80 41.5t-19 96.5z" />
<glyph unicode="&#xcc;" horiz-adv-x="752" d="M-11 -9q-5 10 1 37t15 38q33 0 85.5 10t61.5 28q4 7 8 17t7 18t6.5 22l5.5 22t6 26t5.5 26t5.5 29.5t6 29.5l176 899q6 30 8 41t6 35t5.5 35.5t3.5 28.5t1.5 28.5t-1.5 21.5q-3 18 -52 28.5t-82 10.5q-5 10 0.5 37t15.5 37q167 -13 271 -13q102 0 274 13q6 -10 1 -37 t-15 -37q-32 0 -85 -10.5t-62 -28.5q-23 -42 -52 -190l-174 -899q-6 -30 -8 -41t-6 -35t-5.5 -35.5t-3.5 -28.5t-1.5 -28.5t2.5 -21.5q3 -18 51 -28t80 -10q5 -10 0.5 -37.5t-14.5 -37.5q-163 14 -271 14q-104 0 -276 -14zM337 1835q0 29 35 45t83 16q20 0 46 -3.5t35 -9.5 q53 -32 144.5 -116t95.5 -99q0 -11 -16 -27q-9 0 -43 10t-81.5 25t-99.5 35.5t-96.5 41.5t-73.5 43t-29 39z" />
<glyph unicode="&#xcd;" horiz-adv-x="752" d="M-11 -9q-5 10 1 37t15 38q33 0 85.5 10t61.5 28q4 7 8 17t7 18t6.5 22l5.5 22t6 26t5.5 26t5.5 29.5t6 29.5l176 899q6 30 8 41t6 35t5.5 35.5t3.5 28.5t1.5 28.5t-1.5 21.5q-3 18 -52 28.5t-82 10.5q-5 10 0.5 37t15.5 37q167 -13 271 -13q102 0 274 13q6 -10 1 -37 t-15 -37q-32 0 -85 -10.5t-62 -28.5q-23 -42 -52 -190l-174 -899q-6 -30 -8 -41t-6 -35t-5.5 -35.5t-3.5 -28.5t-1.5 -28.5t2.5 -21.5q3 -18 51 -28t80 -10q5 -10 0.5 -37.5t-14.5 -37.5q-163 14 -271 14q-104 0 -276 -14zM414 1668q2 9 45 52t101 92.5t94 70.5q9 6 35 9.5 t46 3.5q48 0 83 -16t35 -45q0 -25 -61 -60t-137.5 -63.5t-142 -49t-80.5 -21.5q-18 18 -18 27z" />
<glyph unicode="&#xce;" horiz-adv-x="752" d="M-11 -9q-5 10 1 37t15 38q33 0 85.5 10t61.5 28q4 7 8 17t7 18t6.5 22l5.5 22t6 26t5.5 26t5.5 29.5t6 29.5l176 899q6 30 8 41t6 35t5.5 35.5t3.5 28.5t1.5 28.5t-1.5 21.5q-3 18 -52 28.5t-82 10.5q-5 10 0.5 37t15.5 37q167 -13 271 -13q102 0 274 13q6 -10 1 -37 t-15 -37q-32 0 -85 -10.5t-62 -28.5q-23 -42 -52 -190l-174 -899q-6 -30 -8 -41t-6 -35t-5.5 -35.5t-3.5 -28.5t-1.5 -28.5t2.5 -21.5q3 -18 51 -28t80 -10q5 -10 0.5 -37.5t-14.5 -37.5q-163 14 -271 14q-104 0 -276 -14zM310 1672q207 162 305 254q22 18 32 18 q14 0 25 -18q66 -103 194 -254q-3 -22 -29 -27q-202 118 -224 134q-17 -10 -68 -34.5t-126.5 -59t-88.5 -40.5q-9 2 -15.5 10t-4.5 17z" />
<glyph unicode="&#xcf;" horiz-adv-x="752" d="M-11 -9q-5 10 1 37t15 38q33 0 85.5 10t61.5 28q4 7 8 17t7 18t6.5 22l5.5 22t6 26t5.5 26t5.5 29.5t6 29.5l176 899q6 30 8 41t6 35t5.5 35.5t3.5 28.5t1.5 28.5t-1.5 21.5q-3 18 -52 28.5t-82 10.5q-5 10 0.5 37t15.5 37q167 -13 271 -13q102 0 274 13q6 -10 1 -37 t-15 -37q-32 0 -85 -10.5t-62 -28.5q-23 -42 -52 -190l-174 -899q-6 -30 -8 -41t-6 -35t-5.5 -35.5t-3.5 -28.5t-1.5 -28.5t2.5 -21.5q3 -18 51 -28t80 -10q5 -10 0.5 -37.5t-14.5 -37.5q-163 14 -271 14q-104 0 -276 -14zM269 1779q11 54 55 92.5t95 38.5t80 -38.5 t19 -92.5q-7 -36 -29.5 -68t-54.5 -51t-65 -19q-52 0 -81 41.5t-19 96.5zM701 1779q7 35 29.5 65.5t54.5 48t65 17.5q51 0 80.5 -38.5t19.5 -92.5q-11 -55 -55 -96.5t-94 -41.5q-35 0 -60.5 19t-36 51t-3.5 68z" />
<glyph unicode="&#xd0;" horiz-adv-x="1584" d="M-11 -7q-5 10 1 37t15 38q34 0 86 9t61 27q4 7 8 17t7 18t6.5 22l5.5 22t6 26t5.5 26t5.5 29.5t6 29.5l174 899q2 11 5.5 29.5t5.5 29t5 26.5t4.5 26t3 22.5t2 21.5t0.5 18.5t-1 16.5q-3 18 -51.5 27t-82.5 9q-5 10 -0.5 37.5t14.5 37.5q181 -9 273 -9q40 0 148.5 2 t165.5 2q120 0 222 -25t179 -72t133.5 -114t85.5 -150.5t36 -182t-16 -208.5q-33 -172 -111.5 -309t-197 -234t-282 -149t-361.5 -52h-567zM139.5 706q-1.5 10 1.5 17l1.5 11t3 17.5t5.5 15.5t10 15h746q6 0 9.5 -5.5t1.5 -12.5q-10 -50 -23 -68h-748q-6 0 -7.5 10zM423 122 q7 -19 49 -31t93 -12q128 0 234 37t192.5 112.5t147.5 197t93 284.5q33 178 17 309.5t-77.5 217t-157 127.5t-220.5 42q-40 0 -81 -6.5t-50 -20.5q-4 -7 -7.5 -15t-6.5 -18.5t-5.5 -19t-5.5 -22.5t-5 -23t-5.5 -27t-5.5 -27l-181 -933q-28 -140 -18 -172z" />
<glyph unicode="&#xd1;" horiz-adv-x="1636" d="M-31 -9q-3 11 3 37.5t13 37.5q31 0 95 14.5t79 37.5q35 53 61 192q41 224 174 890q15 74 15 113.5t-10 65.5q-8 17 -61.5 31t-81.5 14q-6 10 -1.5 38t12.5 36q22 -1 70 -4.5t83.5 -5t72.5 -1.5q98 0 197 9q26 -78 121 -253t227.5 -409t200.5 -366q2 4 5 18.5t6 31t5 22.5 l120 613q35 184 22 223q-5 21 -63 34.5t-93 13.5q-3 7 1 34t11 40q29 -1 110.5 -8t136 -7t138.5 7t112 8q4 -11 -1 -35t-17 -39q-16 0 -50.5 -4.5t-76 -17t-52.5 -28.5q-14 -22 -32 -86t-31 -131l-163 -843q-29 -155 -54 -316q-9 -9 -47 -9q-9 0 -19.5 6t-20 18t-17.5 28 l-655 1188l-179 -922q-28 -142 -16 -187q5 -15 40 -27.5t69 -18.5t50 -6q5 -17 0 -40t-12 -37q-19 1 -107.5 8.5t-143.5 7.5q-42 0 -81 -3t-83 -7t-82 -6zM661 1668q0 43 43 90q42 43 83.5 60t94.5 17q44 0 74.5 -6t65.5 -26q5 -2 24 -12.5t26.5 -14.5t24.5 -11.5t29 -11 t29 -6t34 -2.5q27 0 53.5 11t46.5 28t31 28.5t19 22.5q18 -6 18 -27q0 -38 -43 -86q-22 -22 -43 -37.5t-43 -25t-44.5 -14t-48.5 -4.5q-41 0 -72 8t-68 28q-3 1 -8 4q-31 17 -48.5 25.5t-48 16.5t-62.5 8q-27 0 -53 -11t-46 -28t-31 -28.5t-19 -22.5q-18 6 -18 27z" />
<glyph unicode="&#xd2;" horiz-adv-x="1597" d="M124 608q0 113 25 220t70 195.5t106 165t134.5 134.5t154 99t166 62t169.5 21q106 0 199 -34.5t161.5 -94.5t117.5 -140t74 -173t25 -191q0 -135 -34 -258t-92.5 -220t-138 -176.5t-172 -131.5t-193.5 -80.5t-202 -28.5q-125 0 -232.5 50.5t-181 136t-115 201 t-41.5 243.5zM393 579q0 -82 10.5 -153.5t36 -138.5t64 -114.5t99 -76t136.5 -28.5q68 0 131 26t114 72.5t95 109.5t76.5 138t55.5 157.5t34.5 168t11.5 169.5q0 75 -10.5 144.5t-35.5 136.5t-63.5 116t-98.5 79t-136 30q-109 0 -206.5 -71t-165.5 -187.5t-108 -268 t-40 -309.5zM640 1835q0 29 34.5 45t82.5 16q20 0 46 -3.5t35 -9.5q36 -21 94 -70.5t101 -92.5t45 -52q0 -11 -16 -27q-15 1 -80.5 21.5t-143 49t-138 63.5t-60.5 60z" />
<glyph unicode="&#xd3;" horiz-adv-x="1597" d="M124 608q0 113 25 220t70 195.5t106 165t134.5 134.5t154 99t166 62t169.5 21q106 0 199 -34.5t161.5 -94.5t117.5 -140t74 -173t25 -191q0 -135 -34 -258t-92.5 -220t-138 -176.5t-172 -131.5t-193.5 -80.5t-202 -28.5q-125 0 -232.5 50.5t-181 136t-115 201 t-41.5 243.5zM393 579q0 -82 10.5 -153.5t36 -138.5t64 -114.5t99 -76t136.5 -28.5q68 0 131 26t114 72.5t95 109.5t76.5 138t55.5 157.5t34.5 168t11.5 169.5q0 75 -10.5 144.5t-35.5 136.5t-63.5 116t-98.5 79t-136 30q-109 0 -206.5 -71t-165.5 -187.5t-108 -268 t-40 -309.5zM888 1668q4 15 95 99t145 116q9 6 35 9.5t46 3.5q31 0 57 -6.5t43.5 -20.5t17.5 -34q0 -25 -61 -60t-137.5 -63.5t-142 -49t-80.5 -21.5q-18 18 -18 27z" />
<glyph unicode="&#xd4;" horiz-adv-x="1597" d="M124 608q0 113 25 220t70 195.5t106 165t134.5 134.5t154 99t166 62t169.5 21q106 0 199 -34.5t161.5 -94.5t117.5 -140t74 -173t25 -191q0 -135 -34 -258t-92.5 -220t-138 -176.5t-172 -131.5t-193.5 -80.5t-202 -28.5q-125 0 -232.5 50.5t-181 136t-115 201 t-41.5 243.5zM393 579q0 -82 10.5 -153.5t36 -138.5t64 -114.5t99 -76t136.5 -28.5q68 0 131 26t114 72.5t95 109.5t76.5 138t55.5 157.5t34.5 168t11.5 169.5q0 75 -10.5 144.5t-35.5 136.5t-63.5 116t-98.5 79t-136 30q-109 0 -206.5 -71t-165.5 -187.5t-108 -268 t-40 -309.5zM687 1672q207 162 305 254q22 18 32 18q14 0 25 -18q66 -103 194 -254q-3 -22 -29 -27q-203 118 -224 134q-17 -10 -68 -34.5t-126.5 -59t-88.5 -40.5q-9 2 -15.5 10t-4.5 17z" />
<glyph unicode="&#xd5;" horiz-adv-x="1597" d="M124 608q0 113 25 220t70 195.5t106 165t134.5 134.5t154 99t166 62t169.5 21q106 0 199 -34.5t161.5 -94.5t117.5 -140t74 -173t25 -191q0 -135 -34 -258t-92.5 -220t-138 -176.5t-172 -131.5t-193.5 -80.5t-202 -28.5q-125 0 -232.5 50.5t-181 136t-115 201 t-41.5 243.5zM393 579q0 -82 10.5 -153.5t36 -138.5t64 -114.5t99 -76t136.5 -28.5q68 0 131 26t114 72.5t95 109.5t76.5 138t55.5 157.5t34.5 168t11.5 169.5q0 75 -10.5 144.5t-35.5 136.5t-63.5 116t-98.5 79t-136 30q-109 0 -206.5 -71t-165.5 -187.5t-108 -268 t-40 -309.5zM651 1668q0 43 43 90q42 43 83.5 60t94.5 17q45 0 75 -6t65 -26q6 -2 24.5 -12.5t26 -14.5t24.5 -11.5t29 -11t29 -6t35 -2.5q26 0 52.5 11t46.5 28t31 28.5t19 22.5q18 -6 18 -27q0 -38 -43 -86q-44 -44 -85.5 -62.5t-93.5 -18.5q-40 0 -71.5 8t-68.5 28 q-36 20 -51.5 27.5t-48.5 17t-67 9.5q-27 0 -53 -11t-46 -28t-31 -28.5t-19 -22.5q-18 6 -18 27z" />
<glyph unicode="&#xd6;" horiz-adv-x="1597" d="M124 608q0 113 25 220t70 195.5t106 165t134.5 134.5t154 99t166 62t169.5 21q106 0 199 -34.5t161.5 -94.5t117.5 -140t74 -173t25 -191q0 -135 -34 -258t-92.5 -220t-138 -176.5t-172 -131.5t-193.5 -80.5t-202 -28.5q-125 0 -232.5 50.5t-181 136t-115 201 t-41.5 243.5zM393 579q0 -82 10.5 -153.5t36 -138.5t64 -114.5t99 -76t136.5 -28.5q68 0 131 26t114 72.5t95 109.5t76.5 138t55.5 157.5t34.5 168t11.5 169.5q0 75 -10.5 144.5t-35.5 136.5t-63.5 116t-98.5 79t-136 30q-109 0 -206.5 -71t-165.5 -187.5t-108 -268 t-40 -309.5zM660 1779q10 54 54 92.5t95 38.5t80.5 -38.5t19.5 -92.5q-11 -55 -55 -96.5t-95 -41.5t-80 41.5t-19 96.5zM1092 1779q10 54 54 92.5t95 38.5t80 -38.5t19 -92.5q-10 -55 -54.5 -96.5t-94.5 -41.5q-34 0 -59.5 19t-36 51t-3.5 68z" />
<glyph unicode="&#xd7;" horiz-adv-x="953" d="M41 249l348 307q6 7 4 4q0 12 -7 19l-223 302q0 22 28.5 50.5t39.5 28.5q2 0 3 -0.5t1.5 -1.5l1.5 -3t3 -4l235 -318q4 -5 9 -5l4 3l357 318q7 7 14 7q11 0 21 -32.5t10 -64.5l-348 -308l-2 -1q-2 -2 -2 -3t2 -3l2 -2l226 -307q0 -15 -10.5 -34t-24 -32t-21.5 -13 q-13 0 -16 7l-233 316q-4 5 -6 5q-5 0 -10 -5l-363 -316q-7 -7 -12 -7q-10 0 -20.5 32.5t-10.5 60.5z" />
<glyph unicode="&#xd8;" horiz-adv-x="1597" d="M124 608q0 113 25 220t70 195.5t106 165t134.5 134.5t154 99t166 62t169.5 21q106 0 199 -34.5t161.5 -94.5t117.5 -140t74 -173t25 -191q0 -135 -34 -258t-92.5 -220t-138 -176.5t-172 -131.5t-193.5 -80.5t-202 -28.5q-125 0 -232.5 50.5t-181 136t-115 201 t-41.5 243.5zM188 25l1166 1485q9 -3 24 -12.5t25 -21.5t5 -18l-1168 -1487q-17 6 -38.5 25.5t-13.5 28.5zM393 579q0 -82 10.5 -153.5t36 -138.5t64 -114.5t99 -76t136.5 -28.5q68 0 131 26t114 72.5t95 109.5t76.5 138t55.5 157.5t34.5 168t11.5 169.5q0 75 -10.5 144.5 t-35.5 136.5t-63.5 116t-98.5 79t-136 30q-109 0 -206.5 -71t-165.5 -187.5t-108 -268t-40 -309.5z" />
<glyph unicode="&#xd9;" horiz-adv-x="1557" d="M284 624l110 569q6 30 8 41t6.5 35t6 35.5t3 28.5t1.5 28.5t-2 21.5q-3 18 -51 28.5t-80 10.5q-5 9 -0.5 36.5t14.5 37.5q162 -13 271 -13q101 0 273 13q7 -10 2 -37t-15 -37q-33 0 -85.5 -10.5t-61.5 -28.5q-23 -42 -52 -190l-93 -486q-17 -87 -23.5 -152t-3 -126.5 t19.5 -112.5q53 -183 276 -183q60 0 116 17t112 56t102.5 98.5t85 150t61.5 205.5l97 497q32 159 16 217q-6 21 -59 35.5t-86 14.5q-3 9 -1.5 23t6 28t9.5 21q19 -1 50 -3.5t49 -4t43 -3t50 -2t52 -0.5q42 0 80 2t81.5 5.5t77.5 5.5q4 -11 0.5 -34.5t-13.5 -37.5 q-35 0 -96 -13t-76 -37q-37 -60 -68 -215l-101 -524q-27 -134 -76.5 -242.5t-115 -183.5t-146.5 -125.5t-169 -74t-185 -23.5q-127 0 -225.5 46.5t-154.5 134.5q-100 159 -40 457zM722 1835q0 29 35 45t83 16q20 0 46 -3.5t35 -9.5q53 -32 144.5 -116t95.5 -99 q0 -11 -16 -27q-11 0 -57 13.5t-107 35t-119.5 46t-99 52t-40.5 47.5z" />
<glyph unicode="&#xda;" horiz-adv-x="1557" d="M284 624l110 569q6 30 8 41t6.5 35t6 35.5t3 28.5t1.5 28.5t-2 21.5q-3 18 -51 28.5t-80 10.5q-5 9 -0.5 36.5t14.5 37.5q162 -13 271 -13q101 0 273 13q7 -10 2 -37t-15 -37q-33 0 -85.5 -10.5t-61.5 -28.5q-23 -42 -52 -190l-93 -486q-17 -87 -23.5 -152t-3 -126.5 t19.5 -112.5q53 -183 276 -183q60 0 116 17t112 56t102.5 98.5t85 150t61.5 205.5l97 497q32 159 16 217q-6 21 -59 35.5t-86 14.5q-3 9 -1.5 23t6 28t9.5 21q19 -1 50 -3.5t49 -4t43 -3t50 -2t52 -0.5q42 0 80 2t81.5 5.5t77.5 5.5q4 -11 0.5 -34.5t-13.5 -37.5 q-35 0 -96 -13t-76 -37q-37 -60 -68 -215l-101 -524q-27 -134 -76.5 -242.5t-115 -183.5t-146.5 -125.5t-169 -74t-185 -23.5q-127 0 -225.5 46.5t-154.5 134.5q-100 159 -40 457zM998 1668q4 15 95 99t144 116q10 6 35.5 9.5t46.5 3.5q48 0 82.5 -16t34.5 -45 q0 -25 -60.5 -60t-137 -63.5t-142 -49t-80.5 -21.5q-18 18 -18 27z" />
<glyph unicode="&#xdb;" horiz-adv-x="1557" d="M284 624l110 569q6 30 8 41t6.5 35t6 35.5t3 28.5t1.5 28.5t-2 21.5q-3 18 -51 28.5t-80 10.5q-5 9 -0.5 36.5t14.5 37.5q162 -13 271 -13q101 0 273 13q7 -10 2 -37t-15 -37q-33 0 -85.5 -10.5t-61.5 -28.5q-23 -42 -52 -190l-93 -486q-17 -87 -23.5 -152t-3 -126.5 t19.5 -112.5q53 -183 276 -183q60 0 116 17t112 56t102.5 98.5t85 150t61.5 205.5l97 497q32 159 16 217q-6 21 -59 35.5t-86 14.5q-3 9 -1.5 23t6 28t9.5 21q19 -1 50 -3.5t49 -4t43 -3t50 -2t52 -0.5q42 0 80 2t81.5 5.5t77.5 5.5q4 -11 0.5 -34.5t-13.5 -37.5 q-35 0 -96 -13t-76 -37q-37 -60 -68 -215l-101 -524q-27 -134 -76.5 -242.5t-115 -183.5t-146.5 -125.5t-169 -74t-185 -23.5q-127 0 -225.5 46.5t-154.5 134.5q-100 159 -40 457zM781 1672q207 162 305 254q22 18 32 18q14 0 25 -18q66 -103 194 -254q-3 -22 -29 -27 q-203 118 -224 134q-17 -10 -68.5 -34.5t-126.5 -59t-88 -40.5q-9 2 -15.5 10t-4.5 17z" />
<glyph unicode="&#xdc;" horiz-adv-x="1557" d="M284 624l110 569q6 30 8 41t6.5 35t6 35.5t3 28.5t1.5 28.5t-2 21.5q-3 18 -51 28.5t-80 10.5q-5 9 -0.5 36.5t14.5 37.5q162 -13 271 -13q101 0 273 13q7 -10 2 -37t-15 -37q-33 0 -85.5 -10.5t-61.5 -28.5q-23 -42 -52 -190l-93 -486q-17 -87 -23.5 -152t-3 -126.5 t19.5 -112.5q53 -183 276 -183q60 0 116 17t112 56t102.5 98.5t85 150t61.5 205.5l97 497q32 159 16 217q-6 21 -59 35.5t-86 14.5q-3 9 -1.5 23t6 28t9.5 21q19 -1 50 -3.5t49 -4t43 -3t50 -2t52 -0.5q42 0 80 2t81.5 5.5t77.5 5.5q4 -11 0.5 -34.5t-13.5 -37.5 q-35 0 -96 -13t-76 -37q-37 -60 -68 -215l-101 -524q-27 -134 -76.5 -242.5t-115 -183.5t-146.5 -125.5t-169 -74t-185 -23.5q-127 0 -225.5 46.5t-154.5 134.5q-100 159 -40 457zM752 1779q10 54 54 92.5t95 38.5t80 -38.5t19 -92.5q-4 -22 -14 -42.5t-24.5 -37.5 t-32.5 -30.5t-38 -20.5t-40 -7q-52 0 -81 41.5t-18 96.5zM1183 1779q10 54 54 92.5t95 38.5t80.5 -38.5t19.5 -92.5q-10 -55 -54.5 -96.5t-94.5 -41.5q-52 0 -81 41.5t-19 96.5z" />
<glyph unicode="&#xdd;" horiz-adv-x="1279" d="M150 1457q6 29 16 39q181 -13 278 -13q113 0 285 13q4 -11 -1 -39.5t-15 -34.5q-14 0 -32 -2.5t-43 -8.5t-43 -20.5t-22 -34.5q-2 -2 -0.5 -11t2.5 -12.5t4.5 -14.5t5.5 -16l167 -520q35 44 112.5 153t149 214.5t115.5 172.5q12 17 16 43q2 13 -18.5 26t-54.5 20.5 t-69 7.5q-5 9 -0.5 38.5t11.5 38.5q20 -1 57 -4.5t55.5 -5t49.5 -2.5t62 -1q44 0 82.5 2t81 6t73.5 5q3 -7 -4 -38.5t-14 -38.5q-129 0 -183 -72q-23 -27 -242 -324.5t-249 -344.5q-4 -7 -8 -15.5t-5 -14t-3.5 -16t-3.5 -13.5l-65 -325q-31 -140 -23 -190q2 -12 30 -21.5 t56 -13t45 -3.5q5 -10 0.5 -37.5t-14.5 -37.5q-162 14 -271 14q-101 0 -273 -14q-7 10 -2 37t15 38q33 0 85.5 10t61.5 28q7 12 12.5 26.5t11 36t9 36t10 45.5t9.5 46l64 330q2 20 -5 54q-4 18 -23 80.5t-44 140t-49.5 152t-40.5 124.5l-17 50q-9 27 -17 46.5t-17 35.5 t-18 29t-23 29q-18 27 -55.5 42t-63.5 15q-7 6 -1 35zM811 1668q3 15 94.5 99t144.5 116q9 6 35 9.5t46 3.5q48 0 83 -16t35 -45q0 -25 -60.5 -60t-137 -63.5t-142.5 -49t-80 -21.5q-18 18 -18 27z" />
<glyph unicode="&#xde;" horiz-adv-x="1200" d="M-11 -9q-5 10 1 37t15 38q33 0 85.5 10t61.5 28q4 7 8 17t7 18t6.5 22l5.5 22t6 26t5.5 26t5.5 29.5t6 29.5l176 899q6 30 8 41t6 35t5.5 35.5t3.5 28.5t1.5 28.5t-1.5 21.5q-3 18 -51.5 27t-82.5 9q-5 11 0.5 38t15.5 37q181 -9 271 -9q102 0 274 13q6 -10 1 -37 t-15 -37q-17 0 -47 -3.5t-62 -13t-38 -22.5q-29 -65 -54 -210q-2 -9 -2 -36q0 -4 6 -4q72 22 181 22q83 0 158.5 -34t129 -92t77.5 -142.5t6 -178.5q-16 -82 -64 -156.5t-116.5 -129.5t-157.5 -88t-182 -33q-42 0 -76.5 15t-49.5 35q-7 10 -7 45q0 16 7 16q33 -18 94.5 -18 t121.5 33t107 98.5t63 150.5q16 75 10 144.5t-27.5 123t-64.5 85t-101 31.5q-80 0 -115 -29q-31 -25 -48 -111l-122 -628q-6 -30 -8 -41t-6 -35t-5.5 -35.5t-3.5 -28.5t-1.5 -28.5t2.5 -21.5q3 -18 51 -28t80 -10q5 -10 0.5 -37.5t-14.5 -37.5q-163 14 -271 14 q-104 0 -276 -14z" />
<glyph unicode="&#xdf;" horiz-adv-x="1141" d="M-307 -405q1 42 21.5 71t52.5 29q50 0 91 -52q1 -2 7.5 -10t9 -11t8.5 -10t10.5 -9.5t11 -6.5t13.5 -5.5t14 -1.5q60 0 93.5 101t91.5 402l3 12l131 748h-170q-4 0 -4 7q0 20 35.5 54t70.5 34h84q21 107 64 205t98 171t117 127t124 81.5t116 27.5q52 0 102.5 -17.5 t93.5 -50t69.5 -85t26.5 -116.5q0 -51 -14.5 -98t-33.5 -79.5t-50.5 -66t-53 -51t-53.5 -41.5t-41 -32q-82 -69 -82 -117q0 -15 6 -32.5t12.5 -31t21.5 -35t23 -32t27.5 -35t25.5 -31.5q6 -8 18 -23q32 -40 48 -60.5t39 -55.5t34 -60.5t19.5 -59.5t8.5 -69q0 -79 -44.5 -146 t-120 -105t-163.5 -38q-63 0 -109 10t-65 20.5t-43 28.5q-25 37 -25 74q2 45 30.5 71t66.5 26q16 0 28.5 -8.5t23 -22.5t20 -31t21 -33.5t24.5 -30.5t32 -23t41 -9q48 0 78.5 34t30.5 88q0 20 -9 45t-21 46.5t-32.5 50.5t-35 47.5t-38 47t-31.5 39.5q-61 75 -89.5 130 t-28.5 125q0 32 8.5 58.5t29 53t38 44.5t52.5 50.5t55 53.5q122 122 122 272q0 32 -9.5 68t-27.5 70t-49 56t-68 22q-83 0 -139 -126.5t-102 -390.5q-19 -102 -68.5 -386t-81.5 -448q-26 -134 -81 -253t-122 -199t-142 -126t-143 -46q-50 0 -88.5 15t-55.5 35q-9 32 -9 56z " />
<glyph unicode="&#xe0;" horiz-adv-x="1059" d="M34 258q0 96 30.5 192.5t81.5 176.5t118.5 150t142 118.5t152 76t146.5 27.5q105 0 208 -36l-140 -694q-1 -4 -3.5 -20t-4 -32.5t-1.5 -22.5q0 -52 27 -52q22 0 62.5 34.5t64.5 61.5t33 40q4 0 9 -6t9 -14.5t7 -17.5t3 -14q-13 -23 -49.5 -62.5t-83.5 -80t-101 -70 t-94 -29.5q-48 0 -78.5 36t-30.5 98q0 18 9 81q2 13 4.5 24t4.5 19t3 13q-19 -34 -53.5 -76.5t-79 -87.5t-99 -75t-100.5 -30q-92 0 -144.5 76t-52.5 196zM260 344q0 -94 25 -143.5t72 -49.5q46 0 102.5 73t103.5 183.5t70 220.5l47 233q-12 14 -39 21.5t-53 7.5 q-80 0 -156.5 -81.5t-124 -209t-47.5 -255.5zM409 1374q0 38 31.5 59.5t63.5 21.5q50 0 77 -22q35 -31 124 -143t93 -128q0 -7 -7.5 -14t-13.5 -9q-20 3 -109 47.5t-174 102t-85 85.5z" />
<glyph unicode="&#xe1;" horiz-adv-x="1059" d="M34 258q0 96 30.5 192.5t81.5 176.5t118.5 150t142 118.5t152 76t146.5 27.5q105 0 208 -36l-140 -694q-1 -4 -3.5 -20t-4 -32.5t-1.5 -22.5q0 -52 27 -52q22 0 62.5 34.5t64.5 61.5t33 40q4 0 9 -6t9 -14.5t7 -17.5t3 -14q-13 -23 -49.5 -62.5t-83.5 -80t-101 -70 t-94 -29.5q-48 0 -78.5 36t-30.5 98q0 18 9 81q2 13 4.5 24t4.5 19t3 13q-19 -34 -53.5 -76.5t-79 -87.5t-99 -75t-100.5 -30q-92 0 -144.5 76t-52.5 196zM260 344q0 -94 25 -143.5t72 -49.5q46 0 102.5 73t103.5 183.5t70 220.5l47 233q-12 14 -39 21.5t-53 7.5 q-80 0 -156.5 -81.5t-124 -209t-47.5 -255.5zM597 1162q3 16 92 128t125 143q26 22 76 22q19 0 40 -8t38 -27.5t17 -45.5q0 -28 -85.5 -85.5t-175 -102t-109.5 -47.5q-4 1 -8 4.5t-7 8.5t-3 10z" />
<glyph unicode="&#xe2;" horiz-adv-x="1059" d="M34 258q0 96 30.5 192.5t81.5 176.5t118.5 150t142 118.5t152 76t146.5 27.5q105 0 208 -36l-140 -694q-1 -4 -3.5 -20t-4 -32.5t-1.5 -22.5q0 -52 27 -52q22 0 62.5 34.5t64.5 61.5t33 40q4 0 9 -6t9 -14.5t7 -17.5t3 -14q-13 -23 -49.5 -62.5t-83.5 -80t-101 -70 t-94 -29.5q-48 0 -78.5 36t-30.5 98q0 18 9 81q2 13 4.5 24t4.5 19t3 13q-19 -34 -53.5 -76.5t-79 -87.5t-99 -75t-100.5 -30q-92 0 -144.5 76t-52.5 196zM260 344q0 -94 25 -143.5t72 -49.5q46 0 102.5 73t103.5 183.5t70 220.5l47 233q-12 14 -39 21.5t-53 7.5 q-80 0 -156.5 -81.5t-124 -209t-47.5 -255.5zM463 1175q130 125 271 283q4 3 8.5 8t7 7.5t5.5 4.5t7 2q11 0 22 -22q58 -111 161 -283q-3 -9 -7 -17.5t-9.5 -14t-10.5 -6.5q-44 35 -107 89t-81 74q-27 -20 -113 -76t-138 -87q-7 2 -13 14t-3 24z" />
<glyph unicode="&#xe3;" horiz-adv-x="1059" d="M34 258q0 96 30.5 192.5t81.5 176.5t118.5 150t142 118.5t152 76t146.5 27.5q105 0 208 -36l-140 -694q-1 -4 -3.5 -20t-4 -32.5t-1.5 -22.5q0 -52 27 -52q22 0 62.5 34.5t64.5 61.5t33 40q4 0 9 -6t9 -14.5t7 -17.5t3 -14q-13 -23 -49.5 -62.5t-83.5 -80t-101 -70 t-94 -29.5q-48 0 -78.5 36t-30.5 98q0 18 9 81q2 13 4.5 24t4.5 19t3 13q-19 -34 -53.5 -76.5t-79 -87.5t-99 -75t-100.5 -30q-92 0 -144.5 76t-52.5 196zM260 344q0 -94 25 -143.5t72 -49.5q46 0 102.5 73t103.5 183.5t70 220.5l47 233q-12 14 -39 21.5t-53 7.5 q-80 0 -156.5 -81.5t-124 -209t-47.5 -255.5zM353 1164q6 47 47 88q79 79 181 79q61 0 129 -34l31.5 -17.5t35.5 -18.5t35.5 -12t46.5 -6q72 0 149 88q16 -5 14 -25q-3 -16 -10.5 -33.5t-17 -31.5t-20.5 -25q-77 -77 -178 -77q-39 0 -66.5 7.5t-60.5 24.5q-9 4 -33 17.5 t-37.5 20t-37 12.5t-46.5 6q-72 0 -149 -88q-16 5 -13 25z" />
<glyph unicode="&#xe4;" horiz-adv-x="1059" d="M34 258q0 96 30.5 192.5t81.5 176.5t118.5 150t142 118.5t152 76t146.5 27.5q105 0 208 -36l-140 -694q-1 -4 -3.5 -20t-4 -32.5t-1.5 -22.5q0 -52 27 -52q22 0 62.5 34.5t64.5 61.5t33 40q4 0 9 -6t9 -14.5t7 -17.5t3 -14q-13 -23 -49.5 -62.5t-83.5 -80t-101 -70 t-94 -29.5q-48 0 -78.5 36t-30.5 98q0 18 9 81q2 13 4.5 24t4.5 19t3 13q-19 -34 -53.5 -76.5t-79 -87.5t-99 -75t-100.5 -30q-92 0 -144.5 76t-52.5 196zM260 344q0 -94 25 -143.5t72 -49.5q46 0 102.5 73t103.5 183.5t70 220.5l47 233q-12 14 -39 21.5t-53 7.5 q-80 0 -156.5 -81.5t-124 -209t-47.5 -255.5zM346 1261q2 28 14.5 53t31 44t43 30t51.5 11q45 0 72.5 -36t22.5 -84q-5 -57 -46 -99.5t-94 -42.5q-47 0 -73.5 37t-21.5 87zM750 1261q5 57 46 97.5t94 40.5q46 0 73.5 -36t21.5 -84q-5 -57 -47 -99.5t-95 -42.5 q-46 0 -72 36.5t-21 87.5z" />
<glyph unicode="&#xe5;" horiz-adv-x="1059" d="M34 258q0 96 30.5 192.5t81.5 176.5t118.5 150t142 118.5t152 76t146.5 27.5q105 0 208 -36l-140 -694q-1 -4 -3.5 -20t-4 -32.5t-1.5 -22.5q0 -52 27 -52q22 0 62.5 34.5t64.5 61.5t33 40q4 0 9 -6t9 -14.5t7 -17.5t3 -14q-13 -23 -49.5 -62.5t-83.5 -80t-101 -70 t-94 -29.5q-48 0 -78.5 36t-30.5 98q0 18 9 81q2 13 4.5 24t4.5 19t3 13q-19 -34 -53.5 -76.5t-79 -87.5t-99 -75t-100.5 -30q-92 0 -144.5 76t-52.5 196zM260 344q0 -94 25 -143.5t72 -49.5q46 0 102.5 73t103.5 183.5t70 220.5l47 233q-12 14 -39 21.5t-53 7.5 q-80 0 -156.5 -81.5t-124 -209t-47.5 -255.5zM452 1354q10 105 91 181t176 76q84 0 135 -62t41 -152q-10 -105 -90.5 -182.5t-176.5 -77.5q-85 0 -135.5 63t-40.5 154zM540 1361q-7 -55 24 -92t82 -37q38 0 73.5 20.5t59 57t28.5 78.5q7 54 -24.5 92.5t-81.5 38.5 q-38 0 -73.5 -21.5t-59 -58t-28.5 -78.5z" />
<glyph unicode="&#xe6;" horiz-adv-x="1315" d="M19 219q4 34 18 68t33.5 60t41.5 45.5t43 30.5q59 24 382 124q3 1 5 2t3.5 3.5t2.5 4t2 6t1.5 6.5t1.5 8.5t2 10.5l16 122q2 18 2 52q0 60 -25.5 105.5t-73.5 45.5q-27 0 -47.5 -11t-37 -35.5t-28.5 -49t-28 -64.5q-41 -102 -119 -102q-36 0 -55 27.5t-15 60.5 q6 43 36 84q12 10 29.5 23t44 30t55 34t63.5 33t69 28.5t71 20t70 7.5q46 0 85 -19t64.5 -50.5t38.5 -72.5q31 31 68 57t77 45t82 29.5t82 10.5q97 0 149 -50.5t52 -125.5q0 -45 -21 -89t-57 -80.5t-82.5 -69.5t-97 -58t-101 -44t-94.5 -30t-78 -14q-7 -27 -7 -76 q0 -45 8 -82t24.5 -68t45.5 -48t69 -17q18 0 38.5 6t38.5 16t37.5 23.5t35 26.5t31 27.5t24.5 24.5t17.5 18.5l8.5 8.5q5 0 10.5 -6.5t9.5 -15.5t6.5 -18.5t2.5 -15.5q-21 -32 -65 -74.5t-97.5 -83.5t-113.5 -69.5t-106 -28.5q-75 0 -139.5 43t-90.5 116q-32 -32 -155 -97.5 t-166 -65.5q-92 0 -148.5 68t-48.5 169zM243 253q-4 -41 8.5 -71.5t35.5 -45t51 -14.5q27 0 69 21.5t72.5 45.5t36.5 35q-2 7 2.5 61.5t11 110t9.5 67.5q-52 -9 -108 -28.5t-86 -36.5q-47 -26 -72.5 -65.5t-29.5 -79.5zM758 515q27 0 65.5 15.5t80 45t77.5 66.5t59 85t23 96 q0 38 -20 63t-54 25q-45 0 -87 -41.5t-70.5 -104.5t-47.5 -128.5t-26 -121.5z" />
<glyph unicode="&#xe7;" horiz-adv-x="833" d="M45 307q0 75 18 151t50.5 143t75.5 128.5t94.5 110t106 84.5t112 55.5t110.5 19.5q99 0 170 -54q27 -41 27 -86q0 -46 -29.5 -83t-72.5 -37q-32 0 -57 18.5t-40 47.5q-1 1 -8.5 13l-10 16t-10 14.5t-12 15t-13 12t-16 10.5t-18 6t-20.5 3q-39 0 -79.5 -43.5t-73 -114 t-53 -167.5t-20.5 -195q0 -47 7 -85.5t23 -72t46.5 -52t72.5 -18.5q15 0 31 4t31 11t30.5 16t29.5 19.5t27.5 21.5t24.5 21.5t21 20.5t16.5 17t11.5 12.5l5 5.5q9 0 19.5 -20t10.5 -32q-11 -16 -35.5 -45t-64.5 -66t-83.5 -69.5t-95.5 -55t-97 -22.5q-55 0 -102.5 21t-83 60 t-56 101t-20.5 139zM77 -310q0 25 13 38.5t25 13.5q15 0 43 -20t54 -20q45 0 73.5 25t28.5 65q0 23 -9 39.5t-22 23.5t-28 7q-21 0 -61 -16q-4 0 -14 9.5t-10 15.5q0 4 11.5 17.5t37.5 44t50 62.5h54l-50 -54h46q25 0 47 -12t35 -34t13 -49q0 -77 -73 -138t-178 -61 q-19 0 -44.5 8t-37.5 15q-4 9 -4 20z" />
<glyph unicode="&#xe8;" horiz-adv-x="856" d="M45 316q0 82 24.5 167t65.5 159.5t97.5 140.5t119 113.5t131 75t132.5 27.5q58 0 102.5 -19.5t70.5 -59.5t26 -95q0 -47 -22.5 -93t-59.5 -84.5t-85 -73t-99.5 -60.5t-102 -45.5t-94 -29.5t-73.5 -10q-5 -13 -5 -63q0 -44 7.5 -81.5t23.5 -69.5t46 -50t70 -18q17 0 35 5 t35 13.5t34 19t32.5 23t29 24.5t25.5 24t20 20.5t14 15l6 6.5q9 0 20.5 -22t11.5 -34q-13 -21 -54 -61.5t-95.5 -84.5t-120 -77t-115.5 -33q-120 0 -186.5 86.5t-66.5 243.5zM285 502q22 0 53.5 12t66 33.5t69 52t62 65t44.5 76.5t17 82q0 37 -22 62.5t-55 25.5 q-38 0 -74 -31.5t-62.5 -79.5t-48.5 -104.5t-34.5 -107t-15.5 -86.5zM319 1374q0 26 17 45.5t38 27.5t40 8q50 0 76 -22q36 -31 125 -143t92 -128q0 -7 -7 -14t-13 -9q-20 3 -109 47.5t-174 102t-85 85.5z" />
<glyph unicode="&#xe9;" horiz-adv-x="856" d="M45 316q0 82 24.5 167t65.5 159.5t97.5 140.5t119 113.5t131 75t132.5 27.5q58 0 102.5 -19.5t70.5 -59.5t26 -95q0 -47 -22.5 -93t-59.5 -84.5t-85 -73t-99.5 -60.5t-102 -45.5t-94 -29.5t-73.5 -10q-5 -13 -5 -63q0 -44 7.5 -81.5t23.5 -69.5t46 -50t70 -18q17 0 35 5 t35 13.5t34 19t32.5 23t29 24.5t25.5 24t20 20.5t14 15l6 6.5q9 0 20.5 -22t11.5 -34q-13 -21 -54 -61.5t-95.5 -84.5t-120 -77t-115.5 -33q-120 0 -186.5 86.5t-66.5 243.5zM285 502q22 0 53.5 12t66 33.5t69 52t62 65t44.5 76.5t17 82q0 37 -22 62.5t-55 25.5 q-38 0 -74 -31.5t-62.5 -79.5t-48.5 -104.5t-34.5 -107t-15.5 -86.5zM560 1162q2 7 29.5 44.5t62.5 82t71.5 87t53.5 57.5q27 22 77 22q19 0 40 -8t38 -27.5t17 -45.5q0 -28 -85.5 -85.5t-175 -102t-109.5 -47.5q-4 1 -8 4.5t-7.5 8.5t-3.5 10z" />
<glyph unicode="&#xea;" horiz-adv-x="856" d="M45 316q0 82 24.5 167t65.5 159.5t97.5 140.5t119 113.5t131 75t132.5 27.5q58 0 102.5 -19.5t70.5 -59.5t26 -95q0 -47 -22.5 -93t-59.5 -84.5t-85 -73t-99.5 -60.5t-102 -45.5t-94 -29.5t-73.5 -10q-5 -13 -5 -63q0 -44 7.5 -81.5t23.5 -69.5t46 -50t70 -18q17 0 35 5 t35 13.5t34 19t32.5 23t29 24.5t25.5 24t20 20.5t14 15l6 6.5q9 0 20.5 -22t11.5 -34q-13 -21 -54 -61.5t-95.5 -84.5t-120 -77t-115.5 -33q-120 0 -186.5 86.5t-66.5 243.5zM285 502q22 0 53.5 12t66 33.5t69 52t62 65t44.5 76.5t17 82q0 37 -22 62.5t-55 25.5 q-38 0 -74 -31.5t-62.5 -79.5t-48.5 -104.5t-34.5 -107t-15.5 -86.5zM359 1175q130 125 272 283q3 3 7.5 8t7 7.5t5.5 4.5t7 2q11 0 22 -22q58 -111 161 -283q-4 -14 -11.5 -25.5t-15.5 -12.5q-28 22 -67 54.5t-74 64t-47 44.5q-27 -20 -113 -76t-138 -87q-7 2 -13 14t-3 24 z" />
<glyph unicode="&#xeb;" horiz-adv-x="856" d="M45 316q0 82 24.5 167t65.5 159.5t97.5 140.5t119 113.5t131 75t132.5 27.5q58 0 102.5 -19.5t70.5 -59.5t26 -95q0 -47 -22.5 -93t-59.5 -84.5t-85 -73t-99.5 -60.5t-102 -45.5t-94 -29.5t-73.5 -10q-5 -13 -5 -63q0 -44 7.5 -81.5t23.5 -69.5t46 -50t70 -18q17 0 35 5 t35 13.5t34 19t32.5 23t29 24.5t25.5 24t20 20.5t14 15l6 6.5q9 0 20.5 -22t11.5 -34q-13 -21 -54 -61.5t-95.5 -84.5t-120 -77t-115.5 -33q-120 0 -186.5 86.5t-66.5 243.5zM285 502q22 0 53.5 12t66 33.5t69 52t62 65t44.5 76.5t17 82q0 37 -22 62.5t-55 25.5 q-38 0 -74 -31.5t-62.5 -79.5t-48.5 -104.5t-34.5 -107t-15.5 -86.5zM296 1261q5 57 46 97.5t94 40.5q45 0 72.5 -36t22.5 -84q-5 -57 -46 -99.5t-94 -42.5q-46 0 -73 37t-22 87zM701 1261q5 57 45.5 97.5t94.5 40.5q45 0 72.5 -36t22.5 -84q-6 -57 -47.5 -99.5t-95.5 -42.5 q-46 0 -72 36.5t-20 87.5z" />
<glyph unicode="&#xec;" horiz-adv-x="646" d="M47 757q13 24 48 63t80.5 79.5t98 70t92.5 29.5q52 0 85 -38.5t33 -101.5q0 -30 -18 -127l-100 -463q-7 -24 -7 -75q0 -52 25 -52q12 0 28.5 9.5t34 24t34 31t30.5 32.5t22.5 25.5t11.5 13.5q4 0 9 -6t8.5 -14.5t6.5 -17.5t3 -14q-13 -23 -49.5 -62.5t-83.5 -80t-101 -70 t-94 -29.5q-48 0 -78 36t-30 102q0 44 18 129l99 463q9 45 9 72q0 55 -27 55q-22 0 -62 -34t-64.5 -61.5t-33.5 -40.5q-8 0 -18 20.5t-10 31.5zM138 1374q0 38 31.5 59.5t63.5 21.5q50 0 77 -22q35 -31 124 -143t93 -128q0 -7 -7.5 -14t-13.5 -9q-20 3 -109 47.5t-174 102 t-85 85.5z" />
<glyph unicode="&#xed;" horiz-adv-x="646" d="M47 757q13 24 48 63t80.5 79.5t98 70t92.5 29.5q52 0 85 -38.5t33 -101.5q0 -30 -18 -127l-100 -463q-7 -24 -7 -75q0 -52 25 -52q12 0 28.5 9.5t34 24t34 31t30.5 32.5t22.5 25.5t11.5 13.5q4 0 9 -6t8.5 -14.5t6.5 -17.5t3 -14q-13 -23 -49.5 -62.5t-83.5 -80t-101 -70 t-94 -29.5q-48 0 -78 36t-30 102q0 44 18 129l99 463q9 45 9 72q0 55 -27 55q-22 0 -62 -34t-64.5 -61.5t-33.5 -40.5q-8 0 -18 20.5t-10 31.5zM319 1162q3 16 92 128t125 143q26 22 76 22q32 0 63.5 -21.5t31.5 -59.5q0 -28 -85.5 -85.5t-175 -102t-109.5 -47.5q-6 2 -12 9 t-6 14z" />
<glyph unicode="&#xee;" horiz-adv-x="646" d="M47 757q13 24 48 63t80.5 79.5t98 70t92.5 29.5q52 0 85 -38.5t33 -101.5q0 -30 -18 -127l-100 -463q-7 -24 -7 -75q0 -52 25 -52q12 0 28.5 9.5t34 24t34 31t30.5 32.5t22.5 25.5t11.5 13.5q4 0 9 -6t8.5 -14.5t6.5 -17.5t3 -14q-13 -23 -49.5 -62.5t-83.5 -80t-101 -70 t-94 -29.5q-48 0 -78 36t-30 102q0 44 18 129l99 463q9 45 9 72q0 55 -27 55q-22 0 -62 -34t-64.5 -61.5t-33.5 -40.5q-8 0 -18 20.5t-10 31.5zM165 1175q129 125 271 283q3 3 7.5 8t7 7.5t6 4.5t6.5 2q12 0 23 -22q57 -111 160 -283q-1 -7 -4 -13.5t-6.5 -11.5t-8 -8.5 t-8.5 -4.5q-27 22 -66 54.5t-74.5 64t-46.5 44.5q-27 -20 -113 -76t-138 -87q-8 2 -13.5 14t-2.5 24z" />
<glyph unicode="&#xef;" horiz-adv-x="646" d="M47 757q13 24 48 63t80.5 79.5t98 70t92.5 29.5q52 0 85 -38.5t33 -101.5q0 -30 -18 -127l-100 -463q-7 -24 -7 -75q0 -52 25 -52q12 0 28.5 9.5t34 24t34 31t30.5 32.5t22.5 25.5t11.5 13.5q4 0 9 -6t8.5 -14.5t6.5 -17.5t3 -14q-13 -23 -49.5 -62.5t-83.5 -80t-101 -70 t-94 -29.5q-48 0 -78 36t-30 102q0 44 18 129l99 463q9 45 9 72q0 55 -27 55q-22 0 -62 -34t-64.5 -61.5t-33.5 -40.5q-8 0 -18 20.5t-10 31.5zM131 1261q5 57 46 97.5t94 40.5q45 0 72.5 -36t22.5 -84q-3 -37 -22.5 -69.5t-51 -52.5t-66.5 -20q-46 0 -73 37t-22 87z M502 1261q5 57 45.5 97.5t94.5 40.5q45 0 72.5 -36t22.5 -84q-5 -57 -47 -99.5t-96 -42.5q-46 0 -72 36.5t-20 87.5z" />
<glyph unicode="&#xf0;" horiz-adv-x="1019" d="M50.5 352q0.5 60 12.5 123q18 91 68.5 185t120 170.5t158.5 124.5t175 48q42 0 75 -12t47 -28q5 187 -110 337l-226 -150q-34 59 -21 73l199 128q-91 91 -224 161q2 14 14 32t23 18q150 -42 278 -150l275 181q11 -16 20.5 -39t2.5 -31l-244 -160q64 -66 110.5 -145 t77 -179.5t33.5 -213.5t-20 -246q-24 -122 -80.5 -233.5t-128.5 -190t-155 -125t-158 -46.5q-67 0 -122 19t-92 53t-62 80t-36 101t-10.5 115zM279 284.5q4 -92.5 34 -151t78 -58.5t91 33t75.5 92t57 131.5t40.5 158.5q18 90 25.5 183.5t-0.5 117.5q-15 58 -49.5 90 t-79.5 32q-48 0 -91 -35.5t-74.5 -97.5t-54 -134t-37.5 -156q-19 -113 -15 -205.5z" />
<glyph unicode="&#xf1;" horiz-adv-x="1170" d="M38 757q13 24 48 63t80.5 79.5t98 70t92.5 29.5q52 0 85 -38.5t33 -101.5q0 -19 -6 -59.5t-12 -67.5l-32 -144q13 26 39 66t60.5 86.5t76 92t82 83t81.5 60.5t72 23q84 0 119 -42.5t35 -129.5q0 -68 -41 -271l-59 -287q-6 -24 -6 -75q0 -52 25 -52q22 0 62 34.5t64 61.5 t34 40q8 0 17.5 -20.5t9.5 -31.5q-12 -23 -49 -62.5t-84 -80t-101 -70t-94 -29.5q-31 0 -55 15.5t-38.5 47t-14.5 75.5t18 129l63 321q23 113 23 147q0 72 -41 72q-28 0 -79.5 -47t-106.5 -121t-105 -178.5t-70 -204.5q-1 -5 -50 -240q-68 -11 -104 -11q-33 0 -106 11 l142 714q9 45 9 72q0 55 -27 55q-22 0 -62.5 -34t-64.5 -61.5t-33 -40.5q-8 0 -18 20.5t-10 31.5zM334 1164q7 47 48 88q79 79 181 79q61 0 129 -34l31.5 -17.5t35.5 -18.5t35.5 -12t46.5 -6q72 0 149 88q16 -5 13 -25q-3 -24 -16.5 -48.5t-30.5 -41.5q-77 -77 -179 -77 q-38 0 -65.5 7.5t-60.5 24.5q-9 4 -33 17.5t-37.5 20t-37 12.5t-46.5 6q-72 0 -149 -88q-16 5 -14 25z" />
<glyph unicode="&#xf2;" horiz-adv-x="983" d="M45 316q0 95 31 194.5t85.5 185.5t122.5 155t149 108.5t159 39.5q70 0 125.5 -21t95.5 -62t61 -106t21 -150q0 -94 -32 -193t-87.5 -183.5t-125 -152t-151.5 -106.5t-160 -39q-139 0 -216.5 88t-77.5 242zM276 321q0 -48 5 -90t16 -80t31.5 -60.5t48.5 -22.5 q52 0 98.5 39t80 102.5t59 142t37.5 158.5t12 150q0 51 -4.5 94t-15 81.5t-31 60.5t-48.5 22q-52 0 -99 -39.5t-81 -103t-59 -142t-37.5 -159.5t-12.5 -153zM321 1374q0 38 31.5 59.5t63.5 21.5q50 0 77 -22q35 -31 124 -143t93 -128q0 -7 -7.5 -14t-13.5 -9 q-20 3 -109 47.5t-174 102t-85 85.5z" />
<glyph unicode="&#xf3;" horiz-adv-x="983" d="M45 316q0 95 31 194.5t85.5 185.5t122.5 155t149 108.5t159 39.5q70 0 125.5 -21t95.5 -62t61 -106t21 -150q0 -94 -32 -193t-87.5 -183.5t-125 -152t-151.5 -106.5t-160 -39q-139 0 -216.5 88t-77.5 242zM276 321q0 -48 5 -90t16 -80t31.5 -60.5t48.5 -22.5 q52 0 98.5 39t80 102.5t59 142t37.5 158.5t12 150q0 51 -4.5 94t-15 81.5t-31 60.5t-48.5 22q-52 0 -99 -39.5t-81 -103t-59 -142t-37.5 -159.5t-12.5 -153zM536 1162q3 16 92 128t125 143q26 22 76 22q32 0 63.5 -21.5t31.5 -59.5q0 -28 -85.5 -85.5t-175 -102 t-109.5 -47.5q-6 2 -12 9t-6 14z" />
<glyph unicode="&#xf4;" horiz-adv-x="983" d="M45 316q0 95 31 194.5t85.5 185.5t122.5 155t149 108.5t159 39.5q70 0 125.5 -21t95.5 -62t61 -106t21 -150q0 -94 -32 -193t-87.5 -183.5t-125 -152t-151.5 -106.5t-160 -39q-139 0 -216.5 88t-77.5 242zM276 321q0 -48 5 -90t16 -80t31.5 -60.5t48.5 -22.5 q52 0 98.5 39t80 102.5t59 142t37.5 158.5t12 150q0 51 -4.5 94t-15 81.5t-31 60.5t-48.5 22q-52 0 -99 -39.5t-81 -103t-59 -142t-37.5 -159.5t-12.5 -153zM375 1175q130 125 271 283q3 3 7.5 8t7 7.5t6 4.5t6.5 2q12 0 23 -22q58 -111 161 -283q-4 -14 -11.5 -25.5 t-16.5 -12.5q-43 35 -106.5 89t-80.5 74q-27 -20 -113 -76t-138 -87q-8 2 -13.5 14t-2.5 24z" />
<glyph unicode="&#xf5;" horiz-adv-x="983" d="M45 316q0 95 31 194.5t85.5 185.5t122.5 155t149 108.5t159 39.5q70 0 125.5 -21t95.5 -62t61 -106t21 -150q0 -94 -32 -193t-87.5 -183.5t-125 -152t-151.5 -106.5t-160 -39q-139 0 -216.5 88t-77.5 242zM276 321q0 -48 5 -90t16 -80t31.5 -60.5t48.5 -22.5 q52 0 98.5 39t80 102.5t59 142t37.5 158.5t12 150q0 51 -4.5 94t-15 81.5t-31 60.5t-48.5 22q-52 0 -99 -39.5t-81 -103t-59 -142t-37.5 -159.5t-12.5 -153zM303 1164q6 47 47 88q79 79 181 79q61 0 129 -34q10 -5 32 -17.5t35 -18.5t35.5 -12t46.5 -6q72 0 149 88 q16 -5 14 -25q-3 -24 -17 -48.5t-31 -41.5q-76 -77 -178 -77q-38 0 -65.5 7.5t-61.5 24.5q-9 4 -22.5 11.5t-23 13t-23.5 12t-26 10.5t-27.5 6.5t-30.5 2.5q-72 0 -150 -88q-16 5 -13 25z" />
<glyph unicode="&#xf6;" horiz-adv-x="983" d="M45 316q0 95 31 194.5t85.5 185.5t122.5 155t149 108.5t159 39.5q70 0 125.5 -21t95.5 -62t61 -106t21 -150q0 -94 -32 -193t-87.5 -183.5t-125 -152t-151.5 -106.5t-160 -39q-139 0 -216.5 88t-77.5 242zM276 321q0 -48 5 -90t16 -80t31.5 -60.5t48.5 -22.5 q52 0 98.5 39t80 102.5t59 142t37.5 158.5t12 150q0 51 -4.5 94t-15 81.5t-31 60.5t-48.5 22q-52 0 -99 -39.5t-81 -103t-59 -142t-37.5 -159.5t-12.5 -153zM312 1261q5 57 45.5 97.5t94.5 40.5q45 0 72.5 -36t22.5 -84q-5 -57 -46 -99.5t-94 -42.5q-47 0 -73.5 37t-21.5 87 zM716 1261q6 57 46.5 97.5t94.5 40.5q45 0 72.5 -36t21.5 -84q-5 -57 -46.5 -99.5t-95.5 -42.5q-46 0 -72 36.5t-21 87.5z" />
<glyph unicode="&#xf7;" horiz-adv-x="1181" d="M93 524q0 22 8 49.5t21 43.5h947q7 0 7 -20q0 -53 -27 -91h-945q-11 0 -11 18zM398 108q0 56 34.5 96t87.5 40q40 0 67.5 -29t27.5 -70q0 -36 -17.5 -68.5t-48 -52t-65.5 -19.5q-39 0 -62.5 30.5t-23.5 72.5zM563 981q0 55 35.5 95t88.5 40q40 0 66.5 -29t26.5 -70 q0 -27 -10 -52.5t-27 -45t-41.5 -31t-50.5 -11.5q-39 0 -63.5 30.5t-24.5 73.5z" />
<glyph unicode="&#xf8;" horiz-adv-x="983" d="M45 316q0 95 31 194.5t85.5 185.5t122.5 155t149 108.5t159 39.5q70 0 125.5 -21t95.5 -62t61 -106t21 -150q0 -94 -32 -193t-87.5 -183.5t-125 -152t-151.5 -106.5t-160 -39q-139 0 -216.5 88t-77.5 242zM122 7l612 1003q11 -2 28.5 -12.5t12.5 -16.5l-612 -1004 q-1 1 -8.5 4.5t-12.5 6t-11 6t-8.5 7t-0.5 6.5zM276 321q0 -48 5 -90t16 -80t31.5 -60.5t48.5 -22.5q52 0 98.5 39t80 102.5t59 142t37.5 158.5t12 150q0 51 -4.5 94t-15 81.5t-31 60.5t-48.5 22q-52 0 -99 -39.5t-81 -103t-59 -142t-37.5 -159.5t-12.5 -153z" />
<glyph unicode="&#xf9;" horiz-adv-x="1157" d="M29 757q13 24 48 63t80.5 79.5t98 70t92.5 29.5q52 0 85 -38.5t33 -101.5q0 -30 -19 -127l-63 -321q-22 -113 -22 -147q0 -72 40 -72q27 0 79 54t106.5 135t103.5 191.5t68 209.5q5 25 21 100.5t20 100.5q38 11 97 11q66 0 111 -11l-136 -714q-9 -36 -9 -75q0 -52 27 -52 q23 0 62.5 34.5t62.5 61t34 40.5q8 0 17.5 -20.5t9.5 -31.5q-13 -23 -49 -62.5t-82.5 -80t-100.5 -70t-94 -29.5q-48 0 -79 36.5t-31 101.5q0 31 15 118q8 42 34 158q-27 -58 -80 -129.5t-113 -135t-124 -106.5t-108 -43q-72 0 -100 44t-28 135q0 78 38 257q0 2 28.5 134.5 t32.5 159.5q9 45 9 72q0 55 -27 55q-22 0 -62.5 -34t-64.5 -61.5t-34 -40.5q-7 0 -17 20.5t-10 31.5zM355 1374q0 26 17 45.5t38 27.5t40 8q50 0 77 -22q35 -31 124 -143t93 -128q0 -7 -7.5 -14t-13.5 -9q-20 3 -109 47.5t-174 102t-85 85.5z" />
<glyph unicode="&#xfa;" horiz-adv-x="1157" d="M29 757q13 24 48 63t80.5 79.5t98 70t92.5 29.5q52 0 85 -38.5t33 -101.5q0 -30 -19 -127l-63 -321q-22 -113 -22 -147q0 -72 40 -72q27 0 79 54t106.5 135t103.5 191.5t68 209.5q5 25 21 100.5t20 100.5q38 11 97 11q66 0 111 -11l-136 -714q-9 -36 -9 -75q0 -52 27 -52 q23 0 62.5 34.5t62.5 61t34 40.5q8 0 17.5 -20.5t9.5 -31.5q-13 -23 -49 -62.5t-82.5 -80t-100.5 -70t-94 -29.5q-48 0 -79 36.5t-31 101.5q0 31 15 118q8 42 34 158q-27 -58 -80 -129.5t-113 -135t-124 -106.5t-108 -43q-72 0 -100 44t-28 135q0 78 38 257q0 2 28.5 134.5 t32.5 159.5q9 45 9 72q0 55 -27 55q-22 0 -62.5 -34t-64.5 -61.5t-34 -40.5q-7 0 -17 20.5t-10 31.5zM579 1162q3 16 92 128t125 143q26 22 76 22q19 0 40 -8t38 -27.5t17 -45.5q0 -28 -85.5 -85.5t-175 -102t-109.5 -47.5q-4 1 -8 4.5t-7 8.5t-3 10z" />
<glyph unicode="&#xfb;" horiz-adv-x="1157" d="M29 757q13 24 48 63t80.5 79.5t98 70t92.5 29.5q52 0 85 -38.5t33 -101.5q0 -30 -19 -127l-63 -321q-22 -113 -22 -147q0 -72 40 -72q27 0 79 54t106.5 135t103.5 191.5t68 209.5q5 25 21 100.5t20 100.5q38 11 97 11q66 0 111 -11l-136 -714q-9 -36 -9 -75q0 -52 27 -52 q23 0 62.5 34.5t62.5 61t34 40.5q8 0 17.5 -20.5t9.5 -31.5q-13 -23 -49 -62.5t-82.5 -80t-100.5 -70t-94 -29.5q-48 0 -79 36.5t-31 101.5q0 31 15 118q8 42 34 158q-27 -58 -80 -129.5t-113 -135t-124 -106.5t-108 -43q-72 0 -100 44t-28 135q0 78 38 257q0 2 28.5 134.5 t32.5 159.5q9 45 9 72q0 55 -27 55q-22 0 -62.5 -34t-64.5 -61.5t-34 -40.5q-7 0 -17 20.5t-10 31.5zM396 1175q129 125 271 283q3 3 7.5 8t7 7.5t6 4.5t6.5 2q11 0 22 -22q58 -111 161 -283q-4 -14 -11.5 -25.5t-15.5 -12.5q-44 35 -107 89t-81 74q-26 -20 -112.5 -76 t-138.5 -87q-7 2 -13 14t-2 24z" />
<glyph unicode="&#xfc;" horiz-adv-x="1157" d="M29 757q13 24 48 63t80.5 79.5t98 70t92.5 29.5q52 0 85 -38.5t33 -101.5q0 -30 -19 -127l-63 -321q-22 -113 -22 -147q0 -72 40 -72q27 0 79 54t106.5 135t103.5 191.5t68 209.5q5 25 21 100.5t20 100.5q38 11 97 11q66 0 111 -11l-136 -714q-9 -36 -9 -75q0 -52 27 -52 q23 0 62.5 34.5t62.5 61t34 40.5q8 0 17.5 -20.5t9.5 -31.5q-13 -23 -49 -62.5t-82.5 -80t-100.5 -70t-94 -29.5q-48 0 -79 36.5t-31 101.5q0 31 15 118q8 42 34 158q-27 -58 -80 -129.5t-113 -135t-124 -106.5t-108 -43q-72 0 -100 44t-28 135q0 78 38 257q0 2 28.5 134.5 t32.5 159.5q9 45 9 72q0 55 -27 55q-22 0 -62.5 -34t-64.5 -61.5t-34 -40.5q-7 0 -17 20.5t-10 31.5zM355 1261q5 57 45.5 97.5t94.5 40.5q45 0 72.5 -36t22.5 -84q-5 -57 -46 -99.5t-94 -42.5q-47 0 -73.5 37t-21.5 87zM759 1261q6 57 46.5 97.5t93.5 40.5q46 0 73.5 -36 t21.5 -84q-5 -57 -47 -99.5t-95 -42.5q-46 0 -72 36.5t-21 87.5z" />
<glyph unicode="&#xfd;" horiz-adv-x="1068" d="M-210 -393q0 29 18 61t43 45q18 -11 51 -24t76 -24t74 -11q50 0 90.5 12t69.5 35t47 43t37 48q8 15 13.5 35.5t8.5 46.5t5 49t2.5 55t0.5 52t-0.5 52t-0.5 45q0 106 -7.5 220t-23.5 227t-46 185.5t-69 72.5q-15 0 -34.5 -12.5t-38 -31t-33.5 -36t-26.5 -32t-12.5 -15.5 q-9 0 -18 21t-9 31q11 20 41.5 56.5t72 80t90 74.5t85.5 31q46 0 83.5 -32.5t62.5 -93.5t44 -128t30 -157.5t18 -160t9.5 -157t3 -126t0.5 -88.5v-11q35 43 74.5 106t81 146.5t68.5 182t27 184.5q0 121 -75 213q7 50 46.5 86t84.5 36q43 0 75 -27t47.5 -71t15.5 -96 q0 -128 -57.5 -281t-149.5 -296t-209 -279t-233.5 -236.5t-226 -162t-184.5 -61.5q-62 0 -102 32t-40 86zM536 1162q3 16 92 128t125 143q26 22 76 22q32 0 63.5 -21.5t31.5 -59.5q0 -28 -85.5 -85.5t-175 -102t-109.5 -47.5q-6 2 -12 9t-6 14z" />
<glyph unicode="&#xfe;" horiz-adv-x="1068" d="M-118.5 -480.5q2.5 30.5 10.5 35.5q59 0 91 38q21 28 36 95l174 857l-109 -109q-6 8 -10.5 24.5t-4.5 27.5q0 26 20 41l124 126l122 611q21 91 21 122q-4 41 -138 40q-5 7 -1.5 28.5t10.5 28.5q82 7 192 34t160 45q14 -8 14 -45q0 -26 -30 -168q-4 -29 -53 -276t-53 -261 q39 38 88.5 76.5t119 73.5t122.5 35q105 0 157.5 -74.5t52.5 -199.5q0 -89 -26.5 -181t-71.5 -172.5t-106 -151.5t-128.5 -122t-141 -80t-140.5 -29q-58 0 -82 20l-67 -316q-7 -31 -7 -64q0 -12 8 -28.5t23 -20.5q39 -9 107 -9q7 -2 4 -32.5t-11 -33.5q-15 0 -41 1t-38 1 q-223 0 -391 -20q-9 2 -6.5 32.5zM360 316q-21 -109 4 -173t75 -64q63 0 125 61.5t105.5 152.5t70.5 196t27 191q0 161 -104 161q-52 0 -117.5 -41t-108.5 -95z" />
<glyph unicode="&#xff;" horiz-adv-x="1068" d="M-210 -393q0 29 18 61t43 45q18 -11 51 -24t76 -24t74 -11q50 0 90.5 12t69.5 35t47 43t37 48q8 15 13.5 35.5t8.5 46.5t5 49t2.5 55t0.5 52t-0.5 52t-0.5 45q0 106 -7.5 220t-23.5 227t-46 185.5t-69 72.5q-15 0 -34.5 -12.5t-38 -31t-33.5 -36t-26.5 -32t-12.5 -15.5 q-9 0 -18 21t-9 31q11 20 41.5 56.5t72 80t90 74.5t85.5 31q46 0 83.5 -32.5t62.5 -93.5t44 -128t30 -157.5t18 -160t9.5 -157t3 -126t0.5 -88.5v-11q35 43 74.5 106t81 146.5t68.5 182t27 184.5q0 121 -75 213q7 50 46.5 86t84.5 36q43 0 75 -27t47.5 -71t15.5 -96 q0 -128 -57.5 -281t-149.5 -296t-209 -279t-233.5 -236.5t-226 -162t-184.5 -61.5q-62 0 -102 32t-40 86zM280 1277q5 56 46 97t94 41q45 0 72.5 -36t22.5 -84q-2 -28 -14.5 -54t-31 -45.5t-43 -31t-51.5 -11.5q-31 0 -54 17t-33.5 45.5t-7.5 61.5zM685 1277q5 56 45.5 97 t94.5 41q45 0 72.5 -36t22.5 -84q-5 -57 -47 -99.5t-96 -42.5q-46 0 -71.5 36.5t-20.5 87.5z" />
<glyph unicode="&#x152;" horiz-adv-x="2241" d="M120 588q0 128 33 249.5t91 222.5t140 185t177 142t204 90.5t220 32.5q103 0 268 -13.5t234 -13.5q66 0 341.5 9t368.5 9q-3 -37 -3 -104q0 -38 1.5 -110.5t1.5 -106.5q-12 -12 -45 -12q-28 0 -28 16q-13 117 -62.5 167t-154.5 50h-146q-32 0 -48 -0.5t-38.5 -2.5 t-34.5 -8t-17 -16q-19 -47 -41 -149l-77 -407q-1 -10 23 -15t61 -5h106q44 0 70.5 1.5t51.5 8.5t38.5 15.5t29.5 29t27.5 43t28.5 62.5q8 18 30 18q10 0 21 -4t15 -9l-84 -430q-9 -9 -34 -9q-31 0 -31 18q-3 81 -11.5 108t-24.5 37q-27 16 -190 16q-151 0 -156 -25l-68 -348 q-30 -148 -25 -199q6 -43 136 -43h122q40 0 82.5 7.5t84.5 22.5t72 36q81 59 168 221q6 14 31 14q16 0 33.5 -4.5t20.5 -9.5q-10 -20 -38.5 -74.5t-45 -86t-38.5 -76.5t-37.5 -80.5t-25.5 -64.5q-58 0 -314 3.5t-386 3.5q-185 0 -260 -5q-30 -1 -103 -6.5t-124 -8.5t-94 -3 q-118 0 -220.5 48.5t-174 131t-112 194.5t-40.5 237zM391 576q0 -84 12 -158t38 -138t64.5 -110t94 -72t123.5 -26q155 0 245 44t151 142q11 10 25.5 48t31 103t30.5 125.5t32 150t27.5 139.5t24.5 130q13 67 17.5 128t-4.5 124.5t-35 99.5q-23 33 -63.5 56.5t-89 35 t-92 16.5t-85.5 5q-80 0 -155 -36t-134 -98t-108 -145t-81.5 -176.5t-50.5 -193t-18 -194.5z" />
<glyph unicode="&#x153;" horiz-adv-x="1435" d="M45 316q0 95 31 194.5t85.5 185.5t122.5 155t149 108.5t159 39.5q98 0 166.5 -41t102.5 -122q50 50 105.5 86.5t114 56.5t112.5 20q89 0 144 -45.5t55 -128.5q0 -47 -22 -93t-59.5 -84.5t-85 -73t-99.5 -60.5t-102 -45.5t-93.5 -29.5t-73.5 -10q-3 -6 -3 -63q0 -44 7 -81 t23 -69.5t45 -50.5t70 -18q16 0 34 5t35 13.5t34 19t32.5 23t29 24.5t25.5 24t20 20.5t14 15l6 6.5q10 0 21 -22t11 -34q-8 -13 -29 -36.5t-51.5 -52t-69 -58t-78 -54t-81 -40t-75.5 -15.5q-81 0 -138 39.5t-86 114.5q-74 -72 -154.5 -113t-159.5 -41q-139 0 -216.5 88 t-77.5 242zM276 321q0 -48 5 -90t16 -80t31.5 -60.5t48.5 -22.5q76 0 143.5 91.5t105.5 228t38 272.5q0 51 -4.5 94t-15 81.5t-31 60.5t-48.5 22q-52 0 -99 -39.5t-81 -103t-59 -142t-37.5 -159.5t-12.5 -153zM863 502q24 0 56.5 13t67 34.5t68.5 52t60.5 65t43 75.5 t16.5 81q0 24 -9.5 44.5t-27 32t-40.5 11.5q-25 0 -50 -15.5t-46.5 -41.5t-41.5 -60t-36 -72.5t-28.5 -77.5t-20.5 -75.5t-12 -66.5z" />
<glyph unicode="&#x178;" horiz-adv-x="1279" d="M150 1457q6 29 16 39q181 -13 278 -13q113 0 285 13q4 -11 -1 -39.5t-15 -34.5q-14 0 -32 -2.5t-43 -8.5t-43 -20.5t-22 -34.5q-2 -2 -0.5 -11t2.5 -12.5t4.5 -14.5t5.5 -16l167 -520q35 44 112.5 153t149 214.5t115.5 172.5q12 17 16 43q2 13 -18.5 26t-54.5 20.5 t-69 7.5q-5 9 -0.5 38.5t11.5 38.5q20 -1 57 -4.5t55.5 -5t49.5 -2.5t62 -1q44 0 82.5 2t81 6t73.5 5q3 -7 -4 -38.5t-14 -38.5q-129 0 -183 -72q-23 -27 -242 -324.5t-249 -344.5q-4 -7 -8 -15.5t-5 -14t-3.5 -16t-3.5 -13.5l-65 -325q-31 -140 -23 -190q2 -12 30 -21.5 t56 -13t45 -3.5q5 -10 0.5 -37.5t-14.5 -37.5q-162 14 -271 14q-101 0 -273 -14q-7 10 -2 37t15 38q33 0 85.5 10t61.5 28q7 12 12.5 26.5t11 36t9 36t10 45.5t9.5 46l64 330q2 20 -5 54q-4 18 -23 80.5t-44 140t-49.5 152t-40.5 124.5l-17 50q-9 27 -17 46.5t-17 35.5 t-18 29t-23 29q-18 27 -55.5 42t-63.5 15q-7 6 -1 35zM537 1779q10 54 54 92.5t95 38.5t80.5 -38.5t19.5 -92.5q-4 -22 -14.5 -42.5t-25 -37.5t-32 -30.5t-38 -20.5t-39.5 -7q-52 0 -81 41.5t-19 96.5zM969 1779q10 54 54 92.5t95 38.5t80.5 -38.5t18.5 -92.5 q-4 -22 -14 -42.5t-24.5 -37.5t-32 -30.5t-38 -20.5t-40.5 -7q-52 0 -81 41.5t-18 96.5z" />
<glyph unicode="&#x2000;" horiz-adv-x="972" />
<glyph unicode="&#x2001;" horiz-adv-x="1944" />
<glyph unicode="&#x2002;" horiz-adv-x="972" />
<glyph unicode="&#x2003;" horiz-adv-x="1944" />
<glyph unicode="&#x2004;" horiz-adv-x="648" />
<glyph unicode="&#x2005;" horiz-adv-x="486" />
<glyph unicode="&#x2006;" horiz-adv-x="324" />
<glyph unicode="&#x2007;" horiz-adv-x="324" />
<glyph unicode="&#x2008;" horiz-adv-x="243" />
<glyph unicode="&#x2009;" horiz-adv-x="388" />
<glyph unicode="&#x200a;" horiz-adv-x="108" />
<glyph unicode="&#x2010;" horiz-adv-x="827" d="M113 477q0 24 16.5 71t33.5 49l515 27q14 0 14 -27q0 -26 -20.5 -77t-36.5 -52l-511 -25q-11 0 -11 34z" />
<glyph unicode="&#x2011;" horiz-adv-x="827" d="M113 477q0 24 16.5 71t33.5 49l515 27q14 0 14 -27q0 -26 -20.5 -77t-36.5 -52l-511 -25q-11 0 -11 34z" />
<glyph unicode="&#x2012;" horiz-adv-x="827" d="M113 477q0 24 16.5 71t33.5 49l515 27q14 0 14 -27q0 -26 -20.5 -77t-36.5 -52l-511 -25q-11 0 -11 34z" />
<glyph unicode="&#x2013;" horiz-adv-x="1231" d="M113 479q0 29 17.5 69t32.5 51h906q16 0 16 -34q0 -29 -17.5 -69t-32.5 -51h-908q-14 0 -14 34z" />
<glyph unicode="&#x2014;" horiz-adv-x="1898" d="M115 479q0 19 9 45.5t20.5 47t20.5 27.5h1571q16 0 16 -34q0 -29 -18 -69t-32 -51h-1571q-16 0 -16 34z" />
<glyph unicode="&#x2018;" horiz-adv-x="422" d="M220.5 1162.5q-0.5 44.5 7.5 91.5q12 60 45 117t72.5 96t80 69t67.5 45t34 15q12 0 21 -11.5t12 -29.5q-40 -23 -71.5 -49t-49 -45.5t-29.5 -40.5t-15.5 -31t-5.5 -19q-10 -49 25 -109q2 -4 6.5 -11t7 -11t5.5 -10t5 -11t3 -10.5t1 -11.5t-1 -12q-9 -40 -57 -72t-99 -32 q-27 0 -54 16q-10 22 -10.5 66.5z" />
<glyph unicode="&#x2019;" horiz-adv-x="440" d="M190 1123q40 23 71.5 49t49 46.5t29.5 41.5t16 31.5t6 19.5q4 11 2 25.5t-3 22.5t-6 20.5t-8.5 18.5t-9.5 17q-2 3 -6 9.5t-6 10t-5 9t-4.5 9t-3 9t-2 10t0 9.5t1.5 11q5 26 28.5 51t56.5 40t66 15q29 0 57 -16q19 -41 -2 -158q-12 -60 -44.5 -117t-71 -96t-77.5 -69 t-65.5 -44.5t-33.5 -14.5q-12 0 -22.5 11t-13.5 29z" />
<glyph unicode="&#x201a;" horiz-adv-x="447" d="M-95 -190q50 28 86.5 59.5t54 57.5t25.5 41.5t10 26.5q3 11 3 21t-2.5 21t-4 16.5t-7.5 17.5l-7 14t-9 14q-2 4 -6.5 11.5t-7 11.5t-6 10.5t-5 11.5t-3 11t-1 11.5t1.5 12.5q9 40 57 73t99 33q23 0 54 -18q21 -44 0 -159q-11 -59 -44 -115.5t-72 -95.5t-79 -69t-67 -44.5 t-34 -14.5q-12 0 -22.5 11.5t-13.5 29.5z" />
<glyph unicode="&#x201c;" horiz-adv-x="729" d="M220.5 1162.5q-0.5 44.5 7.5 91.5q12 60 45 117t72.5 96t80 69t67.5 45t34 15q12 0 21 -11.5t12 -29.5q-40 -23 -71.5 -49t-49 -45.5t-29.5 -40.5t-15.5 -31t-5.5 -19q-10 -49 22 -104q3 -5 8.5 -13.5t8 -13t7 -13t5 -13.5t2 -14t-0.5 -15q-9 -40 -57 -72t-99 -32 q-27 0 -54 16q-10 22 -10.5 66.5zM536 1096q-21 44 0 158q11 60 44 117t72 96t79 69t67 45t34 15q12 0 22.5 -11.5t13.5 -29.5q-50 -28 -86 -59.5t-53.5 -57.5t-25 -41.5t-9.5 -26.5q-11 -51 20 -100q1 -1 5.5 -8t5.5 -8.5t5 -8t5 -8.5l4 -8t4 -9t2.5 -8.5t1.5 -9v-8.5 t-1 -10q-9 -40 -56 -72t-98 -32q-29 0 -56 16z" />
<glyph unicode="&#x201d;" horiz-adv-x="750" d="M190 1121q34 19 62 40t45.5 40t30.5 35.5t20.5 31t10.5 23t5 15.5q11 51 -20 100q-1 0 -6 7.5t-5.5 8.5t-5 8t-5 9t-4 8t-4 9t-2 8t-1.5 9v9t1 10q8 40 54 72t97 32q29 0 57 -16q20 -44 0 -158q-12 -60 -44.5 -117t-71.5 -96t-78.5 -69.5t-66 -45t-33.5 -14.5 q-12 0 -22.5 11.5t-13.5 29.5zM495 1121q40 23 72 48.5t49.5 45.5t30 40.5t16.5 31.5t6 19q4 11 2.5 25.5t-2.5 23t-6.5 20.5t-9 18t-9.5 17q-2 4 -6.5 11.5t-7 11.5t-6 10.5t-5 11.5t-3 11t-1 12.5t1.5 13.5q8 40 55.5 72t98.5 32q28 0 56 -16q21 -44 0 -158 q-11 -60 -44 -117t-72.5 -96t-79 -69.5t-66.5 -45t-34 -14.5q-12 0 -22.5 11.5t-13.5 29.5z" />
<glyph unicode="&#x201e;" horiz-adv-x="754" d="M-95 -194q50 28 86 59t53.5 57t24.5 41.5t10 27.5q11 51 -20 99q-2 2 -4 6q-11 17 -16.5 26.5t-10 25t-1.5 28.5q9 41 56 72.5t98 31.5q26 0 54 -16q10 -21 10.5 -66t-8.5 -92q-8 -43 -28 -85.5t-45 -75t-54.5 -62.5t-57 -51t-51.5 -36.5t-39.5 -23t-20.5 -7.5 q-8 0 -15.5 5t-13 14.5t-7.5 21.5zM212 -194q50 28 86 59t53 57.5t23.5 41.5t9.5 27q10 49 -22 104q-3 4 -7.5 11t-7 11.5t-6 11t-5.5 11t-4 11.5t-1 12t1 13q6 27 29.5 51t57.5 38.5t67 14.5q29 0 56 -16q21 -44 0 -158q-11 -59 -44 -116t-72 -96t-79 -69.5t-67 -45 t-34 -14.5q-8 0 -14.5 5t-11.5 14t-8 22z" />
<glyph unicode="&#x2022;" horiz-adv-x="833" d="M176 594q22 116 115 198.5t201 82.5t167 -82.5t36 -198.5q-22 -115 -113.5 -197.5t-200 -82.5t-168 82.5t-37.5 197.5z" />
<glyph unicode="&#x2026;" horiz-adv-x="1581" d="M25 104q7 63 54 109.5t104 46.5q51 0 82 -37.5t24 -91.5q-6 -63 -53 -110.5t-105 -47.5q-52 0 -82.5 38t-23.5 93zM579 104q4 41 27 77t58 57.5t73 21.5q51 0 82 -37.5t24 -91.5q-7 -63 -55 -110.5t-105 -47.5q-52 0 -81.5 38t-22.5 93zM1128 104q7 64 54.5 110t105.5 46 q51 0 82 -37.5t25 -91.5q-7 -63 -55 -110.5t-106 -47.5q-52 0 -82.5 38t-23.5 93z" />
<glyph unicode="&#x202f;" horiz-adv-x="388" />
<glyph unicode="&#x2039;" horiz-adv-x="687" d="M59 554q0 25 27 43q79 45 150 90.5t128.5 87.5t93.5 69.5t81.5 65t57.5 46.5q6 -2 14 -6t17.5 -13t11.5 -19q-8 -14 -164 -166t-200 -192q24 -33 122 -187t101 -165q-9 -15 -26 -27t-30 -16q-47 61 -146.5 162.5t-221.5 192.5q-16 16 -16 34z" />
<glyph unicode="&#x203a;" horiz-adv-x="689" d="M32 203q7 14 163.5 165t202.5 192q-24 31 -123.5 186t-102.5 167q9 15 26 27t30 16q47 -61 146.5 -162.5t222.5 -192.5q15 -16 15 -34q0 -25 -27 -43q-97 -56 -189 -117.5t-134.5 -93.5t-112 -89t-72.5 -59q-12 3 -27 13.5t-18 24.5z" />
<glyph unicode="&#x205f;" horiz-adv-x="486" />
<glyph unicode="&#x20ac;" horiz-adv-x="1466" d="M72 574q0 6 2.5 16.5t6.5 21.5t9.5 21.5t11.5 15.5h88q4 76 16 133h-91q-9 0 -9 18q0 14 9.5 39.5t20.5 35.5h95q44 138 131.5 253.5t196.5 189t231 113.5t241 38q153 -3 386 -61q-4 -84 -27 -319q-2 -10 -12 -17.5t-22 -7.5q-29 0 -38 14q0 33 -8.5 68t-25 69.5 t-43.5 64.5t-61 53t-79.5 36.5t-97.5 13.5q-115 0 -219 -61t-183.5 -177t-116.5 -270h415q7 0 7 -21q0 -7 -2 -19t-9 -28t-16 -25h-413q-11 -64 -14 -133h414q6 0 6 -18q0 -14 -6.5 -38t-20.5 -37h-391q4 -70 20 -137t47 -131t74 -111.5t105 -77t136 -29.5q151 0 274 106 q56 49 101.5 120t67.5 120q14 0 28 -4t23 -9t12 -10q-3 -18 -33 -90.5t-65.5 -145t-50.5 -82.5q-88 -50 -185 -71.5t-231 -21.5q-100 0 -190.5 31t-159.5 85.5t-121 127t-81.5 157t-34.5 173.5h-109q-9 0 -9 18z" />
<glyph unicode="&#x25fc;" horiz-adv-x="1000" d="M0 1000h1000v-1000h-1000v1000z" />
</font>
</defs>
</svg>
