<?xml version="1.0" standalone="no"?>
<!DOCTYPE svg PUBLIC "-//W3C//DTD SVG 1.1//EN" "http://www.w3.org/Graphics/SVG/1.1/DTD/svg11.dtd" >
<svg xmlns="http://www.w3.org/2000/svg">
<metadata></metadata>
<defs>
<font id="latoitalic" horiz-adv-x="0" >
<font-face units-per-em="2000" ascent="1610" descent="-390" />
<missing-glyph horiz-adv-x="468" />
<glyph unicode="&#xfb00;" horiz-adv-x="1234" d="M986 993h267l-16 -125h-260l-102 -835l-46 -207q-11 -36 -32.5 -55.5t-59.5 -19.5h-70l135 1117h-405l-102 -835l-46 -207q-11 -36 -32.5 -55.5t-59.5 -19.5h-70l136 1115l-99 13q-20 3 -31.5 13.5t-9.5 30.5l9 70h147l10 83q11 87 43 154.5t80.5 114t111.5 70.5t135 24 q61 0 113 -20l-17 -93q-3 -10 -10 -14t-18 -5t-25.5 -0.5t-31.5 0.5q-42 0 -77.5 -11t-63 -37t-46 -69.5t-26.5 -108.5l-12 -88h412l13 109q11 87 43.5 154.5t81.5 114t112.5 70.5t137.5 24q62 0 113 -20l-17 -92q-3 -10 -10 -14t-18 -5.5t-25.5 -1t-31.5 0.5 q-43 0 -79 -12.5t-64 -40.5t-47 -73t-27 -110z" />
<glyph unicode="&#xfb01;" horiz-adv-x="1067" d="M405 993h567l-121 -993h-175l106 864h-386l-102 -832l-47 -207q-11 -36 -32.5 -55.5t-59.5 -19.5h-70l137 1112l-98 12q-21 5 -32 14.5t-9 29.5l8 75h147l7 56q11 93 48 170t97.5 132t145 85.5t191.5 30.5q18 0 37.5 -1.5t39 -4t37 -6t30.5 -8.5l-18 -90q-2 -10 -9.5 -14 t-19.5 -5t-28 0t-37 1q-83 0 -144 -18t-103 -54t-66.5 -91t-33.5 -130z" />
<glyph unicode="&#xfb02;" horiz-adv-x="1098" d="M397 865l-103 -833l-47 -207q-11 -36 -32.5 -55.5t-59.5 -19.5h-70l137 1112l-98 12q-21 5 -32 14.5t-9 29.5l9 75h146l7 55q10 84 43 159t87.5 131t130.5 88.5t173 32.5q72 0 136.5 -6t127.5 -7h120l-178 -1446h-173l161 1316q-45 4 -92 9t-91 5q-117 0 -189.5 -73.5 t-88.5 -208.5l-6 -55h238l-15 -128h-232z" />
<glyph unicode="&#xfb03;" horiz-adv-x="1647" d="M1537 868l-106 -868h-172l106 868h-388l-102 -836l-47 -207q-11 -36 -32.5 -55.5t-59.5 -19.5h-70l137 1118h-406l-102 -835l-46 -207q-11 -36 -32.5 -55.5t-59.5 -19.5h-70l136 1115l-99 13q-20 3 -31.5 13.5t-9.5 30.5l9 70h147l10 83q11 87 43 154.5t80.5 114 t111.5 70.5t135 24q61 0 113 -20l-17 -93q-3 -10 -10 -14t-18 -5t-25.5 -0.5t-31.5 0.5q-42 0 -77.5 -11t-63 -37t-46 -69.5t-26.5 -108.5l-12 -88h414l7 56q11 93 48 170t97.5 132t145 85.5t191.5 30.5q17 0 37 -1.5t39.5 -4t37 -6t29.5 -8.5l-17 -90q-2 -10 -9.5 -14 t-19.5 -5t-28 0t-37 1q-165 0 -247 -72t-100 -221l-7 -53h567l-15 -125h-1z" />
<glyph unicode="&#xfb04;" horiz-adv-x="1677" d="M402 992h415l7 56q10 84 43 159t88 131t131 88.5t173 32.5q77 0 147 -6.5t138 -6.5h98l-177 -1446h-173l160 1316q-45 4 -92 9t-90 5q-118 0 -190.5 -73.5t-87.5 -208.5l-6 -56h267l-16 -126h-261l-103 -834l-46 -207q-11 -36 -32.5 -55.5t-59.5 -19.5h-70l136 1116h-408 l-100 -833l-47 -207q-11 -36 -32.5 -55.5t-59.5 -19.5h-70l136 1114l-96 12q-20 4 -31.5 14t-9.5 30l9 71h143l11 84q11 87 43 154.5t80.5 114t111.5 70.5t135 24q62 0 113 -20l-17 -93q-3 -10 -10 -14t-18 -5t-25.5 -0.5t-31.5 0.5q-42 0 -77.5 -11t-63 -37t-46 -69.5 t-26.5 -108.5z" />
<glyph unicode="fb" horiz-adv-x="1710" d="M977 756q38 62 81.5 112t91.5 85.5t100 55t106 19.5q130 0 202 -94t72 -275q0 -82 -17 -164t-48.5 -156.5t-76 -139t-99 -112t-118.5 -74.5t-134 -27q-81 0 -146 34t-108 97l-14 -65q-8 -26 -20 -39t-43 -13h-94l163 1354q-42 6 -86 13.5t-84 7.5q-60 0 -109.5 -20.5 t-86.5 -59t-60.5 -93t-30.5 -121.5l-11 -88h247l-15 -128h-242l-103 -833l-46 -207q-11 -36 -32.5 -55.5t-59.5 -19.5h-70l137 1112l-99 12q-20 5 -31 14.5t-9 29.5l8 75h147l11 88q10 85 44 160t90.5 131t134 88.5t175.5 32.5q103 0 194.5 -9t159.5 -11h16zM912 222 q38 -53 91.5 -75.5t107.5 -22.5q52 0 98 22t84 59.5t67.5 88t50.5 108t31.5 119t10.5 121.5q0 119 -42.5 181t-120.5 62q-48 0 -97 -30t-95 -83.5t-85.5 -127t-68.5 -160.5z" />
<glyph unicode="ffb" horiz-adv-x="2290" d="M1558 756q38 62 81.5 112t91.5 85.5t100 55t106 19.5q130 0 202 -94t72 -275q0 -82 -17 -164t-48.5 -156.5t-76 -139t-99 -112t-118.5 -74.5t-134 -27q-81 0 -146 34t-108 97l-14 -65q-8 -26 -20 -39t-43 -13h-94l163 1353q-42 7 -86 14.5t-85 7.5q-60 0 -109.5 -20.5 t-86.5 -59t-60.5 -93t-30.5 -121.5l-11 -89h265l-16 -126h-259l-102 -834l-47 -207q-11 -36 -32.5 -55.5t-59.5 -19.5h-70l137 1116h-406l-101 -833l-47 -207q-11 -36 -32.5 -55.5t-59.5 -19.5h-70l136 1113l-100 13q-20 4 -31 14t-9 30l8 71h147l11 84q11 87 43 154.5 t80.5 114t111.5 70.5t135 24q62 0 113 -20l-17 -93q-3 -10 -10 -14t-18 -5t-25.5 -0.5t-31.5 0.5q-42 0 -77.5 -11t-62.5 -37t-45.5 -69.5t-26.5 -108.5l-12 -89h413l11 89q10 85 44 160t90.5 131t134 88.5t175.5 32.5q51 0 100.5 -3t94.5 -6.5t85 -6.5t74 -4h17zM1493 222 q38 -53 91.5 -75.5t107.5 -22.5q52 0 98 22t84 59.5t68 88t50 108t31 119t11 121.5q0 119 -42.5 181t-120.5 62q-48 0 -97 -30t-95 -83.5t-85.5 -127t-68.5 -160.5z" />
<glyph unicode="fh" horiz-adv-x="1707" d="M980 789q79 118 175.5 178.5t196.5 60.5q65 0 114 -25.5t79.5 -74.5t41.5 -120.5t0 -162.5l-76 -645h-178l76 645q15 120 -14 178t-108 58q-45 0 -93 -24.5t-92.5 -69.5t-84 -109t-68.5 -143l-65 -535h-177l163 1354l-84 14t-82 7q-60 0 -109 -20.5t-86 -59t-60.5 -93 t-31.5 -121.5l-11 -88h247l-15 -128h-241l-103 -833l-47 -207q-11 -36 -32.5 -55.5t-59.5 -19.5h-70l138 1112l-99 12q-21 5 -32 14.5t-9 29.5l9 75h147l11 88q10 85 44 160t90 131t133.5 88.5t175.5 32.5q51 0 100.5 -3t94.5 -6.5t85 -6.5t74 -4h16z" />
<glyph unicode="ffh" horiz-adv-x="2288" d="M1562 789q79 118 175.5 178.5t196.5 60.5q65 0 114 -25.5t79.5 -74.5t41.5 -120.5t0 -162.5l-76 -645h-178l76 645q15 120 -14 178t-108 58q-45 0 -93 -24.5t-92.5 -69.5t-84 -109t-68.5 -143l-65 -535h-177l163 1354q-42 7 -84.5 14t-82.5 7q-60 0 -109.5 -20.5 t-86.5 -59t-60.5 -93t-30.5 -121.5l-11 -89h265l-16 -126h-259l-102 -834l-47 -207q-11 -36 -32.5 -55.5t-59.5 -19.5h-70l137 1116h-406l-101 -833l-47 -207q-11 -36 -32.5 -55.5t-59.5 -19.5h-70l136 1113l-100 13q-20 4 -31 14t-9 30l8 71h147l11 84q11 87 43 154.5 t80.5 114t111.5 70.5t135 24q62 0 113 -20l-17 -93q-3 -10 -10 -14t-18 -5t-25.5 -0.5t-31.5 0.5q-42 0 -77.5 -11t-62.5 -37t-45.5 -69.5t-26.5 -108.5l-12 -89h413l11 89q10 85 44 160t90.5 131t134 88.5t175.5 32.5q51 0 100.5 -3t94.5 -6.5t85 -6.5t74 -4h17z" />
<glyph unicode="f&#xec;" horiz-adv-x="1067" d="M405 993h567l-121 -993h-175l106 864h-387l-101 -831l-44 -207q-11 -36 -32.5 -55.5t-59.5 -19.5h-70l136 1110l-100 13q-21 5 -32 14.5t-9 29.5l8 75h149l15 124q20 166 99 255t207 89q20 0 41 -2t37 -7l-12 -94q-2 -16 -16 -20t-37 -4q-64 0 -101.5 -53t-51.5 -163z M827 1449q30 0 44 -10.5t24 -33.5l109 -242h-93q-19 0 -30.5 6.5t-22.5 21.5l-186 258h155z" />
<glyph unicode="f&#xee;" horiz-adv-x="1067" d="M405 993h567l-121 -993h-175l106 864h-387l-101 -831l-44 -207q-11 -36 -32.5 -55.5t-59.5 -19.5h-70l136 1110l-100 13q-21 5 -32 14.5t-9 29.5l8 75h149l15 124q20 166 99 255t207 89q20 0 41 -2t37 -7l-12 -94q-2 -16 -16 -20t-37 -4q-64 0 -101.5 -53t-51.5 -163z M1204 1169h-110q-10 0 -19.5 4t-18.5 15l-99 132q-3 5 -6.5 9.5t-6.5 9.5l-17 -19l-130 -132q-19 -19 -42 -19h-114l235 264h152z" />
<glyph unicode="f&#x129;" horiz-adv-x="1067" d="M405 993h567l-121 -993h-175l106 864h-387l-101 -831l-44 -207q-11 -36 -32.5 -55.5t-59.5 -19.5h-70l136 1110l-100 13q-21 5 -32 14.5t-9 29.5l8 75h149l15 124q20 166 99 255t207 89q20 0 41 -2t37 -7l-12 -94q-2 -16 -16 -20t-37 -4q-64 0 -101.5 -53t-51.5 -163z M1035 1325q67 0 79 86h100q-5 -47 -21 -86.5t-41 -67.5t-56.5 -43.5t-68.5 -15.5q-32 0 -58.5 14.5t-49.5 31.5t-43.5 31.5t-41.5 14.5q-67 0 -78 -88h-102q5 48 21.5 87.5t41.5 68t57 44t68 15.5q33 0 59 -14.5t49 -31.5t43.5 -31.5t41.5 -14.5z" />
<glyph unicode="f&#xef;" horiz-adv-x="1067" d="M878 1289q0 -21 -8.5 -39t-22.5 -31.5t-33.5 -21.5t-40.5 -8q-20 0 -38.5 8t-32.5 21.5t-22 31.5t-8 39q0 22 8 41t22 33t32.5 22.5t38.5 8.5q21 0 40.5 -8.5t33.5 -22.5t22.5 -33t8.5 -41zM1171 1289q0 -21 -8 -39t-22.5 -31.5t-33 -21.5t-39.5 -8t-40 8t-33 21.5 t-22 31.5t-8 39q0 22 8 41t22 33t33 22.5t40 8.5t39.5 -8.5t33 -22.5t22.5 -33t8 -41zM405 993h567l-121 -993h-175l106 864h-387l-101 -831l-44 -207q-11 -36 -32.5 -55.5t-59.5 -19.5h-70l136 1110l-100 13q-21 5 -32 14.5t-9 29.5l8 75h149l15 124q20 166 99 255t207 89 q20 0 41 -2t37 -7l-12 -94q-2 -16 -16 -20t-37 -4q-64 0 -101.5 -53t-51.5 -163z" />
<glyph unicode="f&#x12b;" horiz-adv-x="1067" d="M405 993h567l-121 -993h-175l106 864h-387l-101 -831l-44 -207q-11 -36 -32.5 -55.5t-59.5 -19.5h-70l136 1110l-100 13q-21 5 -32 14.5t-9 29.5l8 75h149l15 124q20 166 99 255t207 89q20 0 41 -2t37 -7l-12 -94q-2 -16 -16 -20t-37 -4q-64 0 -101.5 -53t-51.5 -163z M672 1348h528l-13 -117h-529z" />
<glyph unicode="f&#x12d;" horiz-adv-x="1067" d="M405 993h567l-121 -993h-175l106 864h-387l-101 -831l-44 -207q-11 -36 -32.5 -55.5t-59.5 -19.5h-70l136 1110l-100 13q-21 5 -32 14.5t-9 29.5l8 75h149l15 124q20 166 99 255t207 89q20 0 41 -2t37 -7l-12 -94q-2 -16 -16 -20t-37 -4q-64 0 -101.5 -53t-51.5 -163z M916 1164q-70 0 -116 21.5t-71.5 58t-33 85.5t-1.5 104h117q-4 -33 -1 -61.5t16.5 -48.5t38.5 -31.5t64 -11.5t66.5 11.5t45.5 31.5t27.5 48.5t13.5 61.5h116q-6 -55 -24.5 -104t-52 -85.5t-84.5 -58t-121 -21.5z" />
<glyph unicode="f&#x12f;" horiz-adv-x="1067" d="M857 -211q12 0 16 -13l20 -66q-32 -23 -76.5 -37.5t-92.5 -14.5q-78 0 -119.5 35t-41.5 93q0 63 42.5 117.5t110.5 96.5h-40l106 864h-386l-102 -832l-47 -207q-11 -36 -32.5 -55.5t-59.5 -19.5h-70l137 1112l-98 12q-21 5 -32 14.5t-9 29.5l8 75h147l7 56q11 93 48 170 t97.5 132t145 85.5t191.5 30.5q18 0 37.5 -1.5t39 -4t37 -6t30.5 -8.5l-18 -90q-2 -10 -9.5 -14t-19.5 -5t-28 0t-37 1q-83 0 -144 -18t-103 -54t-66.5 -91t-33.5 -130l-7 -53h567l-121 -993h-22q-21 -12 -43.5 -28.5t-40.5 -37.5t-30 -46t-12 -53q0 -32 19 -51t51 -19 q20 0 34 3.5t23.5 8t15.5 8.5t11 4z" />
<glyph unicode="f&#x131;" horiz-adv-x="1067" d="M405 993h567l-121 -993h-175l106 864h-387l-101 -831l-44 -207q-11 -36 -32.5 -55.5t-59.5 -19.5h-70l136 1110l-100 13q-21 5 -32 14.5t-9 29.5l8 75h149l15 124q20 166 99 255t207 89q20 0 41 -2t37 -7l-12 -94q-2 -16 -16 -20t-37 -4q-64 0 -101.5 -53t-51.5 -163z " />
<glyph unicode="ff&#xec;" horiz-adv-x="1648" d="M1537 868l-106 -868h-172l106 868h-388l-102 -835l-44 -207q-11 -36 -32.5 -55.5t-59.5 -19.5h-70l136 1117h-408l-102 -835l-46 -207q-11 -36 -32.5 -55.5t-59.5 -19.5h-70l136 1115l-99 13q-20 3 -31.5 13.5t-9.5 30.5l9 70h147l10 83q11 87 43 154.5t80.5 114 t111.5 70.5t135 24q61 0 113 -20l-17 -93q-3 -10 -10 -14t-18 -5t-25.5 -0.5t-31.5 0.5q-42 0 -77.5 -11t-63 -37t-46 -69.5t-26.5 -108.5l-12 -88h416l15 124q20 166 99 255t206 89q21 0 42 -2t36 -7l-11 -94q-2 -16 -16 -20t-38 -4q-64 0 -101 -53t-51 -163l-16 -125h567 l-15 -125h-1zM1407 1449q30 0 44 -10.5t24 -33.5l109 -242h-93q-19 0 -30.5 6.5t-22.5 21.5l-186 258h155z" />
<glyph unicode="ff&#xee;" horiz-adv-x="1648" d="M1537 868l-106 -868h-172l106 868h-388l-102 -835l-44 -207q-11 -36 -32.5 -55.5t-59.5 -19.5h-70l136 1117h-408l-102 -835l-46 -207q-11 -36 -32.5 -55.5t-59.5 -19.5h-70l136 1115l-99 13q-20 3 -31.5 13.5t-9.5 30.5l9 70h147l10 83q11 87 43 154.5t80.5 114 t111.5 70.5t135 24q61 0 113 -20l-17 -93q-3 -10 -10 -14t-18 -5t-25.5 -0.5t-31.5 0.5q-42 0 -77.5 -11t-63 -37t-46 -69.5t-26.5 -108.5l-12 -88h416l15 124q20 166 99 255t206 89q21 0 42 -2t36 -7l-11 -94q-2 -16 -16 -20t-38 -4q-64 0 -101 -53t-51 -163l-16 -125h567 l-15 -125h-1zM1778 1169h-110q-10 0 -19.5 4t-18.5 15l-99 132q-3 5 -6.5 9.5t-6.5 9.5l-17 -19l-130 -132q-19 -19 -42 -19h-114l235 264h152z" />
<glyph unicode="ff&#x129;" horiz-adv-x="1648" d="M1537 868l-106 -868h-172l106 868h-388l-102 -835l-44 -207q-11 -36 -32.5 -55.5t-59.5 -19.5h-70l136 1117h-408l-102 -835l-46 -207q-11 -36 -32.5 -55.5t-59.5 -19.5h-70l136 1115l-99 13q-20 3 -31.5 13.5t-9.5 30.5l9 70h147l10 83q11 87 43 154.5t80.5 114 t111.5 70.5t135 24q61 0 113 -20l-17 -93q-3 -10 -10 -14t-18 -5t-25.5 -0.5t-31.5 0.5q-42 0 -77.5 -11t-63 -37t-46 -69.5t-26.5 -108.5l-12 -88h416l15 124q20 166 99 255t206 89q21 0 42 -2t36 -7l-11 -94q-2 -16 -16 -20t-38 -4q-64 0 -101 -53t-51 -163l-16 -125h567 l-15 -125h-1zM1618 1325q67 0 79 86h100q-5 -47 -21 -86.5t-41 -67.5t-56.5 -43.5t-68.5 -15.5q-32 0 -58.5 14.5t-49.5 31.5t-43.5 31.5t-41.5 14.5q-67 0 -78 -88h-102q5 48 21.5 87.5t41.5 68t57 44t68 15.5q33 0 59 -14.5t49 -31.5t43.5 -31.5t41.5 -14.5z" />
<glyph unicode="ff&#xef;" horiz-adv-x="1647" d="M1491 1289q0 -21 -8.5 -39t-22.5 -31.5t-33 -21.5t-40 -8t-39.5 8t-32.5 21.5t-22 31.5t-8 39q0 22 8 41t22 33t32.5 22.5t39.5 8.5t40 -8.5t33 -22.5t22.5 -33t8.5 -41zM1784 1289q0 -21 -8.5 -39t-22.5 -31.5t-33 -21.5t-40 -8t-39.5 8t-32.5 21.5t-22 31.5t-8 39 q0 22 8 41t22 33t32.5 22.5t39.5 8.5t40 -8.5t33 -22.5t22.5 -33t8.5 -41zM1537 868l-106 -868h-172l106 868h-388l-102 -835l-44 -207q-11 -36 -32.5 -55.5t-59.5 -19.5h-70l136 1117h-408l-102 -835l-46 -207q-11 -36 -32.5 -55.5t-59.5 -19.5h-70l136 1115l-99 13 q-20 3 -31.5 13.5t-9.5 30.5l9 70h147l10 83q11 87 43 154.5t80.5 114t111.5 70.5t135 24q61 0 113 -20l-17 -93q-3 -10 -10 -14t-18 -5t-25.5 -0.5t-31.5 0.5q-42 0 -77.5 -11t-63 -37t-46 -69.5t-26.5 -108.5l-12 -88h416l15 124q20 166 99 255t206 89q21 0 42 -2t36 -7 l-11 -94q-2 -16 -16 -20t-38 -4q-64 0 -101 -53t-51 -163l-16 -125h567l-15 -125h-1z" />
<glyph unicode="ff&#x12b;" horiz-adv-x="1648" d="M1537 868l-106 -868h-172l106 868h-388l-102 -835l-44 -207q-11 -36 -32.5 -55.5t-59.5 -19.5h-70l136 1117h-408l-102 -835l-46 -207q-11 -36 -32.5 -55.5t-59.5 -19.5h-70l136 1115l-99 13q-20 3 -31.5 13.5t-9.5 30.5l9 70h147l10 83q11 87 43 154.5t80.5 114 t111.5 70.5t135 24q61 0 113 -20l-17 -93q-3 -10 -10 -14t-18 -5t-25.5 -0.5t-31.5 0.5q-42 0 -77.5 -11t-63 -37t-46 -69.5t-26.5 -108.5l-12 -88h416l15 124q20 166 99 255t206 89q21 0 42 -2t36 -7l-11 -94q-2 -16 -16 -20t-38 -4q-64 0 -101 -53t-51 -163l-16 -125h567 l-15 -125h-1zM1243 1348h528l-13 -117h-529z" />
<glyph unicode="ff&#x12d;" horiz-adv-x="1648" d="M1537 868l-106 -868h-172l106 868h-388l-102 -835l-44 -207q-11 -36 -32.5 -55.5t-59.5 -19.5h-70l136 1117h-408l-102 -835l-46 -207q-11 -36 -32.5 -55.5t-59.5 -19.5h-70l136 1115l-99 13q-20 3 -31.5 13.5t-9.5 30.5l9 70h147l10 83q11 87 43 154.5t80.5 114 t111.5 70.5t135 24q61 0 113 -20l-17 -93q-3 -10 -10 -14t-18 -5t-25.5 -0.5t-31.5 0.5q-42 0 -77.5 -11t-63 -37t-46 -69.5t-26.5 -108.5l-12 -88h416l15 124q20 166 99 255t206 89q21 0 42 -2t36 -7l-11 -94q-2 -16 -16 -20t-38 -4q-64 0 -101 -53t-51 -163l-16 -125h567 l-15 -125h-1zM1491 1164q-70 0 -116 21.5t-71.5 58t-33 85.5t-1.5 104h117q-4 -33 -1 -61.5t16.5 -48.5t38.5 -31.5t64 -11.5t66.5 11.5t45.5 31.5t27.5 48.5t13.5 61.5h116q-6 -55 -24.5 -104t-52 -85.5t-84.5 -58t-121 -21.5z" />
<glyph unicode="ff&#x12f;" horiz-adv-x="1648" d="M1537 868l-106 -868h-24q-21 -12 -43.5 -28.5t-40.5 -37.5t-30 -46t-12 -53q0 -32 19 -51t51 -19q20 0 34 3.5t23.5 8t15.5 8.5t11 4q12 0 16 -13l20 -66q-32 -23 -76.5 -37.5t-92.5 -14.5q-78 0 -119.5 35t-41.5 93q0 63 42.5 117.5t110.5 96.5h-35l106 868h-388 l-102 -836l-47 -207q-11 -36 -32.5 -55.5t-59.5 -19.5h-70l137 1118h-406l-102 -835l-46 -207q-11 -36 -32.5 -55.5t-59.5 -19.5h-70l136 1115l-99 13q-20 3 -31.5 13.5t-9.5 30.5l9 70h147l10 83q11 87 43 154.5t80.5 114t111.5 70.5t135 24q61 0 113 -20l-17 -93 q-3 -10 -10 -14t-18 -5t-25.5 -0.5t-31.5 0.5q-42 0 -77.5 -11t-63 -37t-46 -69.5t-26.5 -108.5l-12 -88h414l7 56q11 93 48 170t97.5 132t145 85.5t191.5 30.5q17 0 37 -1.5t39.5 -4t37 -6t29.5 -8.5l-17 -90q-2 -10 -9.5 -14t-19.5 -5t-28 0t-37 1q-165 0 -247 -72 t-100 -221l-7 -53h567l-15 -125h-1z" />
<glyph unicode="ff&#x131;" horiz-adv-x="1648" d="M1537 868l-106 -868h-172l106 868h-388l-102 -835l-44 -207q-11 -36 -32.5 -55.5t-59.5 -19.5h-70l136 1117h-408l-102 -835l-46 -207q-11 -36 -32.5 -55.5t-59.5 -19.5h-70l136 1115l-99 13q-20 3 -31.5 13.5t-9.5 30.5l9 70h147l10 83q11 87 43 154.5t80.5 114 t111.5 70.5t135 24q61 0 113 -20l-17 -93q-3 -10 -10 -14t-18 -5t-25.5 -0.5t-31.5 0.5q-42 0 -77.5 -11t-63 -37t-46 -69.5t-26.5 -108.5l-12 -88h416l15 124q20 166 99 255t206 89q21 0 42 -2t36 -7l-11 -94q-2 -16 -16 -20t-38 -4q-64 0 -101 -53t-51 -163l-16 -125h567 l-15 -125h-1z" />
<glyph unicode="fj" horiz-adv-x="1067" d="M971 993l-129 -1068q-8 -61 -30.5 -113.5t-60.5 -91.5t-90.5 -61.5t-119.5 -22.5q-35 0 -60 5t-49 15l18 96q3 9 8 13.5t12.5 5.5t19 0.5t28.5 -0.5q70 0 104 37t45 117l115 943h-384l-103 -836l-47 -207q-11 -36 -32.5 -55.5t-59.5 -19.5h-70l137 1117l-99 12 q-20 3 -31.5 13.5t-9.5 30.5l9 70h147l7 56q11 93 48 170t97.5 132t145 85.5t191.5 30.5q18 0 37.5 -1.5t39 -4t37 -6t30.5 -8.5l-18 -90q-2 -10 -9.5 -14t-19.5 -5t-28 0t-37 1q-83 0 -144 -18t-103 -54t-66.5 -91t-33.5 -130l-7 -53h565z" />
<glyph unicode="ffj" horiz-adv-x="1649" d="M405 993h414l7 56q11 93 48 170t97.5 132t145 85.5t191.5 30.5q17 0 37 -1.5t39.5 -4t37 -6t29.5 -8.5l-17 -90q-2 -10 -9.5 -14t-19.5 -5t-28 0t-37 1q-165 0 -247 -72t-100 -221l-7 -53h567l-15 -125l-114 -944q-8 -60 -30.5 -113t-60.5 -92t-91 -61.5t-120 -22.5 q-35 0 -59.5 5t-48.5 15l18 96q3 9 8 13.5t12.5 5.5t19 0.5t28.5 -0.5q70 0 104 37t45 117l115 944h-387l-102 -836l-47 -207q-11 -36 -32.5 -55.5t-59.5 -19.5h-70l137 1118h-406l-102 -835l-46 -207q-11 -36 -32.5 -55.5t-59.5 -19.5h-70l136 1115l-99 13 q-20 3 -31.5 13.5t-9.5 30.5l9 70h147l10 83q11 87 43 154.5t80.5 114t111.5 70.5t135 24q61 0 113 -20l-17 -93q-3 -10 -10 -14t-18 -5t-25.5 -0.5t-31.5 0.5q-42 0 -77.5 -11t-63 -37t-46 -69.5t-26.5 -108.5z" />
<glyph unicode="fk" horiz-adv-x="1595" d="M397 865l-103 -833l-47 -207q-11 -36 -32.5 -55.5t-59.5 -19.5h-70l138 1112l-99 12q-21 5 -32 14.5t-9 29.5l9 75h147l11 88q10 85 44 160t90 131t133.5 88.5t175.5 32.5q51 0 100.5 -3t94.5 -6.5t85 -6.5t74 -4h15l-106 -867h30q21 0 34 5.5t28 22.5l336 343 q14 17 30 26.5t39 9.5h158l-391 -397q-30 -35 -61 -53q16 -12 27.5 -27.5t21.5 -35.5l304 -500h-153q-22 0 -36.5 7.5t-23.5 27.5l-258 415q-12 21 -25 27.5t-41 6.5h-34l-59 -484h-176l166 1354q-42 6 -84.5 13.5t-83.5 7.5q-60 0 -109 -20.5t-86 -59t-60.5 -93 t-31.5 -121.5l-11 -88h247l-15 -128h-241z" />
<glyph unicode="ffk" horiz-adv-x="2179" d="M406 992h414l11 89q10 85 44 160t90.5 131t133.5 88.5t175 32.5q54 0 105.5 -3t98.5 -7t88.5 -7t75.5 -3h3l-106 -867h30q21 0 34 5.5t28 22.5l336 343q14 17 30 26.5t39 9.5h158l-391 -397q-30 -35 -61 -53q16 -12 27.5 -27.5t21.5 -35.5l304 -500h-153q-22 0 -36.5 7.5 t-23.5 27.5l-258 415q-12 21 -25 27.5t-41 6.5h-34l-59 -484h-176l166 1354q-42 6 -85.5 13.5t-84.5 7.5q-59 0 -108.5 -20.5t-86.5 -59t-60.5 -93t-30.5 -121.5l-11 -89h265l-16 -126h-259l-103 -834l-47 -207q-11 -36 -32.5 -55.5t-59.5 -19.5h-69l137 1116h-407 l-101 -833l-46 -207q-11 -36 -32.5 -55.5t-59.5 -19.5h-70l136 1113l-101 13q-20 4 -31 14t-9 30l9 71h147l11 84q11 87 43 154.5t80.5 114t111.5 70.5t135 24q61 0 113 -20l-17 -93q-3 -10 -10 -14t-18 -5t-25.5 -0.5t-31.5 0.5q-42 0 -77.5 -11t-63 -37t-46 -69.5 t-26.5 -108.5z" />
<glyph unicode="ft" horiz-adv-x="1309" d="M406 993h433l76 315q5 15 15.5 24.5t26.5 9.5h94l-43 -349h266l-14 -125h-268l-61 -502q-5 -41 -8 -66t-4.5 -40t-2 -21t-0.5 -9q0 -51 23.5 -75.5t64.5 -24.5q26 0 46 7.5t34.5 16.5t24.5 16.5t18 7.5q15 0 22 -17l37 -85q-48 -43 -110.5 -67.5t-125.5 -24.5 q-97 0 -153 53t-58 154q0 6 0.5 15.5t2 27.5t4.5 47t9 76l63 511h-420l-102 -835l-47 -207q-11 -36 -32.5 -55.5t-59.5 -19.5h-70l135 1116l-98 12q-20 3 -31.5 13.5t-9.5 30.5l9 70h146l12 98q11 87 43.5 154.5t82 114t113 70.5t137.5 24q61 0 113 -20l-17 -92 q-2 -10 -9 -14.5t-18.5 -5.5t-26 -0.5t-31.5 0.5q-43 0 -79.5 -12.5t-64.5 -40.5t-47.5 -73t-27.5 -110z" />
<glyph unicode="fft" horiz-adv-x="1890" d="M985 992h436l76 316q5 15 15.5 24.5t26.5 9.5h94l-44 -350h268l-16 -126h-267l-62 -500q-5 -41 -8 -66t-4.5 -40t-2 -21t-0.5 -9q0 -51 24 -75.5t65 -24.5q26 0 46 7.5t34.5 16.5t24.5 16.5t18 7.5t12.5 -4t9.5 -13l37 -85q-48 -43 -110.5 -67.5t-125.5 -24.5 q-97 0 -153 53t-58 154q0 6 0.5 15.5t2 27.5t4.5 47t9 76l63 509h-424l-101 -833l-47 -207q-11 -36 -32.5 -55.5t-59.5 -19.5h-70l134 1115h-404l-101 -833l-47 -207q-11 -36 -32.5 -55.5t-59.5 -19.5h-70l136 1114l-98 12q-20 4 -31.5 14t-9.5 30l9 71h145l11 84 q11 87 43 154.5t80.5 114t111.5 70.5t135 24q62 0 113 -20l-17 -93q-3 -10 -10 -14t-18 -5t-25.5 -0.5t-31.5 0.5q-42 0 -77 -11t-62.5 -37t-46 -69.5t-26.5 -108.5l-12 -89h410l14 110q11 87 43.5 154.5t82 114t113 70.5t137.5 24q61 0 113 -20l-17 -92q-3 -10 -10 -14 t-18 -5.5t-25.5 -1t-31.5 0.5q-43 0 -79 -12.5t-64 -40.5t-47 -73t-27 -110z" />
<glyph unicode="tf" horiz-adv-x="1274" d="M1024 992h267l-15 -126h-261l-101 -834l-47 -207q-11 -36 -32.5 -55.5t-59.5 -19.5h-70l136 1116h-449l-62 -500q-5 -41 -8 -66t-4.5 -40t-1.5 -21v-9q0 -51 23.5 -75.5t64.5 -24.5q26 0 46 7.5t34.5 16.5t24.5 16.5t18 7.5t12.5 -4t9.5 -13l37 -85q-48 -43 -110.5 -67.5 t-125.5 -24.5q-97 0 -153 53t-58 154q0 6 0.5 15.5t2 27.5t4.5 47t9 76l63 509h-110q-15 0 -24 10t-7 29l8 68l154 20l76 315q5 15 15.5 24.5t26.5 9.5h94l-44 -350h449l12 98q11 87 43.5 154.5t82 114t113 70.5t137.5 24q61 0 113 -20l-17 -92q-2 -10 -9.5 -14.5 t-18.5 -5.5t-25.5 -0.5t-31.5 0.5q-43 0 -79.5 -12.5t-65 -40.5t-47.5 -73t-27 -110z" />
<glyph unicode="t&#x12f;" horiz-adv-x="1147" d="M1007 1459q24 0 46 -10t39 -27.5t27.5 -41t10.5 -49.5t-10.5 -48.5t-28 -40t-40 -27.5t-45.5 -10q-24 0 -45.5 10t-38 27.5t-26.5 40t-10 48.5t10 49t27 40.5t38.5 28t45.5 10.5zM1052 992l-15 -126l-106 -866h-15q-21 -12 -43.5 -28.5t-41 -37.5t-30.5 -46.5t-12 -54.5 q0 -32 19.5 -51.5t52.5 -19.5q21 0 35 3.5t24 8t15.5 8.5t10.5 4q14 0 17 -12l18 -64q-31 -23 -75.5 -37.5t-91.5 -14.5q-76 0 -117.5 35t-41.5 93q0 63 43 118t110 96h-50l107 866h-473l-62 -500q-5 -41 -8 -66t-4.5 -40t-1.5 -21v-9q0 -51 23.5 -75.5t64.5 -24.5 q26 0 46 7.5t34.5 16.5t24.5 16.5t18 7.5t12.5 -4t9.5 -13l37 -85q-48 -43 -110.5 -67.5t-125.5 -24.5q-97 0 -153 53t-58 154q0 6 0.5 15.5t2 27.5t4.5 47t9 76l63 509h-110q-15 0 -24 10t-7 29l8 68l154 20l76 315q5 15 15.5 24.5t26.5 9.5h94l-43 -350h644z" />
<glyph unicode="t&#x131;" horiz-adv-x="1146" d="M1036 866l-106 -866h-173l107 866h-473l-62 -500q-5 -41 -8 -66t-4.5 -40t-2 -21t-0.5 -9q0 -51 24 -75.5t65 -24.5q26 0 46 7.5t34.5 16.5t24.5 16.5t18 7.5t12.5 -4t9.5 -13l37 -85q-48 -43 -110.5 -67.5t-125.5 -24.5q-97 0 -153 53t-58 154q0 6 0.5 15.5t2 27.5 t4.5 47t9 76l63 509h-110q-15 0 -24 10t-7 29l8 68l154 20l76 315q5 15 15.5 24.5t26.5 9.5h94l-43 -350h644z" />
<glyph unicode="tt" horiz-adv-x="1307" d="M138 191q0 6 0.5 15.5t2 27.5t4.5 47t9 76l63 509h-110q-15 0 -24 10t-7 29l8 68l154 20l76 315q5 15 15.5 24.5t26.5 9.5h94l-44 -350h431l77 316q5 15 15.5 24.5t26.5 9.5h93l-43 -350h265l-16 -126h-265l-61 -500q-5 -41 -8 -66t-4.5 -40t-2 -21t-0.5 -9 q0 -51 24 -75.5t64 -24.5q27 0 46.5 7.5t34.5 16.5t25 16.5t17 7.5q9 0 13.5 -4t8.5 -13l38 -85q-49 -43 -111.5 -67.5t-125.5 -24.5q-97 0 -152.5 53t-57.5 154q0 6 0.5 15.5t2 27.5t4.5 47t9 76l62 509h-425l-62 -500q-5 -41 -8 -66t-4.5 -40t-2 -21t-0.5 -9 q0 -51 24 -75.5t65 -24.5q26 0 46 7.5t34.5 16.5t24.5 16.5t18 7.5t12.5 -4t9.5 -13l37 -85q-48 -43 -110.5 -67.5t-125.5 -24.5q-97 0 -153 53t-58 154z" />
<glyph unicode="ttf" horiz-adv-x="1873" d="M1467 1090q11 87 43.5 154.5t82 114t113 70.5t137.5 24q61 0 113 -20l-17 -92q-2 -10 -9 -14.5t-18.5 -5.5t-26 -0.5t-31.5 0.5q-43 0 -79.5 -12.5t-65 -40.5t-47.5 -73t-27 -110l-11 -93h266l-15 -126h-260l-102 -834l-47 -207q-11 -36 -32.5 -55.5t-59.5 -19.5h-70 l136 1116h-449l-61 -500q-5 -41 -8 -66t-4.5 -40t-2 -21t-0.5 -9q0 -51 23.5 -75.5t64.5 -24.5q26 0 46 7.5t34.5 16.5t24.5 16.5t18 7.5q15 0 22 -17l37 -85q-48 -43 -110.5 -67.5t-125.5 -24.5q-97 0 -153 53t-58 154q0 6 0.5 15.5t2 27.5t4.5 47t9 76l63 509h-425 l-62 -500q-5 -41 -8 -66t-4.5 -40t-1.5 -21v-9q0 -51 23.5 -75.5t64.5 -24.5q26 0 46 7.5t34.5 16.5t24.5 16.5t18 7.5t12.5 -4t9.5 -13l37 -85q-48 -43 -110.5 -67.5t-125.5 -24.5q-97 0 -153 53t-58 154q0 6 0.5 15.5t2 27.5t4.5 47t9 76l63 509h-110q-15 0 -24 10t-7 29 l8 68l154 20l76 315q5 15 15.5 24.5t26.5 9.5h94l-43 -350h430l76 316q5 15 15.5 24.5t27.5 9.5h93l-43 -350h448z" />
<glyph unicode="tt&#x12f;" horiz-adv-x="1728" d="M1633 992l-15 -126l-107 -865l5 -1q-21 -12 -43.5 -28.5t-40.5 -37.5t-30 -46t-12 -53q0 -32 19 -51t51 -19q20 0 34 3.5t23.5 8t15.5 8.5t11 4q12 0 16 -13l20 -66q-32 -23 -76.5 -37.5t-92.5 -14.5q-78 0 -119.5 35t-41.5 93q0 63 42.5 117.5t111.5 96.5h-65l107 866 h-455l-61 -500q-5 -41 -8 -66t-4.5 -40t-2 -21t-0.5 -9q0 -51 23.5 -75.5t64.5 -24.5q26 0 46 7.5t34.5 16.5t24.5 16.5t18 7.5q15 0 22 -17l37 -85q-48 -43 -110.5 -67.5t-125.5 -24.5q-97 0 -153 53t-58 154q0 6 0.5 15.5t2 27.5t4.5 47t9 76l63 509h-425l-62 -500 q-5 -41 -8 -66t-4.5 -40t-1.5 -21v-9q0 -51 23.5 -75.5t64.5 -24.5q26 0 46 7.5t34.5 16.5t24.5 16.5t18 7.5t12.5 -4t9.5 -13l37 -85q-48 -43 -110.5 -67.5t-125.5 -24.5q-97 0 -153 53t-58 154q0 6 0.5 15.5t2 27.5t4.5 47t9 76l63 509h-110q-15 0 -24 10t-7 29l8 68 l154 20l76 315q5 15 15.5 24.5t26.5 9.5h94l-43 -350h430l76 316q5 15 15.5 24.5t27.5 9.5h93l-43 -350h626zM1588 1459q24 0 46.5 -10t39.5 -27.5t27.5 -41t10.5 -49.5t-10.5 -48.5t-28 -40t-40 -27.5t-46.5 -10q-23 0 -45 10t-38.5 27.5t-26.5 40t-10 48.5t10 49t27 40.5 t39 28t45 10.5z" />
<glyph unicode="tt&#x131;" horiz-adv-x="1727" d="M1510 0h-172l107 866h-455l-61 -500q-5 -41 -8 -66t-4.5 -40t-2 -21t-0.5 -9q0 -51 23.5 -75.5t64.5 -24.5q26 0 46 7.5t34.5 16.5t24.5 16.5t18 7.5q15 0 22 -17l37 -85q-48 -43 -110.5 -67.5t-125.5 -24.5q-97 0 -153 53t-58 154q0 6 0.5 15.5t2 27.5t4.5 47t9 76 l63 509h-425l-62 -500q-5 -41 -8 -66t-4.5 -40t-2 -21t-0.5 -9q0 -51 24 -75.5t65 -24.5q26 0 46 7.5t34.5 16.5t24.5 16.5t18 7.5t12.5 -4t9.5 -13l37 -85q-48 -43 -110.5 -67.5t-125.5 -24.5q-97 0 -153 53t-58 154q0 6 0.5 15.5t2 27.5t4.5 47t9 76l63 509h-110 q-15 0 -24 10t-7 29l8 68l154 20l76 315q5 15 15.5 24.5t26.5 9.5h94l-43 -350h430l76 316q5 15 15.5 24.5t26.5 9.5h94l-43 -350h626z" />
<glyph unicode="f&#x1d0;" horiz-adv-x="1065" d="M403 993h567l-121 -993h-173l106 864h-390l-101 -831l-44 -207q-11 -36 -32.5 -55.5t-59.5 -19.5h-70l136 1112l-97 12q-20 4 -31.5 14t-9.5 30l9 74h145l16 124q20 166 99 255t206 89q20 0 41 -2t37 -7l-11 -94q-2 -16 -16.5 -20t-37.5 -4q-64 0 -101 -53t-51 -163z M988 1169h-159l-158 262h119q12 0 22 -3.5t14 -10.5l83 -129l12 -25l20 25l115 129q5 7 16.5 10.5t23.5 3.5h115z" />
<glyph unicode="f&#x209;" horiz-adv-x="1065" d="M404 993h413v-1h153l-121 -992h-173l106 864h-388l-101 -831l-44 -207q-11 -36 -32.5 -55.5t-59.5 -19.5h-70l136 1111l-99 12q-21 5 -32 14.5t-9 29.5l8 75h148l15 124q11 94 40 159.5t72.5 106.5t100.5 59.5t126 18.5q30 0 51.5 -2.5t37 -9t26.5 -17.5t20 -27l135 -241 h-82q-20 0 -32 6t-23 20l-103 144q-53 1 -88 -10t-58.5 -36.5t-36.5 -67.5t-20 -102zM939 1448q32 0 46.5 -10.5t23.5 -32.5l95 -241h-71q-20 0 -33 5.5t-23 20.5l-152 258h114z" />
<glyph unicode="f&#x20b;" horiz-adv-x="1065" d="M403 993h567l-121 -993h-173l106 864h-390l-101 -831l-44 -207q-11 -36 -32.5 -55.5t-59.5 -19.5h-70l136 1112l-97 12q-20 4 -31.5 14t-9.5 30l9 74h145l16 124q20 166 99 255t206 89q20 0 41 -2t37 -7l-11 -94q-2 -16 -16.5 -20t-37.5 -4q-64 0 -101 -53t-51 -163z M942 1442q71 0 117.5 -21.5t72.5 -58t33.5 -85t0.5 -102.5h-121q4 33 1 61.5t-16 49.5t-37.5 32.5t-62.5 11.5t-65.5 -11.5t-45.5 -32.5t-28 -49.5t-14 -61.5h-122q7 54 26 102.5t53.5 85t85.5 58t122 21.5z" />
<glyph unicode="f&#x1e2f;" horiz-adv-x="1067" d="M405 993h567l-121 -993h-175l106 864h-387l-101 -831l-44 -207q-11 -36 -32.5 -55.5t-59.5 -19.5h-70l136 1110l-100 13q-21 5 -32 14.5t-9 29.5l8 75h149l15 124q20 166 99 255t207 89q20 0 41 -2t37 -7l-12 -94q-2 -16 -16 -20t-37 -4q-64 0 -101.5 -53t-51.5 -163z M1253 1591l-229 -224q-14 -15 -28.5 -20.5t-34.5 -5.5h-102l146 207q15 22 31.5 32.5t48.5 10.5h168zM865 1208q0 -20 -8.5 -38t-22.5 -31.5t-32 -21t-38 -7.5t-38.5 7.5t-32 21t-21.5 31.5t-8 38q0 21 8 39.5t21.5 32.5t32 22t38.5 8t38 -8t32 -22t22.5 -32.5t8.5 -39.5z M1168 1208q0 -20 -8 -38t-22 -31.5t-32 -21t-39 -7.5q-20 0 -38 7.5t-31.5 21t-21.5 31.5t-8 38q0 21 8 39.5t21.5 32.5t31.5 22t38 8q21 0 39 -8t32 -22t22 -32.5t8 -39.5z" />
<glyph unicode="ff&#x1d0;" horiz-adv-x="1647" d="M985 993h568l-15 -127h-1l-106 -866h-172l105 866h-389l-102 -833l-43 -207q-11 -36 -32.5 -55.5t-59.5 -19.5h-70l136 1115h-408l-101 -833l-46 -207q-11 -36 -32.5 -55.5t-59.5 -19.5h-70l136 1114l-99 12q-20 4 -31.5 14t-9.5 30l9 72h147l10 83q11 87 43 154.5 t80.5 114t111.5 70.5t135 24q61 0 113 -20l-17 -93q-3 -10 -10 -14t-18 -5t-25.5 -0.5t-31.5 0.5q-42 0 -77.5 -11t-63 -37t-46 -69.5t-26.5 -108.5l-12 -88h415l15 124q20 166 99 255t206 89q21 0 42 -2t36 -7l-11 -94q-2 -16 -16 -20t-38 -4q-64 0 -101 -53t-51 -163z M1571 1169h-160l-158 262h120q11 0 21.5 -3.5t13.5 -10.5l84 -129l12 -25l19 25l116 129q5 7 16 10.5t23 3.5h116z" />
<glyph unicode="ff&#x209;" horiz-adv-x="1650" d="M408 993h415l15 124q12 94 40.5 159.5t72 106.5t100.5 59.5t126 18.5q30 0 51.5 -2.5t37 -9t26.5 -17.5t20 -27l136 -241h-83q-20 0 -32 6t-23 20l-102 144q-53 1 -88 -10t-58.5 -36.5t-36.5 -67.5t-21 -102l-16 -125h566v-1h1l-122 -992h-172l105 866h-388l-101 -833 l-44 -207q-11 -36 -32.5 -55.5t-59.5 -19.5h-70l136 1115h-408l-100 -833l-47 -207q-11 -36 -32.5 -55.5t-59.5 -19.5h-70l136 1113l-104 13q-20 4 -31 14t-9 30l9 72h151l10 83q11 87 43 154.5t80.5 114t111.5 70.5t135 24q62 0 113 -20l-17 -93q-3 -10 -10 -14t-18 -5 t-25.5 -0.5t-31.5 0.5q-42 0 -77.5 -11t-63 -37t-46 -69.5t-26.5 -108.5zM1524 1448q31 0 45.5 -10.5t23.5 -32.5l96 -241h-72q-20 0 -32.5 5.5t-23.5 20.5l-151 258h114z" />
<glyph unicode="ff&#x20b;" horiz-adv-x="1647" d="M985 993h568l-15 -127h-1l-106 -866h-172l105 866h-389l-102 -833l-43 -207q-11 -36 -32.5 -55.5t-59.5 -19.5h-70l136 1115h-408l-101 -833l-46 -207q-11 -36 -32.5 -55.5t-59.5 -19.5h-70l136 1114l-99 12q-20 4 -31.5 14t-9.5 30l9 72h147l10 83q11 87 43 154.5 t80.5 114t111.5 70.5t135 24q61 0 113 -20l-17 -93q-3 -10 -10 -14t-18 -5t-25.5 -0.5t-31.5 0.5q-42 0 -77.5 -11t-63 -37t-46 -69.5t-26.5 -108.5l-12 -88h415l15 124q20 166 99 255t206 89q21 0 42 -2t36 -7l-11 -94q-2 -16 -16 -20t-38 -4q-64 0 -101 -53t-51 -163z M1517 1442q71 0 117 -21.5t72 -58t33.5 -85t1.5 -102.5h-122q4 33 1 61.5t-16 49.5t-37 32.5t-62 11.5t-65.5 -11.5t-45.5 -32.5t-28 -49.5t-14 -61.5h-122q7 54 26 102.5t53.5 85t85.5 58t122 21.5z" />
<glyph unicode="ff&#x1e2f;" horiz-adv-x="1647" d="M985 993h568l-122 -993h-175l106 866h-387l-101 -833l-44 -207q-11 -36 -32.5 -55.5t-59.5 -19.5h-70l136 1115h-407l-101 -833l-47 -207q-11 -36 -32.5 -55.5t-59.5 -19.5h-70l136 1113l-100 13q-20 4 -31 14t-9 30l9 72h147l10 83q11 87 43 154.5t80.5 114t111.5 70.5 t135 24q62 0 113 -20l-17 -93q-3 -10 -10 -14t-18 -5t-25.5 -0.5t-31.5 0.5q-42 0 -77.5 -11t-62.5 -37t-45.5 -69.5t-26.5 -108.5l-12 -88h414l15 124q20 166 99 255t206 89q21 0 42 -2t36 -7l-11 -94q-2 -16 -16 -20t-38 -4q-64 0 -101 -53t-51 -163zM1833 1591l-229 -224 q-14 -15 -28 -20.5t-34 -5.5h-103l146 207q15 22 32 32.5t48 10.5h168zM1748 1208q0 -20 -8 -38t-22 -31.5t-32 -21t-39 -7.5q-20 0 -38 7.5t-31.5 21t-21.5 31.5t-8 38q0 21 8 39.5t21.5 32.5t31.5 22t38 8q21 0 39 -8t32 -22t22 -32.5t8 -39.5zM1445 1208q0 -20 -8 -38 t-22 -31.5t-32.5 -21t-38.5 -7.5t-38 7.5t-31.5 21t-21.5 31.5t-8 38q0 21 8 39.5t21.5 32.5t31.5 22t38 8t38.5 -8t32.5 -22t22 -32.5t8 -39.5z" />
<glyph unicode="f&#x237;" horiz-adv-x="1067" d="M405 993h566l-129 -1068q-8 -61 -30.5 -113.5t-60.5 -91.5t-90.5 -61.5t-119.5 -22.5q-35 0 -60 5t-49 15l18 96q3 9 8 13.5t12.5 5.5t19 0.5t28.5 -0.5q70 0 104 37t45 117l115 943h-386l-102 -835l-44 -207q-11 -36 -32.5 -55.5t-59.5 -19.5h-70l136 1115l-100 13 q-20 3 -31.5 13.5t-9.5 30.5l9 70h148l15 124q20 166 99 255t207 89q20 0 41 -2t36 -7l-11 -94q-2 -16 -16 -20t-38 -4q-63 0 -100.5 -53t-51.5 -163z" />
<glyph unicode="ff&#x237;" horiz-adv-x="1649" d="M986 993h567l-15 -125l-114 -944q-8 -60 -30.5 -113t-60.5 -92t-91 -61.5t-120 -22.5q-35 0 -59.5 5t-48.5 15l18 96q3 9 8 13.5t12.5 5.5t19 0.5t28.5 -0.5q70 0 104 37t45 117l115 944h-388l-102 -835l-44 -207q-11 -36 -32.5 -55.5t-59.5 -19.5h-70l136 1117h-407 l-102 -835l-46 -207q-11 -36 -32.5 -55.5t-59.5 -19.5h-70l136 1115l-99 13q-20 3 -31.5 13.5t-9.5 30.5l9 70h147l10 83q11 87 43 154.5t80.5 114t111.5 70.5t135 24q61 0 113 -20l-17 -93q-3 -10 -10 -14t-18 -5t-25.5 -0.5t-31.5 0.5q-42 0 -77.5 -11t-63 -37t-46 -69.5 t-26.5 -108.5l-12 -88h415l15 124q20 166 99.5 255t206.5 89q20 0 41 -2t37 -7l-11 -94q-2 -16 -16.5 -20t-37.5 -4q-64 0 -101.5 -53t-50.5 -163z" />
<glyph unicode="f&#x135;" horiz-adv-x="1067" d="M405 993h566l-129 -1068q-8 -61 -30.5 -113.5t-60.5 -91.5t-90.5 -61.5t-119.5 -22.5q-35 0 -60 5t-49 15l18 96q3 9 8 13.5t12.5 5.5t19 0.5t28.5 -0.5q70 0 104 37t45 117l115 943h-386l-102 -835l-44 -207q-11 -36 -32.5 -55.5t-59.5 -19.5h-70l136 1115l-100 13 q-20 3 -31.5 13.5t-9.5 30.5l9 70h148l15 124q20 166 99 255t207 89q20 0 41 -2t36 -7l-11 -94q-2 -16 -16 -20t-38 -4q-63 0 -100.5 -53t-51.5 -163zM1198 1169h-110q-10 0 -19.5 4t-18.5 15l-99 132q-3 5 -6.5 9.5t-6.5 9.5l-17 -19l-130 -132q-19 -19 -42 -19h-114 l235 264h152z" />
<glyph unicode="f&#x13e;" horiz-adv-x="1098" d="M1307 1473q17 0 22.5 -7.5t5.5 -17.5t-4 -25t-15.5 -43.5t-33 -75.5t-57.5 -120q-11 -22 -26.5 -28.5t-38.5 -6.5h-44l93 324h98zM397 865l-103 -833l-47 -207q-11 -36 -32.5 -55.5t-59.5 -19.5h-70l137 1112l-98 12q-21 5 -32 14.5t-9 29.5l9 75h146l7 55q10 84 43 159 t87.5 131t130.5 88.5t173 32.5q72 0 136.5 -6t127.5 -7h120l-178 -1446h-173l161 1316q-45 4 -92 9t-91 5q-117 0 -189.5 -73.5t-88.5 -208.5l-6 -55h238l-15 -128h-232z" />
<glyph unicode="f&#x13c;" horiz-adv-x="1098" d="M397 865l-103 -833l-47 -207q-11 -36 -32.5 -55.5t-59.5 -19.5h-70l137 1112l-98 12q-21 5 -32 14.5t-9 29.5l9 75h146l7 55q10 84 43 159t87.5 131t130.5 88.5t173 32.5q72 0 136.5 -6t127.5 -7h120l-178 -1446h-173l161 1316q-45 4 -92 9t-91 5q-117 0 -189.5 -73.5 t-88.5 -208.5l-6 -55h238l-15 -128h-232zM835 -96q18 0 23.5 -8t5.5 -18q0 -11 -4 -28t-14 -44t-27.5 -66t-43.5 -93q-11 -22 -27 -29t-40 -7h-62l81 293h108z" />
<glyph unicode="f&#x21b;" horiz-adv-x="1309" d="M406 993h433l76 315q5 15 15.5 24.5t26.5 9.5h94l-43 -349h266l-14 -125h-268l-61 -502q-5 -41 -8 -66t-4.5 -40t-2 -21t-0.5 -9q0 -51 23.5 -75.5t64.5 -24.5q26 0 46 7.5t34.5 16.5t24.5 16.5t18 7.5q15 0 22 -17l37 -85q-48 -43 -110.5 -67.5t-125.5 -24.5 q-97 0 -153 53t-58 154q0 6 0.5 15.5t2 27.5t4.5 47t9 76l63 511h-420l-102 -835l-47 -207q-11 -36 -32.5 -55.5t-59.5 -19.5h-70l135 1116l-98 12q-20 3 -31.5 13.5t-9.5 30.5l9 70h146l12 98q11 87 43.5 154.5t82 114t113 70.5t137.5 24q61 0 113 -20l-17 -92 q-2 -10 -9 -14.5t-18.5 -5.5t-26 -0.5t-31.5 0.5q-43 0 -79.5 -12.5t-64.5 -40.5t-47.5 -73t-27.5 -110zM962 -96q18 0 23.5 -8t5.5 -18q0 -11 -4 -28t-14 -44t-27.5 -66t-43.5 -93q-11 -22 -27 -29t-40 -7h-62l81 293h108z" />
<glyph unicode="f&#x165;" horiz-adv-x="1309" d="M1317 1473q17 0 23 -7.5t6 -17.5t-4 -25t-15.5 -43.5t-33 -75.5t-57.5 -120q-12 -22 -27 -28.5t-38 -6.5h-44l93 324h97zM406 993h433l76 315q5 15 15.5 24.5t26.5 9.5h94l-43 -349h266l-14 -125h-268l-61 -502q-5 -41 -8 -66t-4.5 -40t-2 -21t-0.5 -9q0 -51 23.5 -75.5 t64.5 -24.5q26 0 46 7.5t34.5 16.5t24.5 16.5t18 7.5q15 0 22 -17l37 -85q-48 -43 -110.5 -67.5t-125.5 -24.5q-97 0 -153 53t-58 154q0 6 0.5 15.5t2 27.5t4.5 47t9 76l63 511h-420l-102 -835l-47 -207q-11 -36 -32.5 -55.5t-59.5 -19.5h-70l135 1116l-98 12 q-20 3 -31.5 13.5t-9.5 30.5l9 70h146l12 98q11 87 43.5 154.5t82 114t113 70.5t137.5 24q61 0 113 -20l-17 -92q-2 -10 -9 -14.5t-18.5 -5.5t-26 -0.5t-31.5 0.5q-43 0 -79.5 -12.5t-64.5 -40.5t-47.5 -73t-27.5 -110z" />
<glyph unicode="f&#x1ecb;" horiz-adv-x="1067" d="M405 993h567l-121 -993h-175l106 864h-386l-102 -832l-47 -207q-11 -36 -32.5 -55.5t-59.5 -19.5h-70l137 1112l-98 12q-21 5 -32 14.5t-9 29.5l8 75h147l7 56q11 93 48 170t97.5 132t145 85.5t191.5 30.5q18 0 37.5 -1.5t39 -4t37 -6t30.5 -8.5l-18 -90q-2 -10 -9.5 -14 t-19.5 -5t-28 0t-37 1q-83 0 -144 -18t-103 -54t-66.5 -91t-33.5 -130zM843 -256q0 -24 -10 -45t-26 -37t-37 -25.5t-43 -9.5t-42 9.5t-35.5 25.5t-25 37t-9.5 45t9.5 45.5t25 38t36 26t42.5 9.5t43 -9.5t37 -25.5t25.5 -38t9.5 -46z" />
<glyph unicode="f&#x1e2d;" horiz-adv-x="1067" d="M405 993h567l-121 -993h-175l106 864h-386l-102 -832l-47 -207q-11 -36 -32.5 -55.5t-59.5 -19.5h-70l137 1112l-98 12q-21 5 -32 14.5t-9 29.5l8 75h147l7 56q11 93 48 170t97.5 132t145 85.5t191.5 30.5q18 0 37.5 -1.5t39 -4t37 -6t30.5 -8.5l-18 -90q-2 -10 -9.5 -14 t-19.5 -5t-28 0t-37 1q-83 0 -144 -18t-103 -54t-66.5 -91t-33.5 -130zM870 -179q67 0 79 86h100q-5 -47 -21 -86.5t-41 -67.5t-56.5 -43.5t-68.5 -15.5q-32 0 -58.5 14.5t-49.5 31.5t-43.5 31.5t-41.5 14.5q-67 0 -78 -88h-102q5 48 21.5 87.5t41.5 68t57 44t68 15.5 q33 0 59 -14.5t49 -31.5t43.5 -31.5t41.5 -14.5z" />
<glyph unicode="f&#x268;" horiz-adv-x="1132" d="M745 564l37 300h-386l-102 -832l-47 -207q-11 -36 -32.5 -55.5t-59.5 -19.5h-70l137 1112l-98 12q-21 5 -32 14.5t-9 29.5l8 75h147l7 56q11 93 48 170t97.5 132t145 85.5t191.5 30.5q18 0 37.5 -1.5t39 -4t37 -6t30.5 -8.5l-18 -90q-2 -10 -9.5 -14t-19.5 -5t-28 0 t-37 1q-83 0 -144 -18t-103 -54t-66.5 -91t-33.5 -130l-7 -53h567l-52 -429h162l-16 -126h-162l-53 -438h-175l53 438h-114l15 126h115z" />
<glyph unicode="f&#xed;" horiz-adv-x="1067" d="M405 993h567l-121 -993h-175l106 864h-387l-101 -831l-44 -207q-11 -36 -32.5 -55.5t-59.5 -19.5h-70l136 1110l-100 13q-21 5 -32 14.5t-9 29.5l8 75h149l15 124q20 166 99 255t207 89q20 0 41 -2t37 -7l-12 -94q-2 -16 -16 -20t-37 -4q-64 0 -101.5 -53t-51.5 -163z M1192 1449l-244 -258q-14 -15 -27 -21.5t-32 -6.5h-98l163 242q15 23 31.5 33.5t46.5 10.5h160z" />
<glyph unicode="f&#x1ec9;" horiz-adv-x="1067" d="M405 993h567l-121 -993h-175l106 864h-387l-101 -831l-44 -207q-11 -36 -32.5 -55.5t-59.5 -19.5h-70l136 1110l-100 13q-21 5 -32 14.5t-9 29.5l8 75h149l15 124q20 166 99 255t207 89q20 0 41 -2t37 -7l-12 -94q-2 -16 -16 -20t-37 -4q-64 0 -101.5 -53t-51.5 -163z M775 1418q29 23 74 36.5t96 13.5q41 0 70.5 -9.5t48 -26.5t25.5 -40t4 -50q-5 -49 -39.5 -85t-84.5 -55l-24 -82h-79l15 132q50 7 71 26.5t23 44.5q2 23 -11 40.5t-50 17.5q-18 0 -32.5 -4.5t-26 -9.5t-20 -9.5t-14.5 -4.5q-8 0 -12.5 4.5t-8.5 12.5z" />
<glyph unicode="ff&#x1ecb;" horiz-adv-x="1648" d="M1537 868l-106 -868h-172l106 868h-388l-102 -836l-47 -207q-11 -36 -32.5 -55.5t-59.5 -19.5h-70l137 1118h-406l-102 -835l-46 -207q-11 -36 -32.5 -55.5t-59.5 -19.5h-70l136 1115l-99 13q-20 3 -31.5 13.5t-9.5 30.5l9 70h147l10 83q11 87 43 154.5t80.5 114 t111.5 70.5t135 24q61 0 113 -20l-17 -93q-3 -10 -10 -14t-18 -5t-25.5 -0.5t-31.5 0.5q-42 0 -77.5 -11t-63 -37t-46 -69.5t-26.5 -108.5l-12 -88h414l7 56q11 93 48 170t97.5 132t145 85.5t191.5 30.5q17 0 37 -1.5t39.5 -4t37 -6t29.5 -8.5l-17 -90q-2 -10 -9.5 -14 t-19.5 -5t-28 0t-37 1q-165 0 -247 -72t-100 -221l-7 -53h567l-15 -125h-1zM1425 -256q0 -24 -10 -45t-26 -37t-37 -25.5t-43 -9.5t-42 9.5t-35.5 25.5t-25 37t-9.5 45t9.5 45.5t25 38t36 26t42.5 9.5t43 -9.5t37 -25.5t25.5 -38t9.5 -46z" />
<glyph unicode="ff&#x1e2d;" horiz-adv-x="1648" d="M1537 868l-106 -868h-172l106 868h-388l-102 -836l-47 -207q-11 -36 -32.5 -55.5t-59.5 -19.5h-70l137 1118h-406l-102 -835l-46 -207q-11 -36 -32.5 -55.5t-59.5 -19.5h-70l136 1115l-99 13q-20 3 -31.5 13.5t-9.5 30.5l9 70h147l10 83q11 87 43 154.5t80.5 114 t111.5 70.5t135 24q61 0 113 -20l-17 -93q-3 -10 -10 -14t-18 -5t-25.5 -0.5t-31.5 0.5q-42 0 -77.5 -11t-63 -37t-46 -69.5t-26.5 -108.5l-12 -88h414l7 56q11 93 48 170t97.5 132t145 85.5t191.5 30.5q17 0 37 -1.5t39.5 -4t37 -6t29.5 -8.5l-17 -90q-2 -10 -9.5 -14 t-19.5 -5t-28 0t-37 1q-165 0 -247 -72t-100 -221l-7 -53h567l-15 -125h-1zM1425 -179q67 0 79 86h100q-5 -47 -21 -86.5t-41 -67.5t-56.5 -43.5t-68.5 -15.5q-32 0 -58.5 14.5t-49.5 31.5t-43.5 31.5t-41.5 14.5q-67 0 -78 -88h-102q5 48 21.5 87.5t41.5 68t57 44t68 15.5 q33 0 59 -14.5t49 -31.5t43.5 -31.5t41.5 -14.5z" />
<glyph unicode="ff&#x268;" horiz-adv-x="1677" d="M1328 564l37 304h-388l-102 -836l-47 -207q-11 -36 -32.5 -55.5t-59.5 -19.5h-70l137 1118h-406l-102 -835l-46 -207q-11 -36 -32.5 -55.5t-59.5 -19.5h-70l136 1115l-99 13q-20 3 -31.5 13.5t-9.5 30.5l9 70h147l10 83q11 87 43 154.5t80.5 114t111.5 70.5t135 24 q61 0 113 -20l-17 -93q-3 -10 -10 -14t-18 -5t-25.5 -0.5t-31.5 0.5q-42 0 -77.5 -11t-63 -37t-46 -69.5t-26.5 -108.5l-12 -88h414l7 56q11 93 48 170t97.5 132t145 85.5t191.5 30.5q17 0 37 -1.5t39.5 -4t37 -6t29.5 -8.5l-17 -90q-2 -10 -9.5 -14t-19.5 -5t-28 0t-37 1 q-165 0 -247 -72t-100 -221l-7 -53h567l-15 -125h-1l-37 -304h140l-16 -126h-140l-53 -438h-172l53 438h-139l15 126h140z" />
<glyph unicode="ff&#xed;" horiz-adv-x="1647" d="M1537 868l-106 -868h-172l106 868h-388l-102 -835l-44 -207q-11 -36 -32.5 -55.5t-59.5 -19.5h-70l136 1117h-408l-102 -835l-46 -207q-11 -36 -32.5 -55.5t-59.5 -19.5h-70l136 1115l-99 13q-20 3 -31.5 13.5t-9.5 30.5l9 70h147l10 83q11 87 43 154.5t80.5 114 t111.5 70.5t135 24q61 0 113 -20l-17 -93q-3 -10 -10 -14t-18 -5t-25.5 -0.5t-31.5 0.5q-42 0 -77.5 -11t-63 -37t-46 -69.5t-26.5 -108.5l-12 -88h416l15 124q20 166 99 255t206 89q21 0 42 -2t36 -7l-11 -94q-2 -16 -16 -20t-38 -4q-64 0 -101 -53t-51 -163l-16 -125h567 l-15 -125h-1zM1784 1449l-244 -258q-14 -15 -27 -21.5t-32 -6.5h-98l163 242q15 23 31.5 33.5t46.5 10.5h160z" />
<glyph unicode="ff&#x1ec9;" horiz-adv-x="1637" d="M1537 868l-106 -868h-172l106 868h-388l-102 -835l-44 -207q-11 -36 -32.5 -55.5t-59.5 -19.5h-70l136 1117h-408l-102 -835l-46 -207q-11 -36 -32.5 -55.5t-59.5 -19.5h-70l136 1115l-99 13q-20 3 -31.5 13.5t-9.5 30.5l9 70h147l10 83q11 87 43 154.5t80.5 114 t111.5 70.5t135 24q61 0 113 -20l-17 -93q-3 -10 -10 -14t-18 -5t-25.5 -0.5t-31.5 0.5q-42 0 -77.5 -11t-63 -37t-46 -69.5t-26.5 -108.5l-12 -88h416l15 124q20 166 99 255t206 89q21 0 42 -2t36 -7l-11 -94q-2 -16 -16 -20t-38 -4q-64 0 -101 -53t-51 -163l-16 -125h567 l-15 -125h-1zM1358 1418q29 23 74 36.5t96 13.5q41 0 70.5 -9.5t48 -26.5t25.5 -40t4 -50q-5 -49 -39.5 -85t-84.5 -55l-24 -82h-79l15 132q50 7 71 26.5t23 44.5q2 23 -11 40.5t-50 17.5q-18 0 -32.5 -4.5t-26 -9.5t-20 -9.5t-14.5 -4.5q-8 0 -12.5 4.5t-8.5 12.5z" />
<glyph unicode="f&#x13a;" horiz-adv-x="1098" d="M397 865l-103 -833l-47 -207q-11 -36 -32.5 -55.5t-59.5 -19.5h-70l137 1112l-98 12q-21 5 -32 14.5t-9 29.5l9 75h146l7 55q10 84 43 159t87.5 131t130.5 88.5t173 32.5q72 0 136.5 -6t127.5 -7h120l-178 -1446h-173l161 1316q-45 4 -92 9t-91 5q-117 0 -189.5 -73.5 t-88.5 -208.5l-6 -55h238l-15 -128h-232zM1412 1852l-331 -286q-17 -14 -29.5 -17t-32.5 -3h-116l244 274q18 22 34 27t46 5h185z" />
<glyph unicode="ti" horiz-adv-x="1146" d="M1036 866l-106 -866h-173l107 866h-473l-62 -500q-5 -41 -8 -66t-4.5 -40t-2 -21t-0.5 -9q0 -51 24 -75.5t65 -24.5q26 0 46 7.5t34.5 16.5t24.5 16.5t18 7.5t12.5 -4t9.5 -13l37 -85q-48 -43 -110.5 -67.5t-125.5 -24.5q-97 0 -153 53t-58 154q0 6 0.5 15.5t2 27.5 t4.5 47t9 76l63 509h-110q-15 0 -24 10t-7 29l8 68l154 20l76 315q5 15 15.5 24.5t26.5 9.5h94l-43 -350h644zM1139 1331q0 -26 -10.5 -48.5t-28 -40t-40 -27.5t-46.5 -10q-23 0 -45 10t-38.5 27.5t-26.5 40t-10 48.5t10 49t27 40.5t39 28t45 10.5q24 0 46.5 -10t39.5 -27.5 t27.5 -41t10.5 -49.5z" />
<glyph unicode="t&#xec;" horiz-adv-x="1146" d="M1036 866l-106 -866h-173l107 866h-473l-62 -500q-5 -41 -8 -66t-4.5 -40t-2 -21t-0.5 -9q0 -51 24 -75.5t65 -24.5q26 0 46 7.5t34.5 16.5t24.5 16.5t18 7.5t12.5 -4t9.5 -13l37 -85q-48 -43 -110.5 -67.5t-125.5 -24.5q-97 0 -153 53t-58 154q0 6 0.5 15.5t2 27.5 t4.5 47t9 76l63 509h-110q-15 0 -24 10t-7 29l8 68l154 20l76 315q5 15 15.5 24.5t26.5 9.5h94l-43 -350h644zM905 1449q30 0 44 -10.5t24 -33.5l109 -242h-93q-19 0 -30.5 6.5t-22.5 21.5l-186 258h155z" />
<glyph unicode="t&#xed;" horiz-adv-x="1146" d="M1036 866l-106 -866h-173l107 866h-473l-62 -500q-5 -41 -8 -66t-4.5 -40t-2 -21t-0.5 -9q0 -51 24 -75.5t65 -24.5q26 0 46 7.5t34.5 16.5t24.5 16.5t18 7.5t12.5 -4t9.5 -13l37 -85q-48 -43 -110.5 -67.5t-125.5 -24.5q-97 0 -153 53t-58 154q0 6 0.5 15.5t2 27.5 t4.5 47t9 76l63 509h-110q-15 0 -24 10t-7 29l8 68l154 20l76 315q5 15 15.5 24.5t26.5 9.5h94l-43 -350h644zM1289 1449l-244 -258q-14 -15 -27 -21.5t-32 -6.5h-98l163 242q15 23 31.5 33.5t46.5 10.5h160z" />
<glyph unicode="t&#xee;" horiz-adv-x="1146" d="M1036 866l-106 -866h-173l107 866h-473l-62 -500q-5 -41 -8 -66t-4.5 -40t-2 -21t-0.5 -9q0 -51 24 -75.5t65 -24.5q26 0 46 7.5t34.5 16.5t24.5 16.5t18 7.5t12.5 -4t9.5 -13l37 -85q-48 -43 -110.5 -67.5t-125.5 -24.5q-97 0 -153 53t-58 154q0 6 0.5 15.5t2 27.5 t4.5 47t9 76l63 509h-110q-15 0 -24 10t-7 29l8 68l154 20l76 315q5 15 15.5 24.5t26.5 9.5h94l-43 -350h644zM1281 1169h-110q-10 0 -19.5 4t-18.5 15l-99 132q-3 5 -6.5 9.5t-6.5 9.5q-5 -5 -9 -10t-8 -9l-130 -132q-19 -19 -42 -19h-114l235 264h152z" />
<glyph unicode="t&#xef;" horiz-adv-x="1146" d="M1036 866l-106 -866h-173l107 866h-473l-62 -500q-5 -41 -8 -66t-4.5 -40t-2 -21t-0.5 -9q0 -51 24 -75.5t65 -24.5q26 0 46 7.5t34.5 16.5t24.5 16.5t18 7.5t12.5 -4t9.5 -13l37 -85q-48 -43 -110.5 -67.5t-125.5 -24.5q-97 0 -153 53t-58 154q0 6 0.5 15.5t2 27.5 t4.5 47t9 76l63 509h-110q-15 0 -24 10t-7 29l8 68l154 20l76 315q5 15 15.5 24.5t26.5 9.5h94l-43 -350h644zM993 1289q0 -23 -9 -43t-25 -35t-36.5 -24t-43.5 -9q-22 0 -42 9t-35.5 24t-24.5 35t-9 43t9 44t24.5 36.5t35.5 24.5t42 9q23 0 43.5 -9t36.5 -24.5t25 -36.5 t9 -44zM1285 1289q0 -23 -9 -43t-24.5 -35t-36 -24t-43.5 -9t-43.5 9t-35.5 24t-24 35t-9 43t9 44t24 36.5t35.5 24.5t43.5 9t43.5 -9t36 -24.5t24.5 -36.5t9 -44z" />
<glyph unicode="t&#x12b;" horiz-adv-x="1146" d="M1036 866l-106 -866h-173l107 866h-473l-62 -500q-5 -41 -8 -66t-4.5 -40t-2 -21t-0.5 -9q0 -51 24 -75.5t65 -24.5q26 0 46 7.5t34.5 16.5t24.5 16.5t18 7.5t12.5 -4t9.5 -13l37 -85q-48 -43 -110.5 -67.5t-125.5 -24.5q-97 0 -153 53t-58 154q0 6 0.5 15.5t2 27.5 t4.5 47t9 76l63 509h-110q-15 0 -24 10t-7 29l8 68l154 20l76 315q5 15 15.5 24.5t26.5 9.5h94l-43 -350h644zM747 1348h528l-13 -117h-529z" />
<glyph unicode="t&#x129;" horiz-adv-x="1146" d="M1036 866l-106 -866h-173l107 866h-473l-62 -500q-5 -41 -8 -66t-4.5 -40t-2 -21t-0.5 -9q0 -51 24 -75.5t65 -24.5q26 0 46 7.5t34.5 16.5t24.5 16.5t18 7.5t12.5 -4t9.5 -13l37 -85q-48 -43 -110.5 -67.5t-125.5 -24.5q-97 0 -153 53t-58 154q0 6 0.5 15.5t2 27.5 t4.5 47t9 76l63 509h-110q-15 0 -24 10t-7 29l8 68l154 20l76 315q5 15 15.5 24.5t26.5 9.5h94l-43 -350h644zM1115 1325q67 0 79 86h100q-5 -47 -21 -86.5t-41 -67.5t-56.5 -43.5t-68.5 -15.5q-32 0 -58.5 14.5t-49.5 31.5t-43.5 31.5t-41.5 14.5q-67 0 -78 -88h-102 q5 48 21.5 87.5t41.5 68t57 44t68 15.5q33 0 59 -14.5t49 -31.5t43.5 -31.5t41.5 -14.5z" />
<glyph unicode="t&#x12d;" horiz-adv-x="1146" d="M1036 866l-106 -866h-173l107 866h-473l-62 -500q-5 -41 -8 -66t-4.5 -40t-2 -21t-0.5 -9q0 -51 24 -75.5t65 -24.5q26 0 46 7.5t34.5 16.5t24.5 16.5t18 7.5t12.5 -4t9.5 -13l37 -85q-48 -43 -110.5 -67.5t-125.5 -24.5q-97 0 -153 53t-58 154q0 6 0.5 15.5t2 27.5 t4.5 47t9 76l63 509h-110q-15 0 -24 10t-7 29l8 68l154 20l76 315q5 15 15.5 24.5t26.5 9.5h94l-43 -350h644zM995 1164q-70 0 -116 21.5t-71.5 58t-33 85.5t-1.5 104h117q-4 -33 -1 -61.5t16.5 -48.5t38.5 -31.5t64 -11.5t66.5 11.5t45.5 31.5t27.5 48.5t13.5 61.5h116 q-6 -55 -24.5 -104t-52 -85.5t-84.5 -58t-121 -21.5z" />
<glyph unicode="t&#x1d0;" horiz-adv-x="1146" d="M1036 866l-106 -866h-173l107 866h-473l-62 -500q-5 -41 -8 -66t-4.5 -40t-2 -21t-0.5 -9q0 -51 24 -75.5t65 -24.5q26 0 46 7.5t34.5 16.5t24.5 16.5t18 7.5t12.5 -4t9.5 -13l37 -85q-48 -43 -110.5 -67.5t-125.5 -24.5q-97 0 -153 53t-58 154q0 6 0.5 15.5t2 27.5 t4.5 47t9 76l63 509h-110q-15 0 -24 10t-7 29l8 68l154 20l76 315q5 15 15.5 24.5t26.5 9.5h94l-43 -350h644zM1296 1433l-235 -264h-153l-176 264h114q11 0 20.5 -5t14.5 -10l103 -136q3 -5 6.5 -10t6.5 -10q5 5 9 10t9 10l133 136q7 5 17.5 10t20.5 5h110z" />
<glyph unicode="t&#x1e2d;" horiz-adv-x="1146" d="M1036 866l-106 -866h-173l107 866h-473l-62 -500q-5 -41 -8 -66t-4.5 -40t-2 -21t-0.5 -9q0 -51 24 -75.5t65 -24.5q26 0 46 7.5t34.5 16.5t24.5 16.5t18 7.5t12.5 -4t9.5 -13l37 -85q-48 -43 -110.5 -67.5t-125.5 -24.5q-97 0 -153 53t-58 154q0 6 0.5 15.5t2 27.5 t4.5 47t9 76l63 509h-110q-15 0 -24 10t-7 29l8 68l154 20l76 315q5 15 15.5 24.5t26.5 9.5h94l-43 -350h644zM1127 1331q0 -26 -10.5 -48.5t-28 -40t-40 -27.5t-46.5 -10q-23 0 -45 10t-38.5 27.5t-26.5 40t-10 48.5t10 49t27 40.5t39 28t45 10.5q24 0 46.5 -10t39.5 -27.5 t27.5 -41t10.5 -49.5zM902 -179q67 0 79 86h100q-5 -47 -21 -86.5t-41 -67.5t-56.5 -43.5t-68.5 -15.5q-32 0 -58.5 14.5t-49.5 31.5t-43.5 31.5t-41.5 14.5q-67 0 -78 -88h-102q5 48 21.5 87.5t41.5 68t57 44t68 15.5q33 0 59 -14.5t49 -31.5t43.5 -31.5t41.5 -14.5z" />
<glyph unicode="t&#x1e2f;" horiz-adv-x="1146" d="M1036 866l-106 -866h-173l107 866h-473l-62 -500q-5 -41 -8 -66t-4.5 -40t-2 -21t-0.5 -9q0 -51 24 -75.5t65 -24.5q26 0 46 7.5t34.5 16.5t24.5 16.5t18 7.5t12.5 -4t9.5 -13l37 -85q-48 -43 -110.5 -67.5t-125.5 -24.5q-97 0 -153 53t-58 154q0 6 0.5 15.5t2 27.5 t4.5 47t9 76l63 509h-110q-15 0 -24 10t-7 29l8 68l154 20l76 315q5 15 15.5 24.5t26.5 9.5h94l-43 -350h644zM1345 1763l-244 -258q-14 -15 -27 -21.5t-32 -6.5h-98l163 242q15 23 31.5 33.5t46.5 10.5h160zM943 1289q0 -23 -9 -43t-25 -35t-36.5 -24t-43.5 -9t-43 9 t-35.5 24t-24.5 35t-9 43t9 44t24.5 36.5t35.5 24.5t43 9t43.5 -9t36.5 -24.5t25 -36.5t9 -44zM1304 1289q0 -23 -9 -43t-24.5 -35t-36 -24t-43.5 -9t-43.5 9t-36 24t-24.5 35t-9 43t9 44t24.5 36.5t36 24.5t43.5 9t43.5 -9t36 -24.5t24.5 -36.5t9 -44z" />
<glyph unicode="t&#x268;" horiz-adv-x="1182" d="M998 1205q-23 0 -45 10t-38.5 27.5t-26.5 40t-10 48.5t10 49t27 40.5t39 28t45 10.5q24 0 46.5 -10t39.5 -27.5t27.5 -41t10.5 -49.5t-10.5 -48.5t-28 -40t-40 -27.5t-46.5 -10zM1127 438h-143l-54 -438h-173l54 438h-135l15 126h136l37 302h-473l-62 -500q-5 -41 -8 -66 t-4.5 -40t-2 -21t-0.5 -9q0 -51 24 -75.5t65 -24.5q26 0 46 7.5t34.5 16.5t24.5 16.5t18 7.5t12.5 -4t9.5 -13l37 -85q-48 -43 -110.5 -67.5t-125.5 -24.5q-97 0 -153 53t-58 154q0 6 0.5 15.5t2 27.5t4.5 47t9 76l63 509h-110q-15 0 -24 10t-7 29l8 68l154 20l76 315 q5 15 15.5 24.5t26.5 9.5h94l-43 -350h644l-15 -126l-37 -302h144z" />
<glyph unicode="t&#x20b;" horiz-adv-x="1146" d="M1036 866l-106 -866h-173l107 866h-473l-62 -500q-5 -41 -8 -66t-4.5 -40t-2 -21t-0.5 -9q0 -51 24 -75.5t65 -24.5q26 0 46 7.5t34.5 16.5t24.5 16.5t18 7.5t12.5 -4t9.5 -13l37 -85q-48 -43 -110.5 -67.5t-125.5 -24.5q-97 0 -153 53t-58 154q0 6 0.5 15.5t2 27.5 t4.5 47t9 76l63 509h-110q-15 0 -24 10t-7 29l8 68l154 20l76 315q5 15 15.5 24.5t26.5 9.5h94l-43 -350h644zM1016 1448q70 0 116 -21.5t71.5 -58.5t33 -85.5t1.5 -103.5h-116q4 33 0.5 61.5t-17 48.5t-38.5 31.5t-64 11.5t-66.5 -11.5t-45.5 -31.5t-27.5 -48.5 t-13.5 -61.5h-116q6 55 24.5 103.5t52.5 85.5t84.5 58.5t120.5 21.5z" />
<glyph unicode="t&#x209;" horiz-adv-x="1146" d="M1036 866l-106 -866h-173l107 866h-473l-62 -500q-5 -41 -8 -66t-4.5 -40t-2 -21t-0.5 -9q0 -51 24 -75.5t65 -24.5q26 0 46 7.5t34.5 16.5t24.5 16.5t18 7.5t12.5 -4t9.5 -13l37 -85q-48 -43 -110.5 -67.5t-125.5 -24.5q-97 0 -153 53t-58 154q0 6 0.5 15.5t2 27.5 t4.5 47t9 76l63 509h-110q-15 0 -24 10t-7 29l8 68l154 20l76 315q5 15 15.5 24.5t26.5 9.5h94l-43 -350h644zM1018 1449q30 0 44.5 -10.5t23.5 -33.5l100 -242h-69q-19 0 -31.5 6t-21.5 22l-154 258h108zM741 1449q31 0 44 -11t24 -33l138 -242h-78q-20 0 -31.5 6.5 t-22.5 21.5l-194 258h120z" />
<glyph unicode="tti" horiz-adv-x="1727" d="M1510 0h-172l107 866h-455l-61 -500q-5 -41 -8 -66t-4.5 -40t-2 -21t-0.5 -9q0 -51 23.5 -75.5t64.5 -24.5q26 0 46 7.5t34.5 16.5t24.5 16.5t18 7.5q15 0 22 -17l37 -85q-48 -43 -110.5 -67.5t-125.5 -24.5q-97 0 -153 53t-58 154q0 6 0.5 15.5t2 27.5t4.5 47t9 76 l63 509h-425l-62 -500q-5 -41 -8 -66t-4.5 -40t-2 -21t-0.5 -9q0 -51 24 -75.5t65 -24.5q26 0 46 7.5t34.5 16.5t24.5 16.5t18 7.5t12.5 -4t9.5 -13l37 -85q-48 -43 -110.5 -67.5t-125.5 -24.5q-97 0 -153 53t-58 154q0 6 0.5 15.5t2 27.5t4.5 47t9 76l63 509h-110 q-15 0 -24 10t-7 29l8 68l154 20l76 315q5 15 15.5 24.5t26.5 9.5h94l-43 -350h430l76 316q5 15 15.5 24.5t26.5 9.5h94l-43 -350h626zM1710 1331q0 -26 -10.5 -48.5t-28 -40t-40 -27.5t-46.5 -10q-23 0 -45 10t-38.5 27.5t-26.5 40t-10 48.5t10 49t27 40.5t39 28t45 10.5 q24 0 46.5 -10t39.5 -27.5t27.5 -41t10.5 -49.5z" />
<glyph unicode="tt&#xec;" horiz-adv-x="1726" d="M1510 0h-172l107 866h-455l-61 -500q-5 -41 -8 -66t-4.5 -40t-2 -21t-0.5 -9q0 -51 23.5 -75.5t64.5 -24.5q26 0 46 7.5t34.5 16.5t24.5 16.5t18 7.5q15 0 22 -17l37 -85q-48 -43 -110.5 -67.5t-125.5 -24.5q-97 0 -153 53t-58 154q0 6 0.5 15.5t2 27.5t4.5 47t9 76 l63 509h-425l-62 -500q-5 -41 -8 -66t-4.5 -40t-2 -21t-0.5 -9q0 -51 24 -75.5t65 -24.5q26 0 46 7.5t34.5 16.5t24.5 16.5t18 7.5t12.5 -4t9.5 -13l37 -85q-48 -43 -110.5 -67.5t-125.5 -24.5q-97 0 -153 53t-58 154q0 6 0.5 15.5t2 27.5t4.5 47t9 76l63 509h-110 q-15 0 -24 10t-7 29l8 68l154 20l76 315q5 15 15.5 24.5t26.5 9.5h94l-43 -350h430l76 316q5 15 15.5 24.5t26.5 9.5h94l-43 -350h626zM1482 1449q30 0 44 -10.5t24 -33.5l109 -242h-93q-19 0 -30.5 6.5t-22.5 21.5l-186 258h155z" />
<glyph unicode="tt&#xed;" horiz-adv-x="1726" d="M1510 0h-172l107 866h-455l-61 -500q-5 -41 -8 -66t-4.5 -40t-2 -21t-0.5 -9q0 -51 23.5 -75.5t64.5 -24.5q26 0 46 7.5t34.5 16.5t24.5 16.5t18 7.5q15 0 22 -17l37 -85q-48 -43 -110.5 -67.5t-125.5 -24.5q-97 0 -153 53t-58 154q0 6 0.5 15.5t2 27.5t4.5 47t9 76 l63 509h-425l-62 -500q-5 -41 -8 -66t-4.5 -40t-2 -21t-0.5 -9q0 -51 24 -75.5t65 -24.5q26 0 46 7.5t34.5 16.5t24.5 16.5t18 7.5t12.5 -4t9.5 -13l37 -85q-48 -43 -110.5 -67.5t-125.5 -24.5q-97 0 -153 53t-58 154q0 6 0.5 15.5t2 27.5t4.5 47t9 76l63 509h-110 q-15 0 -24 10t-7 29l8 68l154 20l76 315q5 15 15.5 24.5t26.5 9.5h94l-43 -350h430l76 316q5 15 15.5 24.5t26.5 9.5h94l-43 -350h626zM1875 1449l-244 -258q-14 -15 -27 -21.5t-32 -6.5h-98l163 242q15 23 31.5 33.5t46.5 10.5h160z" />
<glyph unicode="tt&#xee;" horiz-adv-x="1726" d="M1510 0h-172l107 866h-455l-61 -500q-5 -41 -8 -66t-4.5 -40t-2 -21t-0.5 -9q0 -51 23.5 -75.5t64.5 -24.5q26 0 46 7.5t34.5 16.5t24.5 16.5t18 7.5q15 0 22 -17l37 -85q-48 -43 -110.5 -67.5t-125.5 -24.5q-97 0 -153 53t-58 154q0 6 0.5 15.5t2 27.5t4.5 47t9 76 l63 509h-425l-62 -500q-5 -41 -8 -66t-4.5 -40t-2 -21t-0.5 -9q0 -51 24 -75.5t65 -24.5q26 0 46 7.5t34.5 16.5t24.5 16.5t18 7.5t12.5 -4t9.5 -13l37 -85q-48 -43 -110.5 -67.5t-125.5 -24.5q-97 0 -153 53t-58 154q0 6 0.5 15.5t2 27.5t4.5 47t9 76l63 509h-110 q-15 0 -24 10t-7 29l8 68l154 20l76 315q5 15 15.5 24.5t26.5 9.5h94l-43 -350h430l76 316q5 15 15.5 24.5t26.5 9.5h94l-43 -350h626zM1848 1169h-110q-10 0 -19.5 4t-18.5 15l-99 132q-3 5 -6.5 9.5t-6.5 9.5q-5 -5 -9 -10t-8 -9l-130 -132q-19 -19 -42 -19h-114l235 264 h152z" />
<glyph unicode="tt&#xef;" horiz-adv-x="1726" d="M1510 0h-172l107 866h-455l-61 -500q-5 -41 -8 -66t-4.5 -40t-2 -21t-0.5 -9q0 -51 23.5 -75.5t64.5 -24.5q26 0 46 7.5t34.5 16.5t24.5 16.5t18 7.5q15 0 22 -17l37 -85q-48 -43 -110.5 -67.5t-125.5 -24.5q-97 0 -153 53t-58 154q0 6 0.5 15.5t2 27.5t4.5 47t9 76 l63 509h-425l-62 -500q-5 -41 -8 -66t-4.5 -40t-2 -21t-0.5 -9q0 -51 24 -75.5t65 -24.5q26 0 46 7.5t34.5 16.5t24.5 16.5t18 7.5t12.5 -4t9.5 -13l37 -85q-48 -43 -110.5 -67.5t-125.5 -24.5q-97 0 -153 53t-58 154q0 6 0.5 15.5t2 27.5t4.5 47t9 76l63 509h-110 q-15 0 -24 10t-7 29l8 68l154 20l76 315q5 15 15.5 24.5t26.5 9.5h94l-43 -350h430l76 316q5 15 15.5 24.5t26.5 9.5h94l-43 -350h626zM1565 1289q0 -23 -9 -43t-25 -35t-36.5 -24t-43.5 -9q-22 0 -42 9t-35.5 24t-24.5 35t-9 43t9 44t24.5 36.5t35.5 24.5t42 9 q23 0 43.5 -9t36.5 -24.5t25 -36.5t9 -44zM1857 1289q0 -23 -9 -43t-24.5 -35t-36 -24t-43.5 -9t-43.5 9t-35.5 24t-24 35t-9 43t9 44t24 36.5t35.5 24.5t43.5 9t43.5 -9t36 -24.5t24.5 -36.5t9 -44z" />
<glyph unicode="tt&#x12b;" horiz-adv-x="1726" d="M1510 0h-172l107 866h-455l-61 -500q-5 -41 -8 -66t-4.5 -40t-2 -21t-0.5 -9q0 -51 23.5 -75.5t64.5 -24.5q26 0 46 7.5t34.5 16.5t24.5 16.5t18 7.5q15 0 22 -17l37 -85q-48 -43 -110.5 -67.5t-125.5 -24.5q-97 0 -153 53t-58 154q0 6 0.5 15.5t2 27.5t4.5 47t9 76 l63 509h-425l-62 -500q-5 -41 -8 -66t-4.5 -40t-2 -21t-0.5 -9q0 -51 24 -75.5t65 -24.5q26 0 46 7.5t34.5 16.5t24.5 16.5t18 7.5t12.5 -4t9.5 -13l37 -85q-48 -43 -110.5 -67.5t-125.5 -24.5q-97 0 -153 53t-58 154q0 6 0.5 15.5t2 27.5t4.5 47t9 76l63 509h-110 q-15 0 -24 10t-7 29l8 68l154 20l76 315q5 15 15.5 24.5t26.5 9.5h94l-43 -350h430l76 316q5 15 15.5 24.5t26.5 9.5h94l-43 -350h626zM1328 1348h528l-13 -117h-529z" />
<glyph unicode="tt&#x129;" horiz-adv-x="1726" d="M1510 0h-172l107 866h-455l-61 -500q-5 -41 -8 -66t-4.5 -40t-2 -21t-0.5 -9q0 -51 23.5 -75.5t64.5 -24.5q26 0 46 7.5t34.5 16.5t24.5 16.5t18 7.5q15 0 22 -17l37 -85q-48 -43 -110.5 -67.5t-125.5 -24.5q-97 0 -153 53t-58 154q0 6 0.5 15.5t2 27.5t4.5 47t9 76 l63 509h-425l-62 -500q-5 -41 -8 -66t-4.5 -40t-2 -21t-0.5 -9q0 -51 24 -75.5t65 -24.5q26 0 46 7.5t34.5 16.5t24.5 16.5t18 7.5t12.5 -4t9.5 -13l37 -85q-48 -43 -110.5 -67.5t-125.5 -24.5q-97 0 -153 53t-58 154q0 6 0.5 15.5t2 27.5t4.5 47t9 76l63 509h-110 q-15 0 -24 10t-7 29l8 68l154 20l76 315q5 15 15.5 24.5t26.5 9.5h94l-43 -350h430l76 316q5 15 15.5 24.5t26.5 9.5h94l-43 -350h626zM1686 1325q67 0 79 86h100q-5 -47 -21 -86.5t-41 -67.5t-56.5 -43.5t-68.5 -15.5q-32 0 -58.5 14.5t-49.5 31.5t-43.5 31.5t-41.5 14.5 q-67 0 -78 -88h-102q5 48 21.5 87.5t41.5 68t57 44t68 15.5q33 0 59 -14.5t49 -31.5t43.5 -31.5t41.5 -14.5z" />
<glyph unicode="tt&#x12d;" horiz-adv-x="1727" d="M1510 0h-172l107 866h-455l-61 -500q-5 -41 -8 -66t-4.5 -40t-2 -21t-0.5 -9q0 -51 23.5 -75.5t64.5 -24.5q26 0 46 7.5t34.5 16.5t24.5 16.5t18 7.5q15 0 22 -17l37 -85q-48 -43 -110.5 -67.5t-125.5 -24.5q-97 0 -153 53t-58 154q0 6 0.5 15.5t2 27.5t4.5 47t9 76 l63 509h-425l-62 -500q-5 -41 -8 -66t-4.5 -40t-2 -21t-0.5 -9q0 -51 24 -75.5t65 -24.5q26 0 46 7.5t34.5 16.5t24.5 16.5t18 7.5t12.5 -4t9.5 -13l37 -85q-48 -43 -110.5 -67.5t-125.5 -24.5q-97 0 -153 53t-58 154q0 6 0.5 15.5t2 27.5t4.5 47t9 76l63 509h-110 q-15 0 -24 10t-7 29l8 68l154 20l76 315q5 15 15.5 24.5t26.5 9.5h94l-43 -350h430l76 316q5 15 15.5 24.5t26.5 9.5h94l-43 -350h626zM1582 1164q-70 0 -116 21.5t-71.5 58t-33 85.5t-1.5 104h117q-4 -33 -1 -61.5t16.5 -48.5t38.5 -31.5t64 -11.5t66.5 11.5t45.5 31.5 t27.5 48.5t13.5 61.5h116q-6 -55 -24.5 -104t-52 -85.5t-84.5 -58t-121 -21.5z" />
<glyph unicode="tt&#x1d0;" horiz-adv-x="1726" d="M1510 0h-172l107 866h-455l-61 -500q-5 -41 -8 -66t-4.5 -40t-2 -21t-0.5 -9q0 -51 23.5 -75.5t64.5 -24.5q26 0 46 7.5t34.5 16.5t24.5 16.5t18 7.5q15 0 22 -17l37 -85q-48 -43 -110.5 -67.5t-125.5 -24.5q-97 0 -153 53t-58 154q0 6 0.5 15.5t2 27.5t4.5 47t9 76 l63 509h-425l-62 -500q-5 -41 -8 -66t-4.5 -40t-2 -21t-0.5 -9q0 -51 24 -75.5t65 -24.5q26 0 46 7.5t34.5 16.5t24.5 16.5t18 7.5t12.5 -4t9.5 -13l37 -85q-48 -43 -110.5 -67.5t-125.5 -24.5q-97 0 -153 53t-58 154q0 6 0.5 15.5t2 27.5t4.5 47t9 76l63 509h-110 q-15 0 -24 10t-7 29l8 68l154 20l76 315q5 15 15.5 24.5t26.5 9.5h94l-43 -350h430l76 316q5 15 15.5 24.5t26.5 9.5h94l-43 -350h626zM1883 1433l-235 -264h-153l-176 264h114q11 0 20.5 -5t14.5 -10l103 -136q3 -5 6.5 -10t6.5 -10q5 5 9 10t9 10l133 136q7 5 17.5 10 t20.5 5h110z" />
<glyph unicode="tt&#x1e2d;" horiz-adv-x="1727" d="M1510 0h-172l107 866h-455l-61 -500q-5 -41 -8 -66t-4.5 -40t-2 -21t-0.5 -9q0 -51 23.5 -75.5t64.5 -24.5q26 0 46 7.5t34.5 16.5t24.5 16.5t18 7.5q15 0 22 -17l37 -85q-48 -43 -110.5 -67.5t-125.5 -24.5q-97 0 -153 53t-58 154q0 6 0.5 15.5t2 27.5t4.5 47t9 76 l63 509h-425l-62 -500q-5 -41 -8 -66t-4.5 -40t-2 -21t-0.5 -9q0 -51 24 -75.5t65 -24.5q26 0 46 7.5t34.5 16.5t24.5 16.5t18 7.5t12.5 -4t9.5 -13l37 -85q-48 -43 -110.5 -67.5t-125.5 -24.5q-97 0 -153 53t-58 154q0 6 0.5 15.5t2 27.5t4.5 47t9 76l63 509h-110 q-15 0 -24 10t-7 29l8 68l154 20l76 315q5 15 15.5 24.5t26.5 9.5h94l-43 -350h430l76 316q5 15 15.5 24.5t26.5 9.5h94l-43 -350h626zM1480 -179q67 0 79 86h100q-5 -47 -21 -86.5t-41 -67.5t-56.5 -43.5t-68.5 -15.5q-32 0 -58.5 14.5t-49.5 31.5t-43.5 31.5t-41.5 14.5 q-67 0 -78 -88h-102q5 48 21.5 87.5t41.5 68t57 44t68 15.5q33 0 59 -14.5t49 -31.5t43.5 -31.5t41.5 -14.5zM1700 1331q0 -26 -10.5 -48.5t-28 -40t-40 -27.5t-46.5 -10q-23 0 -45 10t-38.5 27.5t-26.5 40t-10 48.5t10 49t27 40.5t39 28t45 10.5q24 0 46.5 -10t39.5 -27.5 t27.5 -41t10.5 -49.5z" />
<glyph unicode="tt&#x1e2f;" horiz-adv-x="1726" d="M1510 0h-172l107 866h-455l-61 -500q-5 -41 -8 -66t-4.5 -40t-2 -21t-0.5 -9q0 -51 23.5 -75.5t64.5 -24.5q26 0 46 7.5t34.5 16.5t24.5 16.5t18 7.5q15 0 22 -17l37 -85q-48 -43 -110.5 -67.5t-125.5 -24.5q-97 0 -153 53t-58 154q0 6 0.5 15.5t2 27.5t4.5 47t9 76 l63 509h-425l-62 -500q-5 -41 -8 -66t-4.5 -40t-2 -21t-0.5 -9q0 -51 24 -75.5t65 -24.5q26 0 46 7.5t34.5 16.5t24.5 16.5t18 7.5t12.5 -4t9.5 -13l37 -85q-48 -43 -110.5 -67.5t-125.5 -24.5q-97 0 -153 53t-58 154q0 6 0.5 15.5t2 27.5t4.5 47t9 76l63 509h-110 q-15 0 -24 10t-7 29l8 68l154 20l76 315q5 15 15.5 24.5t26.5 9.5h94l-43 -350h430l76 316q5 15 15.5 24.5t26.5 9.5h94l-43 -350h626zM1927 1763l-244 -258q-14 -15 -27 -21.5t-32 -6.5h-98l163 242q15 23 31.5 33.5t46.5 10.5h160zM1526 1289q0 -23 -9 -43t-25 -35 t-36.5 -24t-43.5 -9t-43 9t-35.5 24t-24.5 35t-9 43t9 44t24.5 36.5t35.5 24.5t43 9t43.5 -9t36.5 -24.5t25 -36.5t9 -44zM1887 1289q0 -23 -9 -43t-24.5 -35t-36 -24t-43.5 -9t-43.5 9t-36 24t-24.5 35t-9 43t9 44t24.5 36.5t36 24.5t43.5 9t43.5 -9t36 -24.5t24.5 -36.5 t9 -44z" />
<glyph unicode="tt&#x268;" horiz-adv-x="1767" d="M1579 1205q-23 0 -45 10t-38.5 27.5t-26.5 40t-10 48.5t10 49t27 40.5t39 28t45 10.5q24 0 46.5 -10t39.5 -27.5t27.5 -41t10.5 -49.5t-10.5 -48.5t-28 -40t-40 -27.5t-46.5 -10zM1710 438h-146l-54 -438h-172l54 438h-133l15 126h134l37 302h-455l-61 -500 q-5 -41 -8 -66t-4.5 -40t-2 -21t-0.5 -9q0 -51 23.5 -75.5t64.5 -24.5q26 0 46 7.5t34.5 16.5t24.5 16.5t18 7.5q15 0 22 -17l37 -85q-48 -43 -110.5 -67.5t-125.5 -24.5q-97 0 -153 53t-58 154q0 6 0.5 15.5t2 27.5t4.5 47t9 76l63 509h-425l-62 -500q-5 -41 -8 -66 t-4.5 -40t-2 -21t-0.5 -9q0 -51 24 -75.5t65 -24.5q26 0 46 7.5t34.5 16.5t24.5 16.5t18 7.5t12.5 -4t9.5 -13l37 -85q-48 -43 -110.5 -67.5t-125.5 -24.5q-97 0 -153 53t-58 154q0 6 0.5 15.5t2 27.5t4.5 47t9 76l63 509h-110q-15 0 -24 10t-7 29l8 68l154 20l76 315 q5 15 15.5 24.5t26.5 9.5h94l-43 -350h430l76 316q5 15 15.5 24.5t26.5 9.5h94l-43 -350h626l-53 -428h147z" />
<glyph unicode="tt&#x20b;" horiz-adv-x="1726" d="M1510 0h-172l107 866h-455l-61 -500q-5 -41 -8 -66t-4.5 -40t-2 -21t-0.5 -9q0 -51 23.5 -75.5t64.5 -24.5q26 0 46 7.5t34.5 16.5t24.5 16.5t18 7.5q15 0 22 -17l37 -85q-48 -43 -110.5 -67.5t-125.5 -24.5q-97 0 -153 53t-58 154q0 6 0.5 15.5t2 27.5t4.5 47t9 76 l63 509h-425l-62 -500q-5 -41 -8 -66t-4.5 -40t-2 -21t-0.5 -9q0 -51 24 -75.5t65 -24.5q26 0 46 7.5t34.5 16.5t24.5 16.5t18 7.5t12.5 -4t9.5 -13l37 -85q-48 -43 -110.5 -67.5t-125.5 -24.5q-97 0 -153 53t-58 154q0 6 0.5 15.5t2 27.5t4.5 47t9 76l63 509h-110 q-15 0 -24 10t-7 29l8 68l154 20l76 315q5 15 15.5 24.5t26.5 9.5h94l-43 -350h430l76 316q5 15 15.5 24.5t26.5 9.5h94l-43 -350h626zM1603 1448q70 0 116 -21.5t71.5 -58.5t33 -85.5t1.5 -103.5h-116q4 33 0.5 61.5t-17 48.5t-38.5 31.5t-64 11.5t-66.5 -11.5t-45.5 -31.5 t-27.5 -48.5t-13.5 -61.5h-116q6 55 24.5 103.5t52.5 85.5t84.5 58.5t120.5 21.5z" />
<glyph unicode="tt&#x209;" horiz-adv-x="1727" d="M1510 0h-172l107 866h-455l-61 -500q-5 -41 -8 -66t-4.5 -40t-2 -21t-0.5 -9q0 -51 23.5 -75.5t64.5 -24.5q26 0 46 7.5t34.5 16.5t24.5 16.5t18 7.5q15 0 22 -17l37 -85q-48 -43 -110.5 -67.5t-125.5 -24.5q-97 0 -153 53t-58 154q0 6 0.5 15.5t2 27.5t4.5 47t9 76 l63 509h-425l-62 -500q-5 -41 -8 -66t-4.5 -40t-2 -21t-0.5 -9q0 -51 24 -75.5t65 -24.5q26 0 46 7.5t34.5 16.5t24.5 16.5t18 7.5t12.5 -4t9.5 -13l37 -85q-48 -43 -110.5 -67.5t-125.5 -24.5q-97 0 -153 53t-58 154q0 6 0.5 15.5t2 27.5t4.5 47t9 76l63 509h-110 q-15 0 -24 10t-7 29l8 68l154 20l76 315q5 15 15.5 24.5t26.5 9.5h94l-43 -350h430l76 316q5 15 15.5 24.5t26.5 9.5h94l-43 -350h626zM1594 1449q30 0 44.5 -10.5t23.5 -33.5l100 -242h-69q-19 0 -31.5 6t-21.5 22l-154 258h108zM1317 1449q31 0 44 -11t24 -33l138 -242 h-78q-20 0 -31.5 6.5t-22.5 21.5l-194 258h120z" />
<glyph />
<glyph />
<glyph unicode=" "  horiz-adv-x="468" />
<glyph unicode="&#x09;" horiz-adv-x="468" />
<glyph unicode="&#xa0;" horiz-adv-x="468" />
<glyph unicode="!" horiz-adv-x="505" d="M430 1433l-70 -574q-6 -45 -13 -87.5t-15.5 -85.5t-18.5 -89t-22 -98h-116q1 52 2.5 98t4 89t6 85.5t9.5 87.5l70 574h163zM75 110q0 26 9.5 49t26 40t39 27t49.5 10q26 0 48.5 -10t39.5 -27t27 -40t10 -49q0 -27 -10 -49.5t-27 -39.5t-39.5 -26.5t-48.5 -9.5 q-27 0 -49.5 9.5t-39 26.5t-26 39.5t-9.5 49.5z" />
<glyph unicode="&#x22;" horiz-adv-x="695" d="M369 1431l-36 -289l-34 -155q-8 -31 -23 -48t-45 -17q-26 0 -37.5 17t-13.5 48l3 155l37 289h149zM675 1431l-36 -289l-34 -155q-8 -31 -23 -48t-45 -17q-26 0 -37.5 17t-13.5 48l3 155l37 289h149z" />
<glyph unicode="#" horiz-adv-x="1160" d="M767 882h-251l-107 -331h251zM1156 1007l-22 -71q-8 -28 -27 -41t-56 -13h-142l-107 -331h182q27 0 38 -16t1 -56l-16 -55h-239l-136 -424h-79q-26 0 -39 21.5t-2 53.5l114 349h-251l-115 -358q-11 -36 -35 -51t-53 -15h-77l138 424h-148q-27 0 -38 16.5t0 55.5l15 55 h205l107 331h-233l20 71q8 28 27.5 41t57.5 13h161l118 363q10 29 32.5 45t51.5 16h78l-138 -424h250l138 424h77q27 0 41.5 -17.5t4.5 -46.5l-118 -360h214z" />
<glyph unicode="$" horiz-adv-x="1160" d="M663 1298q-72 -6 -125.5 -28.5t-89 -56t-52.5 -76.5t-17 -90q0 -42 15.5 -73.5t42 -56t62.5 -43t77 -34.5zM551 131q74 7 131.5 32t97.5 65t60.5 92t20.5 112q0 44 -17 76.5t-46 56.5t-68 41.5t-83 32.5zM800 1441q102 -12 173.5 -53t122.5 -99l-48 -64q-22 -29 -48 -29 q-14 0 -32.5 13t-45.5 30t-64 33.5t-86 23.5l-93 -491q64 -21 127 -45.5t112.5 -61.5t80.5 -91t31 -133q0 -95 -35 -180.5t-101 -152t-160 -108t-211 -48.5l-34 -178q-2 -18 -18 -32t-36 -14h-64l43 226q-119 11 -212.5 60t-156.5 124l61 78q9 11 22 18t27 7q18 0 40 -19 t54 -43.5t78.5 -48t114.5 -31.5l102 540q-62 19 -121 43.5t-106 62t-75.5 93t-28.5 137.5q0 83 33 160.5t95 137.5t151 97.5t200 42.5l27 144q3 19 18 33.5t36 14.5h64z" />
<glyph unicode="%" horiz-adv-x="1488" d="M735 1144q0 -99 -29 -176t-77 -130t-110 -80.5t-127 -27.5q-56 0 -102.5 20.5t-80 59t-52 94t-18.5 125.5q0 99 27 176.5t73.5 131t109 81.5t132.5 28q56 0 103 -20.5t80.5 -59.5t52 -95t18.5 -127zM601 1143q0 50 -10.5 86t-28.5 59t-42.5 34t-52.5 11q-40 0 -75.5 -17 t-62 -54t-42 -94.5t-15.5 -138.5q0 -49 10 -83.5t28 -57t42.5 -33t53.5 -10.5q39 0 74.5 16.5t62.5 52t42.5 92t15.5 137.5zM1232 1403q11 11 25 19.5t37 8.5h125l-1141 -1403q-10 -12 -24 -20t-34 -8h-126zM1376 397q0 -99 -29.5 -176.5t-77.5 -130t-109.5 -80 t-126.5 -27.5q-56 0 -102.5 20.5t-80 59t-52 93.5t-18.5 125q0 99 27 176.5t73.5 131.5t108.5 82t132 28q56 0 103 -20.5t80.5 -59.5t52.5 -95t19 -127zM1241 396q0 50 -10 85.5t-28 58.5t-42.5 33.5t-53.5 10.5q-40 0 -75.5 -17t-61.5 -54t-41.5 -94t-15.5 -138 q0 -49 10 -84t28 -57.5t42.5 -33t53.5 -10.5q39 0 74.5 16.5t62 52.5t42 93t15.5 138z" />
<glyph unicode="&#x26;" horiz-adv-x="1314" d="M463 704q-115 -62 -172.5 -151.5t-57.5 -195.5q0 -56 17.5 -99.5t48 -73.5t72.5 -45.5t91 -15.5q95 0 179.5 43t153.5 113zM1231 0h-148q-21 0 -36.5 2.5t-27.5 8.5t-22.5 16t-22.5 24l-95 122q-95 -87 -209.5 -138t-244.5 -51q-82 0 -150 24.5t-117 70t-76 110.5 t-27 146q0 79 26.5 149.5t73 129t109 104.5t134.5 77q-39 66 -57.5 130t-18.5 127q0 82 28.5 154.5t81 125.5t126.5 84t164 31q73 0 131.5 -23.5t98.5 -64.5t60.5 -96.5t19.5 -119.5l-101 -19q-23 -5 -34.5 2t-17.5 29q-5 28 -17 56t-33 50.5t-51 37t-71 14.5q-51 0 -92 -19 t-70.5 -52.5t-45.5 -79t-16 -97.5q0 -113 97 -240l322 -408q41 66 68.5 136.5t40.5 140.5q4 18 13 29t28 11h119q-15 -115 -61 -226t-117 -207z" />
<glyph unicode="'" horiz-adv-x="389" d="M369 1431l-36 -289l-34 -155q-8 -31 -23 -48t-45 -17q-26 0 -37.5 17t-13.5 48l3 155l37 289h149z" />
<glyph unicode="(" horiz-adv-x="517" d="M237 441q0 -74 7 -153.5t20.5 -159.5t34.5 -157t48 -144q11 -30 1.5 -46t-25.5 -26l-81 -46q-42 86 -71.5 177.5t-48.5 183.5t-28 182t-9 173q0 140 16 272.5t58.5 267.5t116.5 278.5t191 305.5l71 -47q13 -10 19 -26t-13 -45q-74 -114 -131 -227.5t-96 -233.5 t-59.5 -250.5t-20.5 -278.5z" />
<glyph unicode=")" horiz-adv-x="516" d="M286 817q0 73 -7 153t-21.5 160t-35 157t-47.5 144q-11 29 -2 45t25 26l83 47q41 -87 70.5 -178t48 -183t27.5 -182t9 -174q0 -140 -16 -272.5t-58 -267.5t-116 -278t-191 -305l-71 46q-7 5 -12 11t-7 14.5t1 20t13 26.5q73 114 130 230t96.5 238.5t60 252t20.5 269.5z " />
<glyph unicode="*" horiz-adv-x="790" d="M588 1209q-18 -10 -35 -16t-34 -8q17 -2 32.5 -7.5t30.5 -16.5l145 -102l-50 -72l-145 100q-15 10 -27 20t-20 24q10 -29 5 -67l-25 -199h-85l25 198q5 39 20 67q-11 -13 -25 -23t-31 -20l-169 -100l-32 73l168 101q19 11 36.5 16.5t37.5 7.5q-37 3 -68 24l-145 102 l51 73l145 -101q15 -10 27 -21.5t20 -26.5q-10 34 -6 71l25 199h85l-25 -198q-2 -20 -7 -36.5t-15 -33.5q12 14 27 25t32 21l169 100l32 -73z" />
<glyph unicode="+" horiz-adv-x="1160" d="M1059 606h-409l-53 -431h-141l53 431h-407l16 130h407l53 429h140l-52 -429h409z" />
<glyph unicode="," horiz-adv-x="449" d="M65 -242q-13 12 -13 28q0 12 16 31t37 45.5t41 61t27 77.5q-4 -1 -13 -1q-52 0 -84.5 34.5t-32.5 88.5q0 47 32.5 80t86.5 33q30 0 53 -11t38.5 -30.5t23.5 -45t8 -55.5q0 -45 -12.5 -93.5t-37 -96t-59.5 -92.5t-80 -83z" />
<glyph unicode="-" horiz-adv-x="702" d="M130 672h457l-18 -146h-457z" />
<glyph unicode="&#xad;" horiz-adv-x="702" d="M130 672h457l-18 -146h-457z" />
<glyph unicode="." horiz-adv-x="468" d="M52 110q0 26 9.5 49t26 40t39.5 27t49 10t49 -10t40 -27t27 -40t10 -49q0 -27 -10 -49.5t-27 -39.5t-40 -26.5t-49 -9.5t-49 9.5t-39.5 26.5t-26 39.5t-9.5 49.5z" />
<glyph unicode="/" horiz-adv-x="836" d="M153 -25q-16 -32 -45 -49t-56 -17h-73l725 1479q15 29 40 46t57 17h73z" />
<glyph unicode="0" horiz-adv-x="1160" d="M1084 873q0 -225 -47 -392t-126.5 -277.5t-185.5 -164.5t-223 -54q-88 0 -161.5 36t-127 107.5t-83 179t-29.5 251.5q0 225 46.5 392t126 277.5t185 165t223.5 54.5q87 0 161 -36t127.5 -107.5t83.5 -179.5t30 -252zM907 882q0 113 -19 193t-52 130.5t-77.5 74 t-94.5 23.5q-73 0 -142.5 -40.5t-123.5 -130t-87 -233t-33 -350.5q0 -113 19 -193t51.5 -130t76.5 -73t94 -23q73 0 143 39.5t124.5 129t87.5 233t33 350.5z" />
<glyph unicode="1" horiz-adv-x="1160" d="M932 131l-17 -131h-711l17 131h281l122 991q2 20 5.5 41t7.5 43l-256 -220q-14 -10 -27 -13t-23.5 -0.5t-18.5 8t-12 11.5l-44 75l438 369h141l-160 -1305h257z" />
<glyph unicode="2" horiz-adv-x="1160" d="M902 163q28 0 42.5 -16.5t10.5 -42.5l-12 -104h-884l7 59q2 18 12 38t29 36l476 463q67 66 121 124.5t91 117t57 119t20 131.5q0 53 -15.5 92.5t-42.5 66t-64 40t-81 13.5q-49 0 -92 -16t-78.5 -45t-62.5 -69t-42 -88q-15 -34 -36 -45.5t-56 -5.5l-88 15q25 98 71.5 173 t109.5 126t139.5 77t162.5 26q78 0 142.5 -23.5t111.5 -68t73 -108t26 -144.5q0 -92 -27.5 -168t-74 -143.5t-108 -131t-130.5 -130.5l-401 -393q42 11 84 18t80 7h429z" />
<glyph unicode="3" horiz-adv-x="1160" d="M217 1046q25 98 71.5 173t109.5 126t139.5 77t162.5 26q78 0 141.5 -23t108.5 -65t69.5 -101t24.5 -132q0 -80 -19.5 -141.5t-55.5 -107.5t-87 -77t-114 -49q112 -34 168 -109.5t56 -184.5t-41 -196.5t-109.5 -149t-158.5 -95t-188 -33.5q-104 0 -175 28.5t-117 79 t-72 118.5t-39 147l78 31q32 13 58.5 7t35.5 -32q10 -27 23 -66.5t39 -76.5t70 -63t115 -26q73 0 130.5 28.5t97 74.5t60.5 104t21 118q0 46 -15 85.5t-50 68.5t-94 45.5t-147 16.5l15 124q176 4 260 82.5t84 215.5q0 51 -15 90t-41.5 64.5t-63.5 38.5t-81 13 q-49 0 -92.5 -16t-79 -45t-62 -69t-41.5 -88q-17 -34 -37 -45.5t-55 -5.5z" />
<glyph unicode="4" horiz-adv-x="1160" d="M706 515l74 602q2 23 7 48.5t11 53.5l-561 -704h469zM1052 515l-12 -99q-2 -16 -13 -26.5t-29 -10.5h-158l-47 -379h-150l46 379h-582q-20 0 -32 11t-14 28l-7 88l754 927h161l-113 -918h196z" />
<glyph unicode="5" horiz-adv-x="1160" d="M1052 1432l-10 -75q-4 -36 -30 -60t-81 -24h-406l-108 -382q53 13 100 18.5t90 5.5q93 0 163.5 -28.5t117 -79t70 -118.5t23.5 -147q0 -127 -43.5 -230t-118 -176t-173 -112.5t-208.5 -39.5q-59 0 -111 12.5t-96 33t-80.5 47.5t-63.5 56l61 74q21 24 49 24 q19 0 40.5 -15.5t52 -34t73 -34t103.5 -15.5q77 0 140 29t107.5 81t68.5 123.5t24 156.5q0 56 -15.5 102t-47 78.5t-79 50.5t-110.5 18q-49 0 -103 -9t-113 -28l-104 31l189 667h629z" />
<glyph unicode="6" horiz-adv-x="1067" d="M519 127q71 0 131 27t103.5 74.5t68 112.5t24.5 142q0 60 -17 108.5t-48 82t-75.5 52t-99.5 18.5q-71 0 -130 -28.5t-101.5 -76.5t-66.5 -112t-24 -136q0 -57 15.5 -105.5t45 -84t73.5 -55t101 -19.5zM523 894q-19 -23 -36 -44t-34 -41q49 32 106 49.5t120 17.5 q72 0 134.5 -25t108.5 -72t72.5 -115t26.5 -155q0 -111 -39.5 -207t-108.5 -166.5t-163.5 -111t-204.5 -40.5q-90 0 -161.5 29.5t-121 84t-76 131t-26.5 170.5q0 63 13 123t40 121t68 124.5t97 132.5l393 490q15 18 41 30t56 12h153z" />
<glyph unicode="7" horiz-adv-x="1160" d="M1138 1432l-9 -77q-5 -32 -15 -53.5t-18 -36.5l-689 -1204q-15 -26 -39 -43.5t-62 -17.5h-123l694 1189q31 49 66 84h-682q-17 0 -27.5 13t-8.5 30l14 116h899z" />
<glyph unicode="8" horiz-adv-x="1160" d="M519 121q71 0 128 23.5t97 66t61.5 102t21.5 131.5q0 62 -19.5 105.5t-52.5 71.5t-76.5 40.5t-91.5 12.5q-56 0 -110.5 -16.5t-98 -54t-70.5 -99t-27 -150.5q0 -51 16 -94t46 -73.5t74.5 -48t101.5 -17.5zM667 1315q-65 0 -115 -23t-83.5 -62t-51 -91.5t-17.5 -112.5 q0 -42 11 -80.5t35.5 -68t63.5 -47.5t94 -18q67 0 117.5 23.5t84 63.5t50 93.5t16.5 112.5q0 43 -13 81.5t-38.5 67t-64 45t-89.5 16.5zM784 746q107 -35 163.5 -111t56.5 -192q0 -106 -38 -191t-104.5 -144.5t-158.5 -91.5t-200 -32q-91 0 -165 25.5t-126 72t-80.5 112.5 t-28.5 147q0 161 78.5 264t227.5 144q-88 38 -132.5 109.5t-44.5 168.5q0 88 34 165t94 134t142.5 89.5t180.5 32.5q83 0 149 -26t112.5 -71t71.5 -105.5t25 -130.5q0 -133 -65.5 -228.5t-191.5 -140.5z" />
<glyph unicode="9" horiz-adv-x="1160" d="M358 963q0 -113 58.5 -177t164.5 -64q70 0 127 27t97 72.5t61.5 105.5t21.5 125q0 57 -16 103.5t-46 80t-71.5 51.5t-92.5 18q-66 0 -122 -25t-96.5 -70t-63 -108t-22.5 -139zM680 573q23 28 43 53.5t39 50.5q-56 -42 -121 -64.5t-135 -22.5q-67 0 -125.5 24t-102.5 69.5 t-69.5 111t-25.5 148.5q0 106 38.5 198t105.5 160t158 107.5t196 39.5q87 0 156 -29.5t116.5 -82t73 -125t25.5 -159.5q0 -74 -14.5 -137t-41.5 -122.5t-66.5 -119t-89.5 -125.5l-381 -508q-14 -17 -39 -28.5t-55 -11.5h-158z" />
<glyph unicode=":" horiz-adv-x="497" d="M67 110q0 26 9.5 49t26 40t39.5 27t49 10t49 -10t40 -27t27 -40t10 -49q0 -27 -10 -49.5t-27 -39.5t-40 -26.5t-49 -9.5t-49 9.5t-39.5 26.5t-26 39.5t-9.5 49.5zM151 860q0 26 9.5 49t26 40t39.5 27t49 10t49 -10t40 -27t27 -40t10 -49q0 -27 -10 -49.5t-27 -39.5 t-40 -26.5t-49 -9.5t-49 9.5t-39.5 26.5t-26 39.5t-9.5 49.5z" />
<glyph unicode=";" horiz-adv-x="519" d="M103 -242q-13 12 -13 28q0 12 16 31t37 45.5t41 61t27 77.5q-4 -1 -13 -1q-52 0 -84.5 34.5t-32.5 88.5q0 47 32.5 80t86.5 33q30 0 53 -11t38.5 -30.5t23.5 -45t8 -55.5q0 -45 -12.5 -93.5t-37 -96t-59.5 -92.5t-80 -83zM161 860q0 26 9.5 49t26 40t39.5 27t49 10 t49 -10t40 -27t27 -40t10 -49q0 -27 -10 -49.5t-27 -39.5t-40 -26.5t-49 -9.5t-49 9.5t-39.5 26.5t-26 39.5t-9.5 49.5z" />
<glyph unicode="&#x3c;" horiz-adv-x="1160" d="M998 1111l-15 -127q-2 -17 -12 -29.5t-30 -22.5l-478 -228q-21 -10 -44.5 -18t-49.5 -13q25 -6 46.5 -13.5t40.5 -18.5l421 -227q18 -10 25 -23t5 -29l-17 -128l-723 402l6 55h1l2 19z" />
<glyph unicode="=" horiz-adv-x="1160" d="M144 573h857l-16 -131h-857zM186 906h856l-15 -131h-857z" />
<glyph unicode="&#x3e;" horiz-adv-x="1160" d="M1001 654l-2 -18l-823 -402l16 128q2 16 11.5 29t30.5 23l477 227q21 11 44 18.5t49 13.5q-50 11 -86 31l-421 228q-18 10 -24.5 22.5t-4.5 29.5l15 127l725 -401z" />
<glyph unicode="?" horiz-adv-x="837" d="M158 1303q33 29 70.5 55t81 46t93.5 31.5t106 11.5q70 0 126.5 -21t96 -58t60.5 -87.5t21 -109.5q0 -84 -23.5 -143t-59.5 -102.5t-79 -75t-82.5 -61t-70 -61.5t-41.5 -75l-37 -154h-119l11 166q2 48 28.5 84.5t64 69t81 63.5t81 67.5t62 82t24.5 106.5q0 78 -47.5 123 t-128.5 45q-56 0 -97 -15t-70.5 -33t-49 -33t-32.5 -15t-20 5t-14 17zM213 110q0 26 9.5 49t26 40t39.5 27t49 10t49 -10t40 -27t27 -40t10 -49q0 -27 -10 -49.5t-27 -39.5t-40 -26.5t-49 -9.5t-49 9.5t-39.5 26.5t-26 39.5t-9.5 49.5z" />
<glyph unicode="@" horiz-adv-x="1537" d="M993 824q-35 9 -76 9q-73 0 -138 -35.5t-113.5 -92.5t-77 -128.5t-28.5 -144.5q0 -57 25 -93t76 -36q27 0 57 10t59 35.5t57 69t51 110.5zM1020 543q-27 -77 -32.5 -125.5t4.5 -75.5t32 -36.5t50 -9.5q52 0 100.5 35t86 98.5t60.5 151.5t23 193q0 116 -34 204t-95 147 t-145.5 89t-185.5 30q-135 0 -256.5 -58.5t-213 -163.5t-145.5 -249t-54 -315q0 -141 40 -250t111.5 -182.5t170.5 -111.5t217 -38q141 0 249 31.5t182 78.5q16 9 28.5 10.5t21 -2t13.5 -11.5t8 -17l13 -51q-107 -72 -237.5 -113t-290.5 -41q-146 0 -266 47.5t-206 137 t-133.5 217t-47.5 287.5q0 127 30 243.5t83.5 217t128.5 183t165 141t192 90.5t211 32q117 0 220.5 -39.5t181 -114.5t122.5 -183t45 -246q0 -127 -34.5 -234.5t-93.5 -186t-137 -123t-165 -44.5q-70 0 -111 37.5t-45 113.5q-63 -79 -130 -114t-139 -35q-48 0 -83.5 17.5 t-59 47.5t-34.5 71t-11 89q0 60 16 123t47.5 121.5t77 110.5t104.5 91t131 61.5t156 22.5q63 0 109 -10t86 -30z" />
<glyph unicode="A" horiz-adv-x="1262" d="M867 531l-131 593q-5 27 -12 62.5t-12 76.5q-15 -42 -30 -77l-27 -63l-277 -592h489zM1178 0h-144q-25 0 -39 12.5t-20 32.5l-78 350h-583l-164 -350q-9 -18 -27.5 -31.5t-41.5 -13.5h-146l702 1433h190z" />
<glyph unicode="B" horiz-adv-x="1204" d="M584 148q80 0 140 21t99.5 60t59.5 94t20 124q0 95 -63.5 151.5t-193.5 56.5h-281l-62 -507h281zM443 1286l-61 -499h231q81 0 141.5 21.5t101 60t60.5 92.5t20 119q0 103 -62 154.5t-192 51.5h-239zM699 1433q111 0 191.5 -22.5t132.5 -64t77 -101t25 -132.5 q0 -63 -18.5 -121.5t-55 -107.5t-92 -87t-129.5 -61q129 -29 193.5 -101t64.5 -185q0 -99 -35.5 -181.5t-102.5 -142.5t-163.5 -93t-217.5 -33h-471l176 1433h425z" />
<glyph unicode="C" horiz-adv-x="1249" d="M677 145q66 0 117 11t90 27t66.5 35.5t48 35.5t34.5 27t25 11q9 0 15 -3.5t10 -8.5l65 -81q-94 -102 -216.5 -158.5t-285.5 -56.5q-129 0 -230.5 46t-172 128.5t-108 196.5t-37.5 251q0 187 58 342t159.5 266.5t238.5 173t295 61.5q76 0 138 -13t113 -38t92.5 -60 t77.5 -78l-64 -78q-8 -10 -18 -16.5t-25 -6.5q-18 0 -38 20t-54.5 43.5t-89 43.5t-141.5 20q-117 0 -217.5 -46.5t-174.5 -133t-116.5 -209.5t-42.5 -276q0 -111 29 -199t80.5 -149.5t122.5 -94.5t156 -33z" />
<glyph unicode="D" horiz-adv-x="1415" d="M1342 817q0 -183 -56.5 -333.5t-156.5 -258t-237.5 -166.5t-299.5 -59h-494l176 1433h495q132 0 238 -45t180.5 -126.5t114.5 -195t40 -249.5zM1149 813q0 108 -27 195t-78.5 147.5t-125.5 93t-167 32.5h-307l-140 -1130h307q119 0 218 45.5t170 131t110.5 208 t39.5 277.5z" />
<glyph unicode="E" horiz-adv-x="1076" d="M443 1280l-59 -483h507l-19 -147h-506l-61 -498h629l-19 -152h-817l176 1433h816l-19 -153h-628z" />
<glyph unicode="F" horiz-adv-x="1060" d="M443 1280l-62 -510h536l-20 -152h-535l-76 -618h-188l176 1433h816l-19 -153h-628z" />
<glyph unicode="G" horiz-adv-x="1361" d="M848 686h411l-68 -547q-54 -39 -111.5 -68t-121 -48.5t-134.5 -29t-153 -9.5q-130 0 -236 46.5t-181 130t-115.5 199.5t-40.5 254q0 185 57.5 338.5t159 264t241 171.5t304.5 61q84 0 151.5 -14t123 -39t100 -59t81.5 -74l-60 -78q-15 -21 -35.5 -26t-42.5 9 q-22 13 -48.5 33.5t-64.5 39t-91 32t-128 13.5q-123 0 -225.5 -47t-176 -134t-114 -210t-40.5 -274q0 -113 29.5 -203t83.5 -153t130 -96.5t169 -33.5q52 0 97 6t85 16.5t76 26t72 35.5l40 324h-200q-18 0 -28 10.5t-8 25.5z" />
<glyph unicode="H" horiz-adv-x="1420" d="M1350 1433l-177 -1433h-188l80 654h-699l-80 -654h-188l176 1433h188l-79 -643h699l79 643h189z" />
<glyph unicode="I" horiz-adv-x="533" d="M286 0h-188l175 1433h188z" />
<glyph unicode="J" horiz-adv-x="801" d="M625 475q-15 -119 -52.5 -210.5t-97 -154t-139 -94.5t-178.5 -32q-54 0 -100.5 7t-93.5 21l13 109q3 15 12 26t29 11q11 0 23.5 -2.5t29 -6t38 -6t50.5 -2.5q52 0 98 17t82.5 56t62 102t36.5 155l118 962h187z" />
<glyph unicode="K" horiz-adv-x="1236" d="M382 802h66q35 0 57.5 9.5t43.5 32.5l496 544q21 27 44 36t53 9h159l-572 -620q-40 -46 -78 -63q24 -10 42.5 -26.5t33.5 -44.5l432 -679h-161q-37 0 -52 10.5t-26 29.5l-376 572q-15 25 -35 35.5t-63 10.5h-81l-81 -658h-186l175 1433h187z" />
<glyph unicode="L" horiz-adv-x="951" d="M870 158l-19 -158h-753l176 1433h187l-157 -1275h566z" />
<glyph unicode="M" horiz-adv-x="1725" d="M1655 1433l-177 -1433h-163l130 1059q3 20 7.5 44t10.5 50l-559 -901q-26 -43 -72 -43h-27q-22 0 -38.5 11t-23.5 32l-346 901q-1 -24 -2 -47.5t-3 -43.5l-129 -1062h-165l176 1433h138q25 0 36 -6.5t25 -25.5l347 -901q7 -20 12 -40t10 -41q10 21 20 41t22 40l564 901 q17 20 30 26t38 6h139z" />
<glyph unicode="N" horiz-adv-x="1420" d="M1350 1433l-177 -1433h-93q-23 0 -37 8.5t-27 26.5l-618 1096q-2 -20 -3 -37.5t-3 -33.5l-129 -1060h-165l176 1433h97q25 0 36 -6t23 -26l619 -1095q2 23 3.5 44t3.5 39l129 1044h165z" />
<glyph unicode="O" horiz-adv-x="1491" d="M1420 818q0 -183 -56.5 -336t-157 -263.5t-238 -172t-299.5 -61.5q-132 0 -237.5 47t-180 130.5t-114 198.5t-39.5 252q0 183 57 336.5t158 264.5t238.5 173t298.5 62q132 0 237.5 -47.5t179.5 -131.5t113.5 -199.5t39.5 -252.5zM1228 814q0 109 -28 197.5t-79.5 150.5 t-126 96t-167.5 34q-118 0 -216.5 -47.5t-170 -135.5t-111 -212.5t-39.5 -278.5q0 -109 27.5 -197t79.5 -150t126 -95.5t167 -33.5q119 0 218 47t170 134.5t110.5 212t39.5 278.5z" />
<glyph unicode="P" horiz-adv-x="1124" d="M576 686q85 0 150 26t109 72.5t67 111t23 140.5q0 58 -17 104t-51 78.5t-86 50t-121 17.5h-208l-74 -600h208zM668 1433q114 0 198 -27t138.5 -77t81.5 -120t27 -156q0 -113 -37 -207.5t-107.5 -162.5t-174 -106.5t-236.5 -38.5h-208l-66 -538h-186l175 1433h395z" />
<glyph unicode="Q" horiz-adv-x="1491" d="M290 618q0 -109 27.5 -197t79.5 -150t126 -95.5t167 -33.5q119 0 218 47t170 134.5t110.5 212t39.5 278.5q0 109 -28 197.5t-79.5 150.5t-126 96t-167.5 34q-118 0 -216.5 -47.5t-170 -135.5t-111 -212.5t-39.5 -278.5zM897 20q-108 -35 -228 -35q-132 0 -237.5 47 t-180 130.5t-114 198.5t-39.5 252q0 183 57 336.5t158 264.5t238.5 173t298.5 62q132 0 237.5 -47.5t179.5 -131.5t113.5 -199.5t39.5 -252.5q0 -121 -25.5 -229t-72 -200.5t-113.5 -166.5t-149 -126l290 -393h-151q-35 0 -60.5 10t-45.5 34z" />
<glyph unicode="R" horiz-adv-x="1167" d="M558 737q85 0 150 24t109.5 67.5t67 103t22.5 130.5q0 109 -68.5 166.5t-205.5 57.5h-190l-68 -549h183zM650 1433q114 0 197.5 -24t138 -68.5t81 -108t26.5 -141.5q0 -87 -26 -162t-75 -134t-118 -100.5t-156 -61.5q32 -22 53 -61l309 -572h-166q-51 0 -70 40l-270 516 q-13 25 -30 35t-54 10h-132l-74 -601h-186l175 1433h377z" />
<glyph unicode="S" horiz-adv-x="1016" d="M927 1211q-11 -14 -21 -21.5t-24 -7.5q-17 0 -36 17.5t-48.5 38t-71.5 38t-105 17.5q-64 0 -114 -20t-84.5 -54.5t-52.5 -80.5t-18 -99q0 -52 24 -87.5t63 -61t89.5 -45t102.5 -40t102.5 -45.5t89.5 -62t63 -89t24 -126q0 -102 -35 -192.5t-100.5 -158.5t-158.5 -108 t-209 -40q-128 0 -228.5 50.5t-165.5 136.5l66 89q8 11 20 18t26 7q19 0 41 -22.5t56 -50t84 -50t125 -22.5q69 0 124.5 22t94 61t59.5 93.5t21 120.5q0 55 -24 91.5t-63 61.5t-89 43.5t-102 37.5t-102 43t-89 61t-63 91t-24 133q0 88 32 169t92 143t146.5 99t194.5 37 q110 0 198 -42t145 -115z" />
<glyph unicode="T" horiz-adv-x="1092" d="M1144 1276h-422l-158 -1276h-186l156 1276h-424l18 157h1035z" />
<glyph unicode="U" horiz-adv-x="1370" d="M628 147q81 0 148 31t118 85.5t83.5 130.5t43.5 166l107 873h187l-107 -873q-15 -123 -65 -228.5t-128 -183t-181 -121.5t-226 -44q-122 0 -214.5 44t-151.5 121.5t-82.5 183t-8.5 228.5l106 873h187l-107 -872q-11 -90 3 -166t51 -131t96.5 -86t140.5 -31z" />
<glyph unicode="V" horiz-adv-x="1259" d="M1352 1433l-712 -1433h-169l-362 1433h150q25 0 39.5 -13t17.5 -32l240 -1024q8 -32 15 -70.5t12 -80.5q14 42 29 80.5t32 70.5l489 1024q8 17 26.5 31t42.5 14h150z" />
<glyph unicode="W" horiz-adv-x="1910" d="M1982 1433l-588 -1433h-169l-194 1103q-2 16 -4.5 35t-4.5 39q-7 -20 -14 -39t-13 -35l-466 -1103h-168l-236 1433h147q25 0 40 -12.5t17 -32.5l155 -1014q2 -26 4 -56.5t4 -62.5q11 33 21.5 63t21.5 56l428 1014q8 17 26 31t42 14h43q25 0 39.5 -12.5t19.5 -32.5 l179 -1014q5 -26 8 -55t6 -61q9 32 18 61t18 55l403 1014q5 17 25.5 31t44.5 14h147z" />
<glyph unicode="X" horiz-adv-x="1218" d="M760 773l378 -773h-168q-20 0 -31 11.5t-17 24.5l-292 626q-7 -17 -18 -31l-432 -595q-13 -20 -28.5 -28t-33.5 -8h-186l569 765l-336 668h169q20 0 29 -7t17 -21l256 -540l10 18t11 19l364 502q11 15 21.5 22t25.5 7h193z" />
<glyph unicode="Y" horiz-adv-x="1164" d="M672 573l-71 -573h-187l71 571l-378 862h165q25 0 39 -12t21 -32l237 -574q19 -57 30 -108q12 26 26.5 52.5t31.5 55.5l380 574q11 17 27.5 30.5t40.5 13.5h155z" />
<glyph unicode="Z" horiz-adv-x="1111" d="M1145 1373q-2 -14 -8.5 -25t-14.5 -24l-875 -1172h737l-20 -152h-990l8 59q2 14 8 25t14 23l877 1173h-714l19 153h967z" />
<glyph unicode="[" horiz-adv-x="580" d="M626 1465q-2 -20 -17.5 -33t-35.5 -13h-151l-197 -1592h153q20 0 31.5 -13.5t9.5 -33.5l-8 -67h-343l223 1819h342z" />
<glyph unicode="\" horiz-adv-x="829" d="M165 1451h73q32 0 53.5 -17t29.5 -46l360 -1479h-71q-28 0 -53 17t-33 49z" />
<glyph unicode="]" horiz-adv-x="581" d="M293 -287h-343l8 67q2 20 17 33.5t36 13.5h152l196 1592h-152q-22 0 -33 13t-9 33l8 67h344z" />
<glyph unicode="^" horiz-adv-x="1160" d="M1047 787h-130q-17 0 -29 10t-20 24l-196 352q-13 23 -22 44.5t-17 42.5q-12 -41 -37 -87l-193 -352q-8 -14 -20 -24t-32 -10h-136l359 646h114z" />
<glyph unicode="_" horiz-adv-x="888" d="M713 -168l-15 -116h-725l14 116h726z" />
<glyph unicode="`" horiz-adv-x="736" d="M439 1449q30 0 44 -10.5t24 -33.5l109 -242h-93q-19 0 -30.5 6.5t-22.5 21.5l-186 258h155z" />
<glyph unicode="a" horiz-adv-x="1022" d="M753 889q-22 5 -43.5 6.5t-42.5 1.5q-60 0 -116 -19.5t-105 -54.5t-89 -83.5t-68.5 -106.5t-44.5 -123.5t-16 -134.5q0 -241 154 -241q49 0 96 30.5t89.5 85t78.5 129t64 163.5zM685 267q-36 -64 -77.5 -116t-88 -88.5t-98 -56.5t-106.5 -20q-60 0 -109 23.5t-83.5 69 t-53.5 112t-19 152.5q0 90 22.5 175.5t64 161.5t99.5 139.5t129.5 110t153.5 72t172 25.5q65 0 126.5 -10.5t121.5 -36.5l-121 -980h-92q-35 0 -47.5 18t-12.5 44z" />
<glyph unicode="b" horiz-adv-x="1057" d="M259 222q38 -53 91.5 -75.5t107.5 -22.5q52 0 98 22t84 59.5t67.5 88t50.5 108t31.5 119t10.5 121.5q0 119 -42.5 181t-120.5 62q-48 0 -97 -30t-95 -83.5t-85.5 -127t-68.5 -160.5zM324 756q38 62 81.5 112t91.5 85.5t100 55t106 19.5q130 0 202 -94t72 -275 q0 -82 -17 -164t-48.5 -156.5t-76 -139t-99 -112t-118.5 -74.5t-134 -27q-81 0 -146 34t-108 97l-14 -65q-8 -26 -20 -39t-43 -13h-94l178 1473h174z" />
<glyph unicode="c" horiz-adv-x="909" d="M818 182q-52 -57 -99 -95t-94 -60.5t-97.5 -31.5t-108.5 -9q-88 0 -155.5 30t-113 84.5t-69 131t-23.5 168.5q0 123 38.5 236t107.5 200t164.5 139t208.5 52q101 0 169 -35.5t119 -103.5l-56 -67q-7 -8 -15.5 -13t-19.5 -5q-14 0 -27.5 12.5t-35.5 28t-54.5 28 t-83.5 12.5q-69 0 -130 -37.5t-107 -102.5t-72.5 -154t-26.5 -191q0 -62 14 -112.5t42 -86t68.5 -55t94.5 -19.5q67 0 112.5 20t76.5 43.5t52.5 43.5t42.5 20q19 0 34 -17l44 -54v0z" />
<glyph unicode="d" horiz-adv-x="1058" d="M774 792q-38 54 -91.5 75.5t-108.5 21.5q-79 0 -142 -47t-107.5 -121.5t-68.5 -166.5t-24 -181q0 -119 42.5 -181.5t121.5 -62.5q48 0 97 30t94.5 83.5t85 126.5t68.5 160zM1032 1473l-181 -1473h-93q-35 0 -47 18t-12 44l19 213q-38 -66 -83 -119t-94.5 -91t-103 -58.5 t-108.5 -20.5q-130 0 -202 94.5t-72 274.5q0 82 17 164t48.5 157t76 139.5t99.5 111.5t118.5 74t133.5 27q75 0 136.5 -29.5t104.5 -83.5l69 558h174z" />
<glyph unicode="e" horiz-adv-x="957" d="M574 899q-63 0 -116 -26t-94 -71.5t-70 -107t-45 -132.5q154 19 247 43.5t143 53t66 61.5t16 69q0 18 -8 37.5t-25.5 35.5t-45.5 26.5t-68 10.5zM856 187q-51 -53 -100 -90.5t-99.5 -62.5t-106 -36.5t-119.5 -11.5q-87 0 -156 29t-117 82.5t-74 129.5t-26 170 q0 78 16.5 155.5t48 147.5t77 130t104 103.5t129 68.5t151.5 25q77 0 133 -22t92 -56t53.5 -75t17.5 -78q0 -66 -27 -121.5t-99 -100t-198 -77.5t-324 -53q0 -11 -0.5 -21.5t-0.5 -21.5q0 -134 58.5 -204.5t176.5 -70.5q48 0 85.5 10t67 24.5t52 32t41 32t34.5 24.5t32 10 q19 0 34 -17z" />
<glyph unicode="f" horiz-adv-x="641" d="M395 865l-101 -832l-47 -207q-11 -36 -32.5 -55.5t-59.5 -19.5h-69l134 1111l-100 13q-18 5 -28.5 15t-8.5 31l9 72h144l12 98q11 87 43.5 154.5t82 114t113 70.5t137.5 24q61 0 113 -20l-17 -92q-4 -20 -27 -20h-58q-43 0 -79.5 -12.5t-64.5 -40.5t-47.5 -73t-27.5 -110 l-11 -93h253l-17 -128h-246z" />
<glyph unicode="g" horiz-adv-x="968" d="M439 457q54 0 95.5 23.5t70 62t43.5 86.5t15 97q0 88 -44.5 133t-122.5 45q-54 0 -95 -22t-69.5 -59t-43 -84t-14.5 -98q0 -90 43.5 -137t121.5 -47zM640 -25q0 27 -5 49.5t-13 42.5q-132 21 -228 15.5t-158.5 -29.5t-92.5 -62t-30 -82q0 -72 60.5 -110t171.5 -38 q66 0 120.5 17.5t93 46.5t60 68t21.5 82zM980 976l-7 -59q-5 -36 -40 -48l-127 -22q19 -52 19 -115q0 -50 -11.5 -90t-28.5 -74t-37 -64t-37 -59.5t-28.5 -61t-11.5 -68.5q0 -27 9.5 -51.5t24 -48t32 -47.5t32 -51t24 -58.5t9.5 -69.5q-1 -71 -34 -134.5t-94 -112.5 t-148 -77.5t-196 -28.5q-87 0 -158.5 18t-122 51t-78 79.5t-27.5 102.5q0 64 27 113t73 84.5t107 58.5t129.5 34t140.5 10.5t141 -10.5q-9 19 -14.5 39.5t-5.5 44.5q0 31 9.5 64t31.5 75q-38 -26 -85 -40.5t-107 -14.5q-58 0 -108.5 19t-88.5 56t-60 92.5t-22 129.5 q0 72 26.5 141.5t77.5 124t126 87.5t173 33q54 0 103 -13t88 -39h274z" />
<glyph unicode="h" horiz-adv-x="1059" d="M332 789q79 118 175.5 178.5t196.5 60.5q65 0 114 -25.5t79.5 -74.5t41.5 -120.5t0 -162.5l-76 -645h-178l76 645q15 120 -14 178t-108 58q-45 0 -93 -24.5t-92.5 -69.5t-84 -109t-68.5 -143l-65 -535h-177l178 1473h178z" />
<glyph unicode="i" horiz-adv-x="460" d="M366 1013l-122 -1013h-175l122 1013h175zM434 1331q0 -26 -10.5 -48.5t-28 -40t-40 -27.5t-46.5 -10q-23 0 -45 10t-38.5 27.5t-26.5 40t-10 48.5t10 49t27 40.5t39 28t45 10.5q24 0 46.5 -10t39.5 -27.5t27.5 -41t10.5 -49.5z" />
<glyph unicode="j" horiz-adv-x="458" d="M366 1013l-134 -1088q-7 -61 -30 -113.5t-60.5 -91.5t-90.5 -61.5t-120 -22.5q-35 0 -59.5 5t-48.5 15l18 96q3 9 7.5 13.5t12 5.5t19 0.5t28.5 -0.5q71 0 105 36.5t45 117.5l133 1088h175zM429 1331q0 -26 -10.5 -48.5t-28 -40t-39.5 -27.5t-46 -10t-45.5 10t-38 27.5 t-26.5 40t-10 48.5t10 49t27 40.5t38.5 28t45.5 10.5t46 -10t39.5 -27.5t27.5 -41t10 -49.5z" />
<glyph unicode="k" horiz-adv-x="948" d="M413 1473l-106 -867h30q21 0 34 5.5t28 22.5l336 343q14 17 30 26.5t39 9.5h158l-391 -397q-30 -35 -61 -53q16 -12 27.5 -27.5t21.5 -35.5l304 -500h-153q-22 0 -36.5 7.5t-23.5 27.5l-258 415q-12 21 -25 27.5t-41 6.5h-34l-59 -484h-176l181 1473h175z" />
<glyph unicode="l" horiz-adv-x="450" d="M64 0l179 1473h175l-179 -1473h-175z" />
<glyph unicode="m" horiz-adv-x="1574" d="M59 0l122 1014h88q61 0 61 -60l-14 -180q75 125 164.5 189.5t187.5 64.5q103 0 152 -70.5t49 -201.5q75 139 169.5 205.5t199.5 66.5q130 0 184 -100t32 -283l-76 -645h-176l77 645q14 119 -7.5 177t-96.5 58q-43 0 -85.5 -21.5t-82.5 -63t-74.5 -103t-61.5 -141.5v-1 l-65 -550h-176l76 645q15 119 -4 177t-94 58q-48 0 -92.5 -24t-84 -69.5t-73.5 -111t-62 -147.5l-63 -528h-174z" />
<glyph unicode="n" horiz-adv-x="1060" d="M314 757q81 134 183 202.5t210 68.5q64 0 112.5 -25.5t79 -74.5t41.5 -120.5t0 -162.5l-76 -645h-177l76 645q14 120 -15 177.5t-107 57.5q-48 0 -97.5 -26t-95.5 -74t-85.5 -115.5t-67.5 -150.5l-58 -514h-178l122 1014h88q60 0 60 -60z" />
<glyph unicode="o" horiz-adv-x="1038" d="M453 125q73 0 132.5 40t102 106.5t65.5 153.5t23 182q0 140 -55.5 210.5t-159.5 70.5q-74 0 -133.5 -39.5t-101.5 -105.5t-65 -153t-23 -182q0 -140 55 -211.5t160 -71.5zM436 -14q-83 0 -152 28.5t-119 82.5t-78 132t-28 178q0 128 40 241t110 197.5t164.5 133.5 t203.5 49q83 0 152 -28.5t119 -82.5t78 -132t28 -177q0 -127 -40 -240t-109.5 -198t-164.5 -134.5t-204 -49.5z" />
<glyph unicode="p" horiz-adv-x="1057" d="M259 222q38 -53 91 -75.5t108 -22.5q52 0 98 22t84 59.5t68 88t50.5 108t31.5 119t11 121.5q0 119 -43 181t-121 62q-48 0 -97 -29.5t-94.5 -82.5t-85 -126t-68.5 -160zM313 738q38 66 83 119.5t95 91.5t103.5 58.5t109.5 20.5q130 0 201.5 -94t71.5 -275q0 -82 -17 -164 t-48.5 -156.5t-76 -139t-99 -112t-118.5 -74.5t-134 -27q-75 0 -136 29.5t-104 83.5l-54 -442h-173l165 1357h88q60 0 60 -60z" />
<glyph unicode="q" horiz-adv-x="1023" d="M754 889q-22 5 -43.5 6.5t-42.5 1.5q-61 0 -117 -19.5t-105 -54.5t-89 -83.5t-68.5 -106.5t-44.5 -123.5t-16 -134.5q0 -120 39.5 -180.5t115.5 -60.5q48 0 95 30t89 83.5t78 127t64 160.5zM672 244q-35 -59 -75.5 -106.5t-85 -81.5t-93.5 -52t-102 -18q-60 0 -109 23.5 t-84 69t-54 112t-19 152.5q0 90 22.5 175.5t64 161.5t100 139.5t130 110t153.5 72t172 25.5q65 0 126 -10.5t121 -36.5l-163 -1323h-112q-18 0 -30 6.5t-18.5 17t-8.5 24.5t0 28z" />
<glyph unicode="r" horiz-adv-x="684" d="M313 731q40 85 86.5 147.5t97.5 98t105 43t110 -16.5l-32 -171q-130 52 -229.5 -38t-161.5 -325l-56 -469h-174l122 1014h88q61 0 61 -60z" />
<glyph unicode="s" horiz-adv-x="800" d="M712 851q-8 -12 -16 -17.5t-20 -5.5q-14 0 -30.5 11t-40 24.5t-57.5 25t-82 11.5q-45 0 -82 -12.5t-63.5 -34.5t-41 -51.5t-14.5 -62.5q0 -47 31 -75t78 -48.5t101 -39.5t101 -48t78 -74t31 -117q0 -70 -27.5 -134t-79 -112.5t-124 -77.5t-162.5 -29q-97 0 -171.5 34.5 t-121.5 88.5l44 68q9 13 19.5 20t27.5 7q16 0 32 -14t40 -31.5t60.5 -31.5t92.5 -14q49 0 88.5 15t67 40t42 58.5t14.5 71.5q0 51 -31 81t-78 50t-101 37.5t-101 45t-78 71.5t-31 117q0 64 25.5 123.5t73.5 105.5t116.5 73.5t154.5 27.5q91 0 160.5 -30.5t119.5 -82.5z" />
<glyph unicode="t" horiz-adv-x="709" d="M139 191v15.5t1.5 27.5t5 47t9.5 76l62 507h-113q-14 0 -22.5 9.5t-6.5 29.5l8 71l156 21l76 313q5 15 15.5 24.5t26.5 9.5h93l-43 -349h266l-15 -129h-267l-61 -498q-5 -41 -8 -66t-4.5 -40t-2 -21t-0.5 -9q0 -51 24 -75.5t64 -24.5q27 0 46.5 7.5t34.5 16.5t25 16.5 t17 7.5q9 0 13.5 -4t8.5 -13l38 -85q-49 -43 -111.5 -67.5t-125.5 -24.5q-97 0 -152.5 53t-57.5 154z" />
<glyph unicode="u" horiz-adv-x="1059" d="M975 1013l-122 -1013h-88q-65 0 -65 64l15 185q-80 -130 -180.5 -196.5t-206.5 -66.5q-64 0 -113 25.5t-79.5 74.5t-41.5 120t1 163l76 644h177l-76 -644q-14 -119 14.5 -177t107.5 -58q46 0 95 25t94 71t84.5 111.5t67.5 145.5l63 526h177z" />
<glyph unicode="v" horiz-adv-x="958" d="M988 1013l-508 -1013h-148l-262 1013h144q20 0 32 -11t16 -26l150 -652q6 -38 10 -75t7 -75q11 37 24 74t30 76l313 652q8 16 22 26.5t32 10.5h138z" />
<glyph unicode="w" horiz-adv-x="1446" d="M1463 1013l-425 -1013h-135q-24 0 -30 34l-123 687q-2 17 -3.5 32.5t-3.5 32.5q-11 -33 -24 -66l-292 -686q-14 -34 -41 -34h-130l-178 1013h133q20 0 32 -10t16 -27l93 -652q2 -35 4 -68t3 -65q11 32 24 65t27 68l277 656q5 15 19 25t31 10h74q19 0 30 -10t13 -25 l114 -656q5 -35 9 -67.5t7 -65.5q9 32 19.5 65t22.5 68l257 652q5 16 19.5 26.5t31.5 10.5h129z" />
<glyph unicode="x" horiz-adv-x="928" d="M571 544l269 -544h-158q-20 0 -31.5 10t-18.5 25l-190 406q-9 -21 -21 -39l-276 -368q-11 -14 -23 -24t-30 -10h-155l409 545l-243 468h159q20 0 29 -5.5t15 -19.5l170 -349q11 22 25 43l229 303q16 28 42 28h160z" />
<glyph unicode="y" horiz-adv-x="959" d="M992 1013l-684 -1315q-11 -21 -25.5 -31t-36.5 -10h-131l220 403l-263 953h147q22 0 32 -10.5t15 -26.5l163 -638q5 -21 8 -42t5 -42q9 21 18 42.5t19 42.5l320 639q8 16 22.5 25.5t29.5 9.5h141z" />
<glyph unicode="z" horiz-adv-x="848" d="M836 1013l-10 -76q-2 -19 -10.5 -36.5t-19.5 -31.5l-584 -730h499l-16 -139h-713l9 74q1 13 9 31t21 33l587 735h-491l17 140h702z" />
<glyph unicode="{" horiz-adv-x="568" d="M618 1532l-9 -77q-2 -20 -17.5 -28t-25.5 -8h-17q-75 0 -123 -57.5t-53 -163.5q-4 -47 -4 -91.5t1 -88t1.5 -85t-2.5 -81.5q-3 -46 -16.5 -84.5t-36 -67.5t-52 -49t-62.5 -29q54 -16 85.5 -62t31.5 -109q0 -60 -15 -117t-32.5 -114.5t-32.5 -116t-15 -121.5 q0 -70 33.5 -112.5t95.5 -42.5h18q11 0 23.5 -9t10.5 -28l-10 -77h-50q-68 0 -119 20t-85 55.5t-51 84.5t-17 107q0 66 16 126t35 117.5t35 114t16 115.5q0 52 -28 85t-81 33l13 104q74 0 110.5 59.5t36.5 183.5q0 22 -1.5 48.5t-3 54t-3 54t-1.5 48.5q0 97 23 173 t67.5 128.5t110 80t151.5 27.5h49z" />
<glyph unicode="|" horiz-adv-x="517" d="M188 1533h138v-1876h-138v1876z" />
<glyph unicode="}" horiz-adv-x="569" d="M228 1532q68 0 119 -20t84.5 -55.5t50.5 -84.5t17 -107q0 -66 -15.5 -126t-34.5 -117t-34.5 -113.5t-15.5 -115.5q0 -52 27 -85t81 -33l-13 -104q-73 0 -110 -59.5t-37 -184.5q0 -21 1 -47.5t2.5 -54t3 -54t1.5 -48.5q0 -97 -23 -173t-67 -128.5t-110 -80.5t-151 -28h-50 l11 77q2 19 16 28t26 9h17q75 0 123 57.5t53 163.5q4 46 4 91t-1 88t-1 84.5t3 81.5q2 46 16 84.5t36.5 67.5t51.5 49t62 29q-54 17 -86 63t-32 109q0 59 15 116.5t33 115t33 116t15 121.5q0 69 -33.5 112t-95.5 43h-17q-12 0 -24.5 8t-9.5 28l9 77h50z" />
<glyph unicode="~" horiz-adv-x="1160" d="M760 613q65 0 101 42.5t37 112.5h145q0 -67 -18.5 -123t-53 -96t-85.5 -62t-115 -22q-53 0 -103.5 16t-98 35.5t-90.5 36t-80 16.5q-65 0 -101.5 -42t-37.5 -113h-144q0 67 18.5 123t53 96t85 62.5t115.5 22.5q52 0 103 -16.5t98.5 -36t90.5 -36t80 -16.5z" />
<glyph unicode="&#xa1;" horiz-adv-x="470" d="M49 -344l67 542q5 45 11.5 87.5t14.5 85.5t17 89t19 99h104q-2 -53 -4.5 -99t-5.5 -89t-6.5 -85.5t-9.5 -87.5l-66 -542h-141zM144 903q0 26 9.5 49t26.5 40t39.5 27t49.5 10q26 0 48.5 -10t39.5 -27t27 -40t10 -49q0 -27 -10 -49.5t-27 -39.5t-39.5 -26.5t-48.5 -9.5 q-27 0 -49.5 9.5t-39.5 26.5t-26.5 39.5t-9.5 49.5z" />
<glyph unicode="&#xa2;" horiz-adv-x="1160" d="M661 894q-90 -6 -158.5 -40.5t-115 -93.5t-70.5 -140.5t-24 -180.5q0 -132 58 -212.5t164 -101.5zM794 1020q81 -11 143.5 -42.5t109.5 -80.5l-51 -60q-9 -11 -17 -15.5t-22 -4.5q-12 0 -27 9t-36.5 21t-51.5 24t-73 19l-147 -771q64 4 109.5 19.5t77 32.5t52.5 30.5 t36 13.5q22 0 31 -15l40 -60q-67 -70 -164 -107.5t-206 -44.5l-34 -177q-5 -19 -19.5 -33.5t-34.5 -14.5h-64l43 226q-82 9 -149.5 43.5t-115.5 91t-74.5 134t-26.5 173.5q0 126 38.5 233.5t111.5 187t177 125.5t236 49l34 180q4 19 18.5 33.5t35.5 14.5h64z" />
<glyph unicode="&#xa3;" horiz-adv-x="1160" d="M875 661q-2 -17 -17.5 -31.5t-38.5 -14.5h-424l-31 -256q-9 -75 -36 -128t-75 -95q30 6 59.5 9.5t59.5 3.5h685l-8 -73q-2 -13 -8.5 -26.5t-18 -24.5t-26 -18t-31.5 -7h-965l13 112q36 10 64.5 25.5t49.5 39t35 57t20 79.5l36 302h-163l8 70q2 18 17.5 32t38.5 14h113 l33 265q12 94 51.5 176.5t104.5 143.5t153 96t197 35q83 0 144.5 -19t105.5 -52t73 -78.5t47 -98.5l-75 -44q-26 -12 -47.5 -10t-38.5 24q-17 28 -35 52.5t-43 41.5t-60.5 27t-87.5 10q-65 0 -118.5 -21.5t-94 -61t-66 -95.5t-33.5 -125l-33 -266h473l-7 -70v0z" />
<glyph unicode="&#xa4;" horiz-adv-x="1160" d="M359 672q0 -46 17.5 -86.5t48 -71t71.5 -48.5t87 -18q47 0 88.5 18t72 48.5t48.5 71t18 86.5q0 47 -18 88t-48.5 72t-72 48.5t-88.5 17.5q-46 0 -87 -17.5t-71.5 -48.5t-48 -72t-17.5 -88zM940 227l-152 152q-44 -30 -95.5 -47t-109.5 -17q-57 0 -107.5 16.5t-93.5 45.5 l-154 -153l-89 91l151 152q-30 44 -47 96t-17 109t16.5 108t45.5 94l-152 153l90 90l152 -152q44 31 95.5 48t109.5 17q57 0 108 -16.5t95 -46.5l152 153l90 -91l-151 -151q30 -44 47 -96t17 -110q0 -57 -16.5 -107.5t-45.5 -94.5l152 -151z" />
<glyph unicode="&#xa5;" horiz-adv-x="1160" d="M696 624h310l-12 -99h-342l-13 -105h342l-12 -99h-342l-40 -321h-172l39 321h-342l12 99h342l13 105h-342l12 99h310l-310 807h144q24 0 38.5 -11.5t19.5 -31.5l212 -573q10 -34 16 -62t9 -56q10 28 22.5 56.5t29.5 61.5l351 573q11 17 28 30t41 13h146z" />
<glyph unicode="&#xa6;" horiz-adv-x="516" d="M187 1533h139v-794h-139v794zM187 452h139v-795h-139v795z" />
<glyph unicode="&#xa7;" horiz-adv-x="924" d="M571 462q59 29 84 72t25 96q0 49 -27 83t-69.5 61t-94 51t-100.5 53q-70 -35 -98 -75t-28 -92q0 -46 29 -79.5t74 -61t99.5 -53t105.5 -55.5zM829 1267q-15 -22 -38 -22q-15 0 -31.5 11.5t-40 25t-56.5 25t-81 11.5q-47 0 -84.5 -14t-64.5 -37t-41.5 -54t-14.5 -65 q0 -46 34 -78.5t85 -60.5t110.5 -56t110.5 -65t85 -87t34 -122q0 -91 -44 -162.5t-140 -112.5q36 -33 58.5 -75.5t22.5 -99.5q0 -74 -27 -138.5t-78 -112.5t-124.5 -75.5t-167.5 -27.5q-97 0 -173.5 34t-124.5 88l48 66q9 13 20.5 19t28.5 6q18 0 34.5 -14t41 -31t61 -31 t93.5 -14q50 0 89.5 14.5t67 40t42 60t14.5 75.5t-20.5 71t-53.5 54t-75.5 44t-86.5 41t-86.5 45t-75.5 55.5t-53.5 72.5t-20.5 97q0 88 48.5 158.5t150.5 109.5q-37 34 -60 78t-23 106q0 65 26 124t74 104t117.5 71.5t156.5 26.5q91 0 161 -31t117 -85z" />
<glyph unicode="&#xa8;" horiz-adv-x="736" d="M447 1289q0 -23 -9 -43t-25 -35t-36.5 -24t-43.5 -9t-43 9t-35.5 24t-24.5 35t-9 43t9 44t24.5 36.5t35.5 24.5t43 9t43.5 -9t36.5 -24.5t25 -36.5t9 -44zM808 1289q0 -23 -9 -43t-24.5 -35t-36 -24t-43.5 -9t-43.5 9t-36 24t-24.5 35t-9 43t9 44t24.5 36.5t36 24.5 t43.5 9t43.5 -9t36 -24.5t24.5 -36.5t9 -44z" />
<glyph unicode="&#xa9;" horiz-adv-x="1662" d="M1100 474q15 1 26 -11l61 -64q-57 -66 -140 -102.5t-198 -36.5q-98 0 -179 34t-138.5 95t-89 145t-31.5 184q0 101 34.5 185.5t95.5 145t144.5 94t181.5 33.5q109 0 184.5 -33.5t132.5 -89.5l-46 -65q-5 -6 -13 -12t-20 -6q-14 0 -29.5 11t-40 24.5t-63 25t-96.5 11.5 q-71 0 -127.5 -22.5t-96 -64.5t-61 -102t-21.5 -135q0 -77 21.5 -137.5t59.5 -101.5t91 -62.5t115 -21.5q52 0 87 8t61.5 19.5t48 25.5t46.5 26zM114 716q0 101 26 194.5t73.5 175t114.5 148t148 114.5t174 74t194 26t194.5 -26t174.5 -74t148 -114.5t114.5 -148t73.5 -175 t26 -194.5q0 -100 -26 -193.5t-73.5 -174.5t-114.5 -147.5t-148 -114.5t-174.5 -74t-194.5 -26t-194 26t-174 74t-148 114.5t-114.5 147.5t-73.5 174t-26 194zM214 716q0 -89 22 -171t63 -153.5t98 -129.5t127 -99.5t151 -64t169 -22.5t169.5 22.5t152 64t128 99.5 t98.5 129.5t63.5 153.5t22.5 171q0 134 -49.5 251.5t-135 205t-201.5 138t-248 50.5t-247 -50.5t-200 -138t-134 -205t-49 -251.5z" />
<glyph unicode="&#xaa;" horiz-adv-x="685" d="M500 1103q-66 -2 -111.5 -11t-74 -24.5t-41.5 -36.5t-13 -47q0 -34 21 -49t53 -15q46 0 81.5 19t71.5 54zM213 1353q54 50 114 73t128 23q49 0 85.5 -18.5t59.5 -50t32.5 -73t3.5 -86.5l-47 -381h-58q-17 0 -24.5 5.5t-14.5 22.5l-5 49q-25 -21 -48 -37t-47 -27 t-50.5 -16.5t-57.5 -5.5q-64 0 -105 34.5t-41 102.5q0 40 18.5 77.5t62 67.5t114.5 49t177 21l4 38q5 57 -14 91t-73 34q-35 0 -59 -9t-42 -19.5t-32.5 -19.5t-29.5 -9q-14 0 -21.5 7.5t-12.5 16.5z" />
<glyph unicode="&#xab;" horiz-adv-x="789" d="M246 565q-16 -23 -32 -36q11 -11 22 -36l112 -263q10 -23 3.5 -43t-29.5 -31l-60 -27l-183 389l3 22l279 388l52 -27q21 -11 23 -30.5t-15 -42.5zM517 565q-16 -23 -32 -36q11 -11 22 -36l112 -263q10 -23 3.5 -43t-29.5 -31l-60 -27l-183 389l3 22l279 388l52 -27 q21 -11 23 -30.5t-15 -42.5z" />
<glyph unicode="&#xac;" horiz-adv-x="1160" d="M1007 606l-36 -288h-146l36 288h-711l15 130h858z" />
<glyph unicode="&#xae;" horiz-adv-x="1662" d="M816 740q55 0 93.5 10.5t62 30.5t34 49t10.5 67q0 37 -9 65t-30.5 46t-57 27t-87.5 9h-132v-304h116zM832 1164q173 0 255.5 -62.5t82.5 -184.5q0 -94 -53 -159.5t-159 -90.5q17 -11 29 -26t23 -35l229 -334h-149q-33 0 -48 25l-202 302q-8 14 -21 20.5t-39 6.5h-80v-354 h-155v892h287zM844 76q88 0 169.5 22.5t152 64t128 99.5t98.5 129.5t63.5 153.5t22.5 171q0 134 -49.5 251.5t-135 205t-201.5 138t-248 50.5t-247 -50.5t-200 -138t-134 -205t-49 -251.5q0 -89 22 -171t63 -153.5t98 -129.5t127 -99.5t151 -64t169 -22.5zM844 1448 q101 0 194.5 -26t174.5 -74t148 -114.5t114.5 -148t73.5 -175t26 -194.5q0 -100 -26 -193.5t-73.5 -174.5t-114.5 -147.5t-148 -114.5t-174.5 -74t-194.5 -26t-194 26t-174 74t-148 114.5t-114.5 147.5t-73.5 174t-26 194t26 194.5t73.5 175t114.5 148t148 114.5t174 74 t194 26z" />
<glyph unicode="&#xaf;" horiz-adv-x="736" d="M256 1348h528l-13 -117h-529z" />
<glyph unicode="&#xb0;" horiz-adv-x="820" d="M146 1128q0 67 25.5 126t69 102.5t102.5 68.5t127 25q69 0 128.5 -25t103.5 -68.5t69.5 -102.5t25.5 -126q0 -66 -25.5 -124.5t-69.5 -102t-103.5 -69t-128.5 -25.5q-68 0 -127 25.5t-102.5 69t-69 102t-25.5 124.5zM271 1127q0 -42 15 -78.5t42 -63.5t63.5 -42.5 t78.5 -15.5t78.5 15.5t63.5 42.5t42 63.5t15 78.5t-15 79t-42 64.5t-63.5 43t-78.5 15.5t-78.5 -15.5t-63.5 -43t-42 -64.5t-15 -79z" />
<glyph unicode="&#xb1;" horiz-adv-x="1160" d="M55 211h958l-16 -131h-957zM1088 820l-16 -131h-410l-45 -370h-140l45 370h-406l15 131h407l47 379h140l-47 -379h410z" />
<glyph unicode="&#xb2;" horiz-adv-x="668" d="M593 1014q20 0 29.5 -10.5t7.5 -28.5l-9 -75h-509l6 42q2 12 8 26t19 25l250 220q31 27 58 55t47 56.5t31.5 57.5t11.5 59q0 45 -27 69t-69 24q-47 0 -79.5 -25t-50.5 -68q-12 -18 -25 -24.5t-39 -3.5l-67 12q28 105 103 158t177 53q96 0 150 -50t54 -133 q0 -45 -15.5 -83t-41 -71.5t-58.5 -65t-69 -63.5l-188 -170q51 14 93 14h202z" />
<glyph unicode="&#xb3;" horiz-adv-x="668" d="M192 1425q14 52 40.5 92t62.5 66t79.5 39.5t91.5 13.5q47 0 84.5 -13t63.5 -35.5t40 -53.5t14 -67q0 -140 -137 -185q56 -17 83.5 -51.5t27.5 -89.5q0 -60 -24 -106.5t-63 -78t-88.5 -48t-101.5 -16.5q-57 0 -97 12.5t-67.5 37t-44.5 60t-26 82.5l57 24q22 8 40.5 4 t24.5 -21q3 -10 8.5 -26t18.5 -31t35 -26t57 -11q34 0 61 11t45.5 29.5t28.5 42.5t10 50q0 49 -35 73.5t-121 24.5l10 89q91 2 132.5 32.5t41.5 92.5q0 44 -26.5 66.5t-70.5 22.5q-49 0 -81 -24t-49 -65q-12 -20 -24.5 -26t-36.5 -3z" />
<glyph unicode="&#xb4;" horiz-adv-x="736" d="M799 1449l-244 -258q-14 -15 -27 -21.5t-32 -6.5h-98l163 242q15 23 31.5 33.5t46.5 10.5h160z" />
<glyph unicode="&#xb5;" horiz-adv-x="1213" d="M1092 124l-8 -72q-4 -23 -37 -42.5t-89 -19.5q-39 0 -73.5 12t-60.5 36.5t-42.5 62.5t-20.5 89q-64 -88 -139 -136t-162 -48q-65 0 -111 21t-76 61q1 -39 -1.5 -78.5t-7.5 -73.5l-34 -279h-89q-38 0 -56 20t-14 56l158 1280h178l-79 -650q-5 -98 34.5 -154t126.5 -56 q82 0 148 48.5t117 136.5l83 675h179l-91 -739q-10 -78 21 -114t89 -36h57z" />
<glyph unicode="&#xb6;" horiz-adv-x="1391" d="M1406 1280h-220l-182 -1481h-156l181 1481h-277l-181 -1481h-157l105 861q-92 0 -167 25t-128 70t-81.5 108t-28.5 140q0 90 36 168.5t102 136.5t158 91.5t204 33.5h810z" />
<glyph unicode="&#xb7;" horiz-adv-x="514" d="M105 593q0 31 11.5 59t32 48t47 32t56.5 12q31 0 59 -12t48 -32t32 -48t12 -59q0 -30 -12 -57t-32 -47.5t-48 -32t-59 -11.5q-30 0 -56.5 11.5t-47 32t-32 47.5t-11.5 57z" />
<glyph unicode="&#xb8;" horiz-adv-x="736" d="M389 -76q76 -17 110.5 -48.5t34.5 -77.5q0 -36 -16.5 -65t-46.5 -49t-71 -30.5t-89 -10.5q-38 0 -71 8.5t-60 22.5l24 55q7 18 25 18q6 0 12.5 -3.5t15.5 -8t22 -8t32 -3.5q40 0 61 19t21 48q0 34 -35.5 48.5t-100.5 23.5l71 162h100z" />
<glyph unicode="&#xb9;" horiz-adv-x="668" d="M604 993l-10 -93h-395l11 93h148l54 436l10 44l-121 -92q-19 -13 -34.5 -8t-21.5 14l-32 54l244 189h105l-78 -637h120z" />
<glyph unicode="&#xba;" horiz-adv-x="751" d="M478 1448q58 0 104.5 -18.5t78.5 -53t49.5 -83t17.5 -108.5q0 -82 -24 -148t-66.5 -112.5t-102.5 -71.5t-132 -25q-59 0 -106 18.5t-79.5 53t-50 83.5t-17.5 109q0 81 24 147t67.5 112.5t104 71.5t132.5 25zM416 931q90 0 134 68.5t44 185.5q0 75 -32 117.5t-96 42.5 q-50 0 -84.5 -19t-56 -52.5t-31.5 -80.5t-10 -103q0 -75 32.5 -117t99.5 -42z" />
<glyph unicode="&#xbb;" horiz-adv-x="788" d="M417 540l-2 -22l-277 -389l-53 27q-21 11 -22.5 31t13.5 43l177 263q15 24 30 36q-13 12 -22 36l-112 263q-10 23 -2.5 42.5t30.5 30.5l58 27zM689 540l-2 -22l-277 -389l-53 27q-21 11 -22.5 31t13.5 43l177 263q15 24 30 36q-13 12 -22 36l-112 263q-10 23 -2.5 42.5 t30.5 30.5l58 27z" />
<glyph unicode="&#xbc;" horiz-adv-x="1395" d="M321 53q-23 -31 -45.5 -42t-51.5 -11h-71l924 1371q20 29 45 44.5t57 15.5h71zM551 796l-10 -93h-395l11 93h148l54 436l10 44l-121 -92q-19 -13 -34.5 -8t-21.5 14l-32 54l244 189h105l-78 -637h120zM1068 276l30 238q2 19 6 41.5t11 46.5l-279 -326h232zM1283 276 l-7 -73q-2 -11 -9.5 -18.5t-20.5 -7.5h-84l-22 -177h-106l22 177h-307q-17 0 -26 8t-10 20l-5 62l402 461h120l-56 -452h109z" />
<glyph unicode="&#xbd;" horiz-adv-x="1375" d="M284 53q-23 -31 -45.5 -42t-51.5 -11h-71l924 1371q20 29 45 44.5t57 15.5h71zM553 796l-10 -93h-395l11 93h148l54 436l10 44l-121 -92q-19 -13 -34.5 -8t-21.5 14l-32 54l244 189h105l-78 -637h120zM1193 114q20 0 29.5 -10.5t7.5 -28.5l-9 -75h-509l6 42q2 12 8 26 t19 25l250 220q31 27 58 55t47 56.5t31.5 57.5t11.5 59q0 45 -27 69t-69 24q-47 0 -79.5 -25t-50.5 -68q-12 -18 -25 -24.5t-39 -3.5l-67 12q28 105 103 158t177 53q96 0 150 -50t54 -133q0 -45 -15.5 -83t-41 -71.5t-58.5 -65t-69 -63.5l-188 -170q51 14 93 14h202z" />
<glyph unicode="&#xbe;" horiz-adv-x="1413" d="M346 53q-23 -31 -45.5 -42t-51.5 -11h-71l924 1371q20 29 45 44.5t57 15.5h71zM179 1228q14 52 40.5 92t62.5 66t79.5 39.5t91.5 13.5q47 0 84.5 -13t63.5 -35.5t40 -53.5t14 -67q0 -140 -137 -185q56 -17 83.5 -51.5t27.5 -89.5q0 -60 -24 -106.5t-63 -78t-88.5 -48 t-101.5 -16.5q-57 0 -97 12.5t-67.5 37t-44.5 60t-26 82.5l57 24q22 8 40.5 4t24.5 -21q3 -10 8.5 -26t18.5 -31t35 -26t57 -11q34 0 61 11t45.5 29.5t28.5 42.5t10 50q0 49 -35 73.5t-121 24.5l10 89q91 2 132.5 32.5t41.5 92.5q0 44 -26.5 66.5t-70.5 22.5q-49 0 -81 -24 t-49 -65q-12 -20 -24.5 -26t-36.5 -3zM1088 276l30 238q2 19 6 41.5t11 46.5l-279 -326h232zM1303 276l-7 -73q-2 -11 -9.5 -18.5t-20.5 -7.5h-84l-22 -177h-106l22 177h-307q-17 0 -26 8t-10 20l-5 62l402 461h120l-56 -452h109z" />
<glyph unicode="&#xbf;" horiz-adv-x="816" d="M648 -213q-33 -29 -70.5 -55t-81 -45.5t-93 -31.5t-105.5 -12q-68 0 -123.5 19.5t-96 55.5t-62.5 87.5t-22 116.5q0 81 23.5 138.5t60 99t80 71.5t82.5 56.5t68 53.5t38 63l37 155h116l-9 -168q-2 -45 -27 -78t-61 -62t-77.5 -57t-76.5 -61.5t-58.5 -76.5t-23.5 -102 q0 -41 13 -72.5t35.5 -53t52.5 -32.5t63 -11q55 0 96.5 15t71.5 33t49.5 33t30.5 15q24 0 33 -21zM373 903q0 26 9.5 49t26 40t39.5 27t49 10t49 -10t40 -27t27 -40t10 -49q0 -27 -10 -49.5t-27 -39.5t-40 -26.5t-49 -9.5t-49 9.5t-39.5 26.5t-26 39.5t-9.5 49.5z" />
<glyph unicode="&#xc0;" horiz-adv-x="1262" d="M867 531l-131 593q-5 27 -12 62.5t-12 76.5q-15 -42 -30 -77l-27 -63l-277 -592h489zM1178 0h-144q-25 0 -39 12.5t-20 32.5l-78 350h-583l-164 -350q-9 -18 -27.5 -31.5t-41.5 -13.5h-146l702 1433h190zM587 1852q30 0 45 -5t29 -27l178 -274h-118q-20 0 -31.5 2.5 t-22.5 16.5l-255 287h175z" />
<glyph unicode="&#xc1;" horiz-adv-x="1262" d="M867 531l-131 593q-5 27 -12 62.5t-12 76.5q-15 -42 -30 -77l-27 -63l-277 -592h489zM1178 0h-144q-25 0 -39 12.5t-20 32.5l-78 350h-583l-164 -350q-9 -18 -27.5 -31.5t-41.5 -13.5h-146l702 1433h190zM1130 1852l-331 -286q-17 -14 -29.5 -17t-32.5 -3h-116l244 274 q18 22 34 27t46 5h185z" />
<glyph unicode="&#xc2;" horiz-adv-x="1262" d="M867 531l-131 593q-5 27 -12 62.5t-12 76.5q-15 -42 -30 -77l-27 -63l-277 -592h489zM1178 0h-144q-25 0 -39 12.5t-20 32.5l-78 350h-583l-164 -350q-9 -18 -27.5 -31.5t-41.5 -13.5h-146l702 1433h190zM1051 1546h-120q-11 0 -26 4.5t-28 24.5l-92 141q-2 5 -4.5 8.5 t-4.5 8.5q-3 -7 -12 -17l-124 -141q-18 -20 -33.5 -24.5t-26.5 -4.5h-116l251 271h147z" />
<glyph unicode="&#xc3;" horiz-adv-x="1262" d="M867 531l-131 593q-5 27 -12 62.5t-12 76.5q-15 -42 -30 -77l-27 -63l-277 -592h489zM1178 0h-144q-25 0 -39 12.5t-20 32.5l-78 350h-583l-164 -350q-9 -18 -27.5 -31.5t-41.5 -13.5h-146l702 1433h190zM884 1663q21 0 38 8.5t29.5 23t20 32.5t9.5 36h101 q-5 -43 -20.5 -82.5t-40 -70t-58 -48.5t-73.5 -18q-41 0 -72 16.5t-57 36t-49 36t-48 16.5q-21 0 -38 -9t-29.5 -23.5t-20 -32.5t-9.5 -36h-103q5 43 21 83t41 70.5t58 48.5t73 18q42 0 73.5 -16.5t57 -36t48.5 -36t48 -16.5z" />
<glyph unicode="&#xc4;" horiz-adv-x="1262" d="M867 531l-131 593q-5 27 -12 62.5t-12 76.5q-15 -42 -30 -77l-27 -63l-277 -592h489zM1178 0h-144q-25 0 -39 12.5t-20 32.5l-78 350h-583l-164 -350q-9 -18 -27.5 -31.5t-41.5 -13.5h-146l702 1433h190zM677 1663q0 -23 -9 -43t-25 -35t-36.5 -23.5t-43.5 -8.5 q-22 0 -42 8.5t-35.5 23.5t-24.5 35t-9 43q0 24 9 44.5t24.5 36.5t35.5 25t42 9q23 0 43.5 -9t36.5 -25t25 -36.5t9 -44.5zM1057 1663q0 -23 -9 -43t-24.5 -35t-36 -23.5t-43.5 -8.5t-43.5 8.5t-35.5 23.5t-24 35t-9 43q0 24 9 44.5t24 36.5t35.5 25t43.5 9t43.5 -9t36 -25 t24.5 -36.5t9 -44.5z" />
<glyph unicode="&#xc5;" horiz-adv-x="1262" d="M867 531l-131 593q-5 27 -12 62.5t-12 76.5q-15 -42 -30 -77l-27 -63l-277 -592h489zM1178 0h-144q-25 0 -39 12.5t-20 32.5l-78 350h-583l-164 -350q-9 -18 -27.5 -31.5t-41.5 -13.5h-146l702 1433h190zM591 1697q5 39 23 72t44.5 56t59 36t66.5 13q36 0 66.5 -13 t52 -36t31.5 -56t6 -72t-21.5 -71t-44.5 -55t-60 -36t-69 -13q-35 0 -64.5 13t-51 36t-32 55t-6.5 71zM674 1697q-5 -44 17 -72t65 -28q41 0 69.5 28t33.5 72q5 45 -17 73t-64 28q-43 0 -71 -28t-33 -73z" />
<glyph unicode="&#xc6;" horiz-adv-x="1735" d="M862 531v749q-14 -36 -29 -68t-32 -61l-363 -620h424zM1038 1280v-484h512l-18 -147h-494v-497h554l-20 -152h-710v395h-504l-205 -350q-11 -18 -30.5 -31.5t-43.5 -13.5h-145l860 1433h954l-18 -153h-692z" />
<glyph unicode="&#xc7;" horiz-adv-x="1249" d="M595 -14q-117 9 -209.5 58.5t-156 131t-97.5 191t-34 239.5q0 187 58 342t159.5 266.5t238.5 173t295 61.5q76 0 138 -13t113 -38t92.5 -60t77.5 -78l-64 -78q-8 -10 -18 -16.5t-25 -6.5q-18 0 -38 20t-54.5 43.5t-89 43.5t-141.5 20q-117 0 -217.5 -46.5t-174.5 -133 t-116.5 -209.5t-42.5 -276q0 -111 29 -199t80.5 -149.5t122.5 -94.5t156 -33q66 0 117 11t90 27t66.5 35.5t48 35.5t34.5 27t25 11q9 0 15 -3.5t10 -8.5l65 -81q-86 -94 -196.5 -149.5t-254.5 -63.5l-24 -62q76 -17 110.5 -48.5t34.5 -77.5q0 -36 -16.5 -65t-46.5 -49 t-71 -30.5t-89 -10.5q-38 0 -71 8.5t-60 22.5l24 55q7 18 25 18q6 0 12.5 -3.5t15.5 -8t22 -8t32 -3.5q40 0 61 19t21 48q0 34 -35.5 48.5t-100.5 23.5z" />
<glyph unicode="&#xc8;" horiz-adv-x="1076" d="M443 1280l-59 -483h507l-19 -147h-506l-61 -498h629l-19 -152h-817l176 1433h816l-19 -153h-628zM583 1852q30 0 45 -5t29 -27l178 -274h-118q-20 0 -31.5 2.5t-22.5 16.5l-255 287h175z" />
<glyph unicode="&#xc9;" horiz-adv-x="1076" d="M443 1280l-59 -483h507l-19 -147h-506l-61 -498h629l-19 -152h-817l176 1433h816l-19 -153h-628zM1102 1852l-331 -286q-17 -14 -29.5 -17t-32.5 -3h-116l244 274q18 22 34 27t46 5h185z" />
<glyph unicode="&#xca;" horiz-adv-x="1076" d="M443 1280l-59 -483h507l-19 -147h-506l-61 -498h629l-19 -152h-817l176 1433h816l-19 -153h-628zM992 1546h-120q-11 0 -26 4.5t-28 24.5l-92 141q-2 5 -4.5 8.5t-4.5 8.5q-3 -7 -12 -17l-124 -141q-18 -20 -33.5 -24.5t-26.5 -4.5h-116l251 271h147z" />
<glyph unicode="&#xcb;" horiz-adv-x="1076" d="M443 1280l-59 -483h507l-19 -147h-506l-61 -498h629l-19 -152h-817l176 1433h816l-19 -153h-628zM634 1663q0 -23 -9 -43t-25 -35t-36.5 -23.5t-43.5 -8.5q-22 0 -42 8.5t-35.5 23.5t-24.5 35t-9 43q0 24 9 44.5t24.5 36.5t35.5 25t42 9q23 0 43.5 -9t36.5 -25t25 -36.5 t9 -44.5zM1014 1663q0 -23 -9 -43t-24.5 -35t-36 -23.5t-43.5 -8.5t-43.5 8.5t-35.5 23.5t-24 35t-9 43q0 24 9 44.5t24 36.5t35.5 25t43.5 9t43.5 -9t36 -25t24.5 -36.5t9 -44.5z" />
<glyph unicode="&#xcc;" horiz-adv-x="533" d="M286 0h-188l175 1433h188zM237 1852q30 0 45 -5t29 -27l178 -274h-118q-20 0 -31.5 2.5t-22.5 16.5l-255 287h175z" />
<glyph unicode="&#xcd;" horiz-adv-x="533" d="M286 0h-188l175 1433h188zM779 1852l-331 -286q-17 -14 -29.5 -17t-32.5 -3h-116l244 274q18 22 34 27t46 5h185z" />
<glyph unicode="&#xce;" horiz-adv-x="533" d="M286 0h-188l175 1433h188zM678 1546h-120q-11 0 -26 4.5t-28 24.5l-92 141q-2 5 -4.5 8.5t-4.5 8.5q-3 -7 -12 -17l-124 -141q-18 -20 -33.5 -24.5t-26.5 -4.5h-116l251 271h147z" />
<glyph unicode="&#xcf;" horiz-adv-x="533" d="M286 0h-188l175 1433h188zM320 1663q0 -23 -9 -43t-25 -35t-36.5 -23.5t-43.5 -8.5q-22 0 -42 8.5t-35.5 23.5t-24.5 35t-9 43q0 24 9 44.5t24.5 36.5t35.5 25t42 9q23 0 43.5 -9t36.5 -25t25 -36.5t9 -44.5zM700 1663q0 -23 -9 -43t-24.5 -35t-36 -23.5t-43.5 -8.5 t-43.5 8.5t-35.5 23.5t-24 35t-9 43q0 24 9 44.5t24 36.5t35.5 25t43.5 9t43.5 -9t36 -25t24.5 -36.5t9 -44.5z" />
<glyph unicode="&#xd0;" horiz-adv-x="1426" d="M624 151q120 0 218.5 45.5t169.5 131t110 208t39 277.5q0 108 -27.5 195t-78.5 147.5t-125 93t-167 32.5h-307l-62 -504h348l-13 -110h-348l-63 -516h306zM781 1433q132 0 238 -45t180.5 -126.5t114 -195t39.5 -249.5q0 -183 -56.5 -333.5t-156 -258t-236.5 -166.5 t-298 -59h-495l82 667h-179l13 110h179l81 656h494z" />
<glyph unicode="&#xd1;" horiz-adv-x="1420" d="M1350 1433l-177 -1433h-93q-23 0 -37 8.5t-27 26.5l-618 1096q-2 -20 -3 -37.5t-3 -33.5l-129 -1060h-165l176 1433h97q25 0 36 -6t23 -26l619 -1095q2 23 3.5 44t3.5 39l129 1044h165zM958 1662q21 0 38 8.5t29.5 23t20 32.5t9.5 36h101q-5 -43 -20.5 -82.5t-40 -70 t-58 -48.5t-73.5 -18q-41 0 -72 16.5t-57 36t-49 36t-48 16.5q-21 0 -38 -9t-29.5 -23.5t-20 -32.5t-9.5 -36h-103q5 43 21 83t41 70.5t58 48.5t73 18q42 0 73.5 -16.5t57 -36t48.5 -36t48 -16.5z" />
<glyph unicode="&#xd2;" horiz-adv-x="1491" d="M1420 818q0 -183 -56.5 -336t-157 -263.5t-238 -172t-299.5 -61.5q-132 0 -237.5 47t-180 130.5t-114 198.5t-39.5 252q0 183 57 336.5t158 264.5t238.5 173t298.5 62q132 0 237.5 -47.5t179.5 -131.5t113.5 -199.5t39.5 -252.5zM1228 814q0 109 -28 197.5t-79.5 150.5 t-126 96t-167.5 34q-118 0 -216.5 -47.5t-170 -135.5t-111 -212.5t-39.5 -278.5q0 -109 27.5 -197t79.5 -150t126 -95.5t167 -33.5q119 0 218 47t170 134.5t110.5 212t39.5 278.5zM737 1852q30 0 45 -5t29 -27l178 -274h-118q-20 0 -31.5 2.5t-22.5 16.5l-255 287h175z" />
<glyph unicode="&#xd3;" horiz-adv-x="1491" d="M1420 818q0 -183 -56.5 -336t-157 -263.5t-238 -172t-299.5 -61.5q-132 0 -237.5 47t-180 130.5t-114 198.5t-39.5 252q0 183 57 336.5t158 264.5t238.5 173t298.5 62q132 0 237.5 -47.5t179.5 -131.5t113.5 -199.5t39.5 -252.5zM1228 814q0 109 -28 197.5t-79.5 150.5 t-126 96t-167.5 34q-118 0 -216.5 -47.5t-170 -135.5t-111 -212.5t-39.5 -278.5q0 -109 27.5 -197t79.5 -150t126 -95.5t167 -33.5q119 0 218 47t170 134.5t110.5 212t39.5 278.5zM1239 1852l-331 -286q-17 -14 -29.5 -17t-32.5 -3h-116l244 274q18 22 34 27t46 5h185z" />
<glyph unicode="&#xd4;" horiz-adv-x="1491" d="M1420 818q0 -183 -56.5 -336t-157 -263.5t-238 -172t-299.5 -61.5q-132 0 -237.5 47t-180 130.5t-114 198.5t-39.5 252q0 183 57 336.5t158 264.5t238.5 173t298.5 62q132 0 237.5 -47.5t179.5 -131.5t113.5 -199.5t39.5 -252.5zM1228 814q0 109 -28 197.5t-79.5 150.5 t-126 96t-167.5 34q-118 0 -216.5 -47.5t-170 -135.5t-111 -212.5t-39.5 -278.5q0 -109 27.5 -197t79.5 -150t126 -95.5t167 -33.5q119 0 218 47t170 134.5t110.5 212t39.5 278.5zM1152 1546h-120q-11 0 -26 4.5t-28 24.5l-92 141q-2 5 -4.5 8.5t-4.5 8.5q-3 -7 -12 -17 l-124 -141q-18 -20 -33.5 -24.5t-26.5 -4.5h-116l251 271h147z" />
<glyph unicode="&#xd5;" horiz-adv-x="1491" d="M1420 818q0 -183 -56.5 -336t-157 -263.5t-238 -172t-299.5 -61.5q-132 0 -237.5 47t-180 130.5t-114 198.5t-39.5 252q0 183 57 336.5t158 264.5t238.5 173t298.5 62q132 0 237.5 -47.5t179.5 -131.5t113.5 -199.5t39.5 -252.5zM1228 814q0 109 -28 197.5t-79.5 150.5 t-126 96t-167.5 34q-118 0 -216.5 -47.5t-170 -135.5t-111 -212.5t-39.5 -278.5q0 -109 27.5 -197t79.5 -150t126 -95.5t167 -33.5q119 0 218 47t170 134.5t110.5 212t39.5 278.5zM985 1663q21 0 38 8.5t29.5 23t20 32.5t9.5 36h101q-5 -43 -20.5 -82.5t-40 -70t-58 -48.5 t-73.5 -18q-41 0 -72 16.5t-57 36t-49 36t-48 16.5q-21 0 -38 -9t-29.5 -23.5t-20 -32.5t-9.5 -36h-103q5 43 21 83t41 70.5t58 48.5t73 18q42 0 73.5 -16.5t57 -36t48.5 -36t48 -16.5z" />
<glyph unicode="&#xd6;" horiz-adv-x="1491" d="M1420 818q0 -183 -56.5 -336t-157 -263.5t-238 -172t-299.5 -61.5q-132 0 -237.5 47t-180 130.5t-114 198.5t-39.5 252q0 183 57 336.5t158 264.5t238.5 173t298.5 62q132 0 237.5 -47.5t179.5 -131.5t113.5 -199.5t39.5 -252.5zM1228 814q0 109 -28 197.5t-79.5 150.5 t-126 96t-167.5 34q-118 0 -216.5 -47.5t-170 -135.5t-111 -212.5t-39.5 -278.5q0 -109 27.5 -197t79.5 -150t126 -95.5t167 -33.5q119 0 218 47t170 134.5t110.5 212t39.5 278.5zM815 1663q0 -23 -9 -43t-25 -35t-36.5 -23.5t-43.5 -8.5q-22 0 -42 8.5t-35.5 23.5t-24.5 35 t-9 43q0 24 9 44.5t24.5 36.5t35.5 25t42 9q23 0 43.5 -9t36.5 -25t25 -36.5t9 -44.5zM1195 1663q0 -23 -9 -43t-24.5 -35t-36 -23.5t-43.5 -8.5t-43.5 8.5t-35.5 23.5t-24 35t-9 43q0 24 9 44.5t24 36.5t35.5 25t43.5 9t43.5 -9t36 -25t24.5 -36.5t9 -44.5z" />
<glyph unicode="&#xd7;" horiz-adv-x="1160" d="M681 671l311 -355l-102 -93l-313 356l-402 -358l-80 93l401 358l-304 346l103 93l305 -347l387 345l81 -93z" />
<glyph unicode="&#xd8;" horiz-adv-x="1491" d="M451 219q48 -38 107.5 -57.5t131.5 -19.5q119 0 218 47t170 134.5t110.5 212t39.5 278.5q0 88 -17.5 161.5t-51.5 131.5zM1087 1197q-51 46 -116 70.5t-144 24.5q-118 0 -216.5 -47.5t-170 -135.5t-111 -212.5t-39.5 -278.5q0 -97 21.5 -176t62.5 -140zM1278 1257 q69 -84 105.5 -195.5t36.5 -243.5q0 -183 -56.5 -336t-157 -263.5t-238 -172t-299.5 -61.5q-97 0 -179 25t-149 72l-109 -137q-25 -29 -54.5 -41.5t-56.5 -12.5h-75l211 265q-77 85 -118 201t-41 256q0 183 57 336.5t158 264.5t238.5 173t298.5 62q104 0 191.5 -29.5 t156.5 -83.5l89 112q11 13 20 22.5t18.5 15.5t20.5 8.5t27 2.5h96z" />
<glyph unicode="&#xd9;" horiz-adv-x="1370" d="M628 147q81 0 148 31t118 85.5t83.5 130.5t43.5 166l107 873h187l-107 -873q-15 -123 -65 -228.5t-128 -183t-181 -121.5t-226 -44q-122 0 -214.5 44t-151.5 121.5t-82.5 183t-8.5 228.5l106 873h187l-107 -872q-11 -90 3 -166t51 -131t96.5 -86t140.5 -31zM659 1852 q30 0 45 -5t29 -27l178 -274h-118q-20 0 -31.5 2.5t-22.5 16.5l-255 287h175z" />
<glyph unicode="&#xda;" horiz-adv-x="1370" d="M628 147q81 0 148 31t118 85.5t83.5 130.5t43.5 166l107 873h187l-107 -873q-15 -123 -65 -228.5t-128 -183t-181 -121.5t-226 -44q-122 0 -214.5 44t-151.5 121.5t-82.5 183t-8.5 228.5l106 873h187l-107 -872q-11 -90 3 -166t51 -131t96.5 -86t140.5 -31zM1179 1852 l-331 -286q-17 -14 -29.5 -17t-32.5 -3h-116l244 274q18 22 34 27t46 5h185z" />
<glyph unicode="&#xdb;" horiz-adv-x="1370" d="M628 147q81 0 148 31t118 85.5t83.5 130.5t43.5 166l107 873h187l-107 -873q-15 -123 -65 -228.5t-128 -183t-181 -121.5t-226 -44q-122 0 -214.5 44t-151.5 121.5t-82.5 183t-8.5 228.5l106 873h187l-107 -872q-11 -90 3 -166t51 -131t96.5 -86t140.5 -31zM1097 1546 h-120q-11 0 -26 4.5t-28 24.5l-92 141q-2 5 -4.5 8.5t-4.5 8.5q-3 -7 -12 -17l-124 -141q-18 -20 -33.5 -24.5t-26.5 -4.5h-116l251 271h147z" />
<glyph unicode="&#xdc;" horiz-adv-x="1370" d="M628 147q81 0 148 31t118 85.5t83.5 130.5t43.5 166l107 873h187l-107 -873q-15 -123 -65 -228.5t-128 -183t-181 -121.5t-226 -44q-122 0 -214.5 44t-151.5 121.5t-82.5 183t-8.5 228.5l106 873h187l-107 -872q-11 -90 3 -166t51 -131t96.5 -86t140.5 -31zM745 1663 q0 -23 -9 -43t-25 -35t-36.5 -23.5t-43.5 -8.5q-22 0 -42 8.5t-35.5 23.5t-24.5 35t-9 43q0 24 9 44.5t24.5 36.5t35.5 25t42 9q23 0 43.5 -9t36.5 -25t25 -36.5t9 -44.5zM1125 1663q0 -23 -9 -43t-24.5 -35t-36 -23.5t-43.5 -8.5t-43.5 8.5t-35.5 23.5t-24 35t-9 43 q0 24 9 44.5t24 36.5t35.5 25t43.5 9t43.5 -9t36 -25t24.5 -36.5t9 -44.5z" />
<glyph unicode="&#xdd;" horiz-adv-x="1164" d="M672 573l-71 -573h-187l71 571l-378 862h165q25 0 39 -12t21 -32l237 -574q19 -57 30 -108q12 26 26.5 52.5t31.5 55.5l380 574q11 17 27.5 30.5t40.5 13.5h155zM1078 1852l-331 -286q-17 -14 -29.5 -17t-32.5 -3h-116l244 274q18 22 34 27t46 5h185z" />
<glyph unicode="&#xde;" horiz-adv-x="1121" d="M544 421q85 0 150 26t109 72.5t67 111t23 140.5q0 116 -68 181.5t-208 65.5h-208l-73 -597h208zM636 1165q114 0 197.5 -27t138.5 -76.5t82 -119t27 -154.5q0 -113 -37 -207.5t-108 -163t-174 -106.5t-236 -38h-208l-34 -273h-186l175 1433h187l-33 -268h209z" />
<glyph unicode="&#xdf;" horiz-adv-x="1158" d="M249 991q23 92 70.5 175.5t113.5 147.5t148 101.5t175 37.5q88 0 151.5 -27t103.5 -68.5t59 -92t19 -97.5q0 -68 -23.5 -116t-58 -84t-75.5 -63t-75.5 -52.5t-58 -53.5t-23.5 -66q0 -35 21.5 -58.5t53.5 -44t69.5 -42t69.5 -52t53.5 -74.5t21.5 -109q0 -86 -31 -154.5 t-83.5 -116t-123 -73t-148.5 -25.5q-90 0 -159 34.5t-118 88.5l48 66q9 12 20.5 19t28.5 7t34 -14.5t40 -31.5t55 -31.5t80 -14.5q42 0 77.5 15.5t61 42.5t39.5 63.5t14 78.5q0 48 -23 79.5t-57 54.5t-74 43t-74 46t-57 62t-23 92q0 62 24.5 106t61.5 78.5t80 63.5t80 61 t61.5 72t24.5 96q0 28 -10 57.5t-33 53.5t-59.5 39t-88.5 15q-62 0 -116.5 -33.5t-97 -91.5t-71.5 -134.5t-39 -161.5l-107 -872l-47 -207q-11 -36 -32.5 -55.5t-59.5 -19.5h-70l136 1112l-109 13q-21 5 -32.5 15t-7.5 29l7 71h163z" />
<glyph unicode="&#xe0;" horiz-adv-x="1022" d="M753 889q-22 5 -43.5 6.5t-42.5 1.5q-60 0 -116 -19.5t-105 -54.5t-89 -83.5t-68.5 -106.5t-44.5 -123.5t-16 -134.5q0 -241 154 -241q49 0 96 30.5t89.5 85t78.5 129t64 163.5zM685 267q-36 -64 -77.5 -116t-88 -88.5t-98 -56.5t-106.5 -20q-60 0 -109 23.5t-83.5 69 t-53.5 112t-19 152.5q0 90 22.5 175.5t64 161.5t99.5 139.5t129.5 110t153.5 72t172 25.5q65 0 126.5 -10.5t121.5 -36.5l-121 -980h-92q-35 0 -47.5 18t-12.5 44zM616 1449q30 0 44 -10.5t24 -33.5l109 -242h-93q-19 0 -30.5 6.5t-22.5 21.5l-186 258h155z" />
<glyph unicode="&#xe1;" horiz-adv-x="1022" d="M753 889q-22 5 -43.5 6.5t-42.5 1.5q-60 0 -116 -19.5t-105 -54.5t-89 -83.5t-68.5 -106.5t-44.5 -123.5t-16 -134.5q0 -241 154 -241q49 0 96 30.5t89.5 85t78.5 129t64 163.5zM685 267q-36 -64 -77.5 -116t-88 -88.5t-98 -56.5t-106.5 -20q-60 0 -109 23.5t-83.5 69 t-53.5 112t-19 152.5q0 90 22.5 175.5t64 161.5t99.5 139.5t129.5 110t153.5 72t172 25.5q65 0 126.5 -10.5t121.5 -36.5l-121 -980h-92q-35 0 -47.5 18t-12.5 44zM1011 1449l-244 -258q-14 -15 -27 -21.5t-32 -6.5h-98l163 242q15 23 31.5 33.5t46.5 10.5h160z" />
<glyph unicode="&#xe2;" horiz-adv-x="1022" d="M753 889q-22 5 -43.5 6.5t-42.5 1.5q-60 0 -116 -19.5t-105 -54.5t-89 -83.5t-68.5 -106.5t-44.5 -123.5t-16 -134.5q0 -241 154 -241q49 0 96 30.5t89.5 85t78.5 129t64 163.5zM685 267q-36 -64 -77.5 -116t-88 -88.5t-98 -56.5t-106.5 -20q-60 0 -109 23.5t-83.5 69 t-53.5 112t-19 152.5q0 90 22.5 175.5t64 161.5t99.5 139.5t129.5 110t153.5 72t172 25.5q65 0 126.5 -10.5t121.5 -36.5l-121 -980h-92q-35 0 -47.5 18t-12.5 44zM943 1169h-110q-10 0 -19.5 4t-18.5 15l-99 132q-3 5 -6.5 9.5t-6.5 9.5q-5 -5 -9 -10t-8 -9l-130 -132 q-19 -19 -42 -19h-114l235 264h152z" />
<glyph unicode="&#xe3;" horiz-adv-x="1022" d="M753 889q-22 5 -43.5 6.5t-42.5 1.5q-60 0 -116 -19.5t-105 -54.5t-89 -83.5t-68.5 -106.5t-44.5 -123.5t-16 -134.5q0 -241 154 -241q49 0 96 30.5t89.5 85t78.5 129t64 163.5zM685 267q-36 -64 -77.5 -116t-88 -88.5t-98 -56.5t-106.5 -20q-60 0 -109 23.5t-83.5 69 t-53.5 112t-19 152.5q0 90 22.5 175.5t64 161.5t99.5 139.5t129.5 110t153.5 72t172 25.5q65 0 126.5 -10.5t121.5 -36.5l-121 -980h-92q-35 0 -47.5 18t-12.5 44zM792 1325q67 0 79 86h100q-5 -47 -21 -86.5t-41 -67.5t-56.5 -43.5t-68.5 -15.5q-32 0 -58.5 14.5 t-49.5 31.5t-43.5 31.5t-41.5 14.5q-67 0 -78 -88h-102q5 48 21.5 87.5t41.5 68t57 44t68 15.5q33 0 59 -14.5t49 -31.5t43.5 -31.5t41.5 -14.5z" />
<glyph unicode="&#xe4;" horiz-adv-x="1022" d="M753 889q-22 5 -43.5 6.5t-42.5 1.5q-60 0 -116 -19.5t-105 -54.5t-89 -83.5t-68.5 -106.5t-44.5 -123.5t-16 -134.5q0 -241 154 -241q49 0 96 30.5t89.5 85t78.5 129t64 163.5zM685 267q-36 -64 -77.5 -116t-88 -88.5t-98 -56.5t-106.5 -20q-60 0 -109 23.5t-83.5 69 t-53.5 112t-19 152.5q0 90 22.5 175.5t64 161.5t99.5 139.5t129.5 110t153.5 72t172 25.5q65 0 126.5 -10.5t121.5 -36.5l-121 -980h-92q-35 0 -47.5 18t-12.5 44zM636 1289q0 -23 -9 -43t-25 -35t-36.5 -24t-43.5 -9t-43 9t-35.5 24t-24.5 35t-9 43t9 44t24.5 36.5 t35.5 24.5t43 9t43.5 -9t36.5 -24.5t25 -36.5t9 -44zM997 1289q0 -23 -9 -43t-24.5 -35t-36 -24t-43.5 -9t-43.5 9t-36 24t-24.5 35t-9 43t9 44t24.5 36.5t36 24.5t43.5 9t43.5 -9t36 -24.5t24.5 -36.5t9 -44z" />
<glyph unicode="&#xe5;" horiz-adv-x="1022" d="M753 889q-22 5 -43.5 6.5t-42.5 1.5q-60 0 -116 -19.5t-105 -54.5t-89 -83.5t-68.5 -106.5t-44.5 -123.5t-16 -134.5q0 -241 154 -241q49 0 96 30.5t89.5 85t78.5 129t64 163.5zM685 267q-36 -64 -77.5 -116t-88 -88.5t-98 -56.5t-106.5 -20q-60 0 -109 23.5t-83.5 69 t-53.5 112t-19 152.5q0 90 22.5 175.5t64 161.5t99.5 139.5t129.5 110t153.5 72t172 25.5q65 0 126.5 -10.5t121.5 -36.5l-121 -980h-92q-35 0 -47.5 18t-12.5 44zM531 1315q4 42 23 76t47 59t62.5 38.5t71.5 13.5t69.5 -13.5t55.5 -38.5t34 -59t6 -76q-5 -41 -23.5 -75 t-46.5 -58t-63.5 -37.5t-73.5 -13.5q-37 0 -68.5 13.5t-54 37.5t-33.5 58t-6 75zM623 1315q-5 -44 16.5 -72t65.5 -28q41 0 69.5 28t33.5 72q5 45 -17.5 73t-63.5 28q-43 0 -71 -28t-33 -73z" />
<glyph unicode="&#xe6;" horiz-adv-x="1485" d="M619 479q-120 -5 -203 -23t-134.5 -48t-74 -71t-22.5 -91q0 -72 39 -106.5t104 -34.5q52 0 98.5 18.5t84 55.5t63.5 92.5t35 129.5zM1083 900q-60 0 -109 -22.5t-85.5 -64t-61.5 -100.5t-37 -132q130 7 214.5 25t134 43.5t69.5 57.5t20 68q0 57 -37.5 91t-107.5 34z M1400 187q-51 -52 -99.5 -90t-99.5 -62.5t-106.5 -36.5t-119.5 -12q-104 0 -184 57t-119 171q-32 -62 -76.5 -105.5t-94.5 -71.5t-103 -40.5t-102 -12.5q-133 0 -205 59.5t-72 179.5q0 71 32 135.5t104 114t189 80t288 35.5l8 60q15 120 -23 180.5t-127 60.5 q-60 0 -102.5 -16.5t-74 -37t-55.5 -37t-46 -16.5q-18 0 -29 9t-19 23l-23 55q87 81 175.5 121t192.5 40q109 0 169.5 -48t82.5 -133q60 84 146.5 131t197.5 47q60 0 111 -18.5t88.5 -51.5t58.5 -77.5t21 -95.5q0 -57 -27.5 -111t-96 -96.5t-185.5 -70t-295 -30.5 q-1 -10 -1 -19.5v-20.5q0 -155 61 -232.5t169 -77.5q48 0 86 10t67.5 24.5t52 32t41.5 32t34.5 24.5t31.5 10q10 0 18 -4.5t16 -12.5z" />
<glyph unicode="&#xe7;" horiz-adv-x="909" d="M809 821q-7 -8 -15.5 -13t-19.5 -5q-14 0 -27.5 12.5t-35.5 28t-54.5 28t-83.5 12.5q-69 0 -130 -37.5t-107 -102.5t-72.5 -154t-26.5 -191q0 -62 14 -112.5t42 -86t68.5 -55t94.5 -19.5q67 0 112.5 20t76.5 43.5t52.5 43.5t42.5 20q19 0 34 -17l44 -54q-47 -52 -90 -88 t-85.5 -58.5t-87 -34t-94.5 -14.5l-24 -63q76 -17 110.5 -48.5t34.5 -77.5q0 -36 -16.5 -65t-46.5 -49t-71 -30.5t-89 -10.5q-38 0 -71 8.5t-60 22.5l24 55q7 18 25 18q6 0 12.5 -3.5t15.5 -8t22 -8t32 -3.5q40 0 61 19t21 48q0 34 -35.5 48.5t-100.5 23.5l56 127 q-74 10 -130.5 43.5t-95 87t-58 124.5t-19.5 155q0 123 38.5 236t107.5 200t164.5 139t208.5 52q101 0 169 -35.5t119 -103.5z" />
<glyph unicode="&#xe8;" horiz-adv-x="957" d="M574 899q-63 0 -116 -26t-94 -71.5t-70 -107t-45 -132.5q154 19 247 43.5t143 53t66 61.5t16 69q0 18 -8 37.5t-25.5 35.5t-45.5 26.5t-68 10.5zM856 187q-51 -53 -100 -90.5t-99.5 -62.5t-106 -36.5t-119.5 -11.5q-87 0 -156 29t-117 82.5t-74 129.5t-26 170 q0 78 16.5 155.5t48 147.5t77 130t104 103.5t129 68.5t151.5 25q77 0 133 -22t92 -56t53.5 -75t17.5 -78q0 -66 -27 -121.5t-99 -100t-198 -77.5t-324 -53q0 -11 -0.5 -21.5t-0.5 -21.5q0 -134 58.5 -204.5t176.5 -70.5q48 0 85.5 10t67 24.5t52 32t41 32t34.5 24.5t32 10 q19 0 34 -17zM497 1449q30 0 44 -10.5t24 -33.5l109 -242h-93q-19 0 -30.5 6.5t-22.5 21.5l-186 258h155z" />
<glyph unicode="&#xe9;" horiz-adv-x="957" d="M574 899q-63 0 -116 -26t-94 -71.5t-70 -107t-45 -132.5q154 19 247 43.5t143 53t66 61.5t16 69q0 18 -8 37.5t-25.5 35.5t-45.5 26.5t-68 10.5zM856 187q-51 -53 -100 -90.5t-99.5 -62.5t-106 -36.5t-119.5 -11.5q-87 0 -156 29t-117 82.5t-74 129.5t-26 170 q0 78 16.5 155.5t48 147.5t77 130t104 103.5t129 68.5t151.5 25q77 0 133 -22t92 -56t53.5 -75t17.5 -78q0 -66 -27 -121.5t-99 -100t-198 -77.5t-324 -53q0 -11 -0.5 -21.5t-0.5 -21.5q0 -134 58.5 -204.5t176.5 -70.5q48 0 85.5 10t67 24.5t52 32t41 32t34.5 24.5t32 10 q19 0 34 -17zM900 1449l-244 -258q-14 -15 -27 -21.5t-32 -6.5h-98l163 242q15 23 31.5 33.5t46.5 10.5h160z" />
<glyph unicode="&#xea;" horiz-adv-x="957" d="M574 899q-63 0 -116 -26t-94 -71.5t-70 -107t-45 -132.5q154 19 247 43.5t143 53t66 61.5t16 69q0 18 -8 37.5t-25.5 35.5t-45.5 26.5t-68 10.5zM856 187q-51 -53 -100 -90.5t-99.5 -62.5t-106 -36.5t-119.5 -11.5q-87 0 -156 29t-117 82.5t-74 129.5t-26 170 q0 78 16.5 155.5t48 147.5t77 130t104 103.5t129 68.5t151.5 25q77 0 133 -22t92 -56t53.5 -75t17.5 -78q0 -66 -27 -121.5t-99 -100t-198 -77.5t-324 -53q0 -11 -0.5 -21.5t-0.5 -21.5q0 -134 58.5 -204.5t176.5 -70.5q48 0 85.5 10t67 24.5t52 32t41 32t34.5 24.5t32 10 q19 0 34 -17zM866 1169h-110q-10 0 -19.5 4t-18.5 15l-99 132q-3 5 -6.5 9.5t-6.5 9.5q-5 -5 -9 -10t-8 -9l-130 -132q-19 -19 -42 -19h-114l235 264h152z" />
<glyph unicode="&#xeb;" horiz-adv-x="957" d="M574 899q-63 0 -116 -26t-94 -71.5t-70 -107t-45 -132.5q154 19 247 43.5t143 53t66 61.5t16 69q0 18 -8 37.5t-25.5 35.5t-45.5 26.5t-68 10.5zM856 187q-51 -53 -100 -90.5t-99.5 -62.5t-106 -36.5t-119.5 -11.5q-87 0 -156 29t-117 82.5t-74 129.5t-26 170 q0 78 16.5 155.5t48 147.5t77 130t104 103.5t129 68.5t151.5 25q77 0 133 -22t92 -56t53.5 -75t17.5 -78q0 -66 -27 -121.5t-99 -100t-198 -77.5t-324 -53q0 -11 -0.5 -21.5t-0.5 -21.5q0 -134 58.5 -204.5t176.5 -70.5q48 0 85.5 10t67 24.5t52 32t41 32t34.5 24.5t32 10 q19 0 34 -17zM543 1289q0 -23 -9 -43t-25 -35t-36.5 -24t-43.5 -9t-43 9t-35.5 24t-24.5 35t-9 43t9 44t24.5 36.5t35.5 24.5t43 9t43.5 -9t36.5 -24.5t25 -36.5t9 -44zM904 1289q0 -23 -9 -43t-24.5 -35t-36 -24t-43.5 -9t-43.5 9t-36 24t-24.5 35t-9 43t9 44t24.5 36.5 t36 24.5t43.5 9t43.5 -9t36 -24.5t24.5 -36.5t9 -44z" />
<glyph unicode="&#xec;" horiz-adv-x="460" d="M366 1013l-122 -1013h-175l122 1013h175zM226 1449q30 0 44 -10.5t24 -33.5l109 -242h-93q-19 0 -30.5 6.5t-22.5 21.5l-186 258h155z" />
<glyph unicode="&#xed;" horiz-adv-x="460" d="M366 1013l-122 -1013h-175l122 1013h175zM587 1449l-244 -258q-14 -15 -27 -21.5t-32 -6.5h-98l163 242q15 23 31.5 33.5t46.5 10.5h160z" />
<glyph unicode="&#xee;" horiz-adv-x="460" d="M366 1013l-122 -1013h-175l122 1013h175zM580 1169h-110q-10 0 -19.5 4t-18.5 15l-99 132q-3 5 -6.5 9.5t-6.5 9.5q-5 -5 -9 -10t-8 -9l-130 -132q-19 -19 -42 -19h-114l235 264h152z" />
<glyph unicode="&#xef;" horiz-adv-x="460" d="M366 1013l-122 -1013h-175l122 1013h175zM281 1289q0 -23 -9 -43t-25 -35t-36.5 -24t-43.5 -9q-22 0 -42 9t-35.5 24t-24.5 35t-9 43t9 44t24.5 36.5t35.5 24.5t42 9q23 0 43.5 -9t36.5 -24.5t25 -36.5t9 -44zM573 1289q0 -23 -9 -43t-24.5 -35t-36 -24t-43.5 -9t-43.5 9 t-35.5 24t-24 35t-9 43t9 44t24 36.5t35.5 24.5t43.5 9t43.5 -9t36 -24.5t24.5 -36.5t9 -44z" />
<glyph unicode="&#xf0;" horiz-adv-x="1054" d="M453 121q65 0 120.5 25.5t99.5 80t75 139.5t47 204q-10 43 -29.5 83.5t-49.5 71.5t-72 49.5t-98 18.5q-75 0 -134.5 -30t-100.5 -82.5t-62.5 -123t-21.5 -151.5q0 -67 17 -120t47.5 -89.5t72 -56t89.5 -19.5zM794 1214q81 -84 128 -204.5t47 -285.5t-35 -300.5 t-103 -232.5t-168 -150.5t-230 -53.5q-83 0 -152 28.5t-119 82t-78 129t-28 170.5q0 108 34.5 204.5t97 168.5t149.5 114.5t192 42.5q97 0 175 -45.5t126 -137.5q-2 136 -40 234.5t-114 167.5l-191 -138l-32 57q-8 13 -4.5 26t14.5 21l129 95q-41 24 -88.5 43t-103.5 34 q-30 10 -36 28.5t6 44.5l26 55q88 -16 169.5 -48t151.5 -83l174 124l29 -57q7 -12 5.5 -26.5t-18.5 -24.5z" />
<glyph unicode="&#xf1;" horiz-adv-x="1060" d="M314 757q81 134 183 202.5t210 68.5q64 0 112.5 -25.5t79 -74.5t41.5 -120.5t0 -162.5l-76 -645h-177l76 645q14 120 -15 177.5t-107 57.5q-48 0 -97.5 -26t-95.5 -74t-85.5 -115.5t-67.5 -150.5l-58 -514h-178l122 1014h88q60 0 60 -60zM707 1325q67 0 79 86h100 q-5 -47 -21 -86.5t-41 -67.5t-56.5 -43.5t-68.5 -15.5q-32 0 -58.5 14.5t-49.5 31.5t-43.5 31.5t-41.5 14.5q-67 0 -78 -88h-102q5 48 21.5 87.5t41.5 68t57 44t68 15.5q33 0 59 -14.5t49 -31.5t43.5 -31.5t41.5 -14.5z" />
<glyph unicode="&#xf2;" horiz-adv-x="1038" d="M453 125q73 0 132.5 40t102 106.5t65.5 153.5t23 182q0 140 -55.5 210.5t-159.5 70.5q-74 0 -133.5 -39.5t-101.5 -105.5t-65 -153t-23 -182q0 -140 55 -211.5t160 -71.5zM436 -14q-83 0 -152 28.5t-119 82.5t-78 132t-28 178q0 128 40 241t110 197.5t164.5 133.5 t203.5 49q83 0 152 -28.5t119 -82.5t78 -132t28 -177q0 -127 -40 -240t-109.5 -198t-164.5 -134.5t-204 -49.5zM527 1449q30 0 44 -10.5t24 -33.5l109 -242h-93q-19 0 -30.5 6.5t-22.5 21.5l-186 258h155z" />
<glyph unicode="&#xf3;" horiz-adv-x="1038" d="M453 125q73 0 132.5 40t102 106.5t65.5 153.5t23 182q0 140 -55.5 210.5t-159.5 70.5q-74 0 -133.5 -39.5t-101.5 -105.5t-65 -153t-23 -182q0 -140 55 -211.5t160 -71.5zM436 -14q-83 0 -152 28.5t-119 82.5t-78 132t-28 178q0 128 40 241t110 197.5t164.5 133.5 t203.5 49q83 0 152 -28.5t119 -82.5t78 -132t28 -177q0 -127 -40 -240t-109.5 -198t-164.5 -134.5t-204 -49.5zM887 1449l-244 -258q-14 -15 -27 -21.5t-32 -6.5h-98l163 242q15 23 31.5 33.5t46.5 10.5h160z" />
<glyph unicode="&#xf4;" horiz-adv-x="1038" d="M453 125q73 0 132.5 40t102 106.5t65.5 153.5t23 182q0 140 -55.5 210.5t-159.5 70.5q-74 0 -133.5 -39.5t-101.5 -105.5t-65 -153t-23 -182q0 -140 55 -211.5t160 -71.5zM436 -14q-83 0 -152 28.5t-119 82.5t-78 132t-28 178q0 128 40 241t110 197.5t164.5 133.5 t203.5 49q83 0 152 -28.5t119 -82.5t78 -132t28 -177q0 -127 -40 -240t-109.5 -198t-164.5 -134.5t-204 -49.5zM879 1169h-110q-10 0 -19.5 4t-18.5 15l-99 132q-3 5 -6.5 9.5t-6.5 9.5q-5 -5 -9 -10t-8 -9l-130 -132q-19 -19 -42 -19h-114l235 264h152z" />
<glyph unicode="&#xf5;" horiz-adv-x="1038" d="M453 125q73 0 132.5 40t102 106.5t65.5 153.5t23 182q0 140 -55.5 210.5t-159.5 70.5q-74 0 -133.5 -39.5t-101.5 -105.5t-65 -153t-23 -182q0 -140 55 -211.5t160 -71.5zM436 -14q-83 0 -152 28.5t-119 82.5t-78 132t-28 178q0 128 40 241t110 197.5t164.5 133.5 t203.5 49q83 0 152 -28.5t119 -82.5t78 -132t28 -177q0 -127 -40 -240t-109.5 -198t-164.5 -134.5t-204 -49.5zM722 1325q67 0 79 86h100q-5 -47 -21 -86.5t-41 -67.5t-56.5 -43.5t-68.5 -15.5q-32 0 -58.5 14.5t-49.5 31.5t-43.5 31.5t-41.5 14.5q-67 0 -78 -88h-102 q5 48 21.5 87.5t41.5 68t57 44t68 15.5q33 0 59 -14.5t49 -31.5t43.5 -31.5t41.5 -14.5z" />
<glyph unicode="&#xf6;" horiz-adv-x="1038" d="M453 125q73 0 132.5 40t102 106.5t65.5 153.5t23 182q0 140 -55.5 210.5t-159.5 70.5q-74 0 -133.5 -39.5t-101.5 -105.5t-65 -153t-23 -182q0 -140 55 -211.5t160 -71.5zM436 -14q-83 0 -152 28.5t-119 82.5t-78 132t-28 178q0 128 40 241t110 197.5t164.5 133.5 t203.5 49q83 0 152 -28.5t119 -82.5t78 -132t28 -177q0 -127 -40 -240t-109.5 -198t-164.5 -134.5t-204 -49.5zM560 1289q0 -23 -9 -43t-25 -35t-36.5 -24t-43.5 -9t-43 9t-35.5 24t-24.5 35t-9 43t9 44t24.5 36.5t35.5 24.5t43 9t43.5 -9t36.5 -24.5t25 -36.5t9 -44z M921 1289q0 -23 -9 -43t-24.5 -35t-36 -24t-43.5 -9t-43.5 9t-36 24t-24.5 35t-9 43t9 44t24.5 36.5t36 24.5t43.5 9t43.5 -9t36 -24.5t24.5 -36.5t9 -44z" />
<glyph unicode="&#xf7;" horiz-adv-x="1160" d="M116 736h958l-16 -130h-958zM507 1012q0 28 11 53t29.5 44t43.5 30t53 11q24 0 44 -9t34.5 -24t22.5 -35t8 -43q0 -29 -11.5 -53.5t-30.5 -42.5t-44.5 -28.5t-52.5 -10.5q-48 0 -77.5 31t-29.5 77zM419 300q0 28 11 53t29.5 44t43.5 30t53 11q24 0 44 -9t34.5 -24 t22.5 -35t8 -43q0 -29 -11.5 -53.5t-30.5 -42.5t-44 -28.5t-53 -10.5q-48 0 -77.5 31t-29.5 77z" />
<glyph unicode="&#xf8;" horiz-adv-x="1036" d="M319 159q56 -45 133 -45q73 0 134.5 38.5t106 105t69 156.5t24.5 193q0 45 -6.5 82.5t-18.5 69.5zM695 855q-56 45 -134 45q-74 0 -135 -38t-105.5 -104.5t-69 -156.5t-24.5 -193q0 -89 26 -155zM873 888q38 -53 59.5 -123t21.5 -157q0 -127 -40 -240t-110 -198 t-164.5 -134.5t-203.5 -49.5q-124 0 -214 61l-36 -49q-22 -30 -51.5 -42.5t-58.5 -12.5h-67l133 181q-40 53 -61.5 124t-21.5 159q0 128 40 241t109.5 198t164 134t204.5 49q124 0 216 -63l33 45q20 28 36 39t48 11h90z" />
<glyph unicode="&#xf9;" horiz-adv-x="1059" d="M975 1013l-122 -1013h-88q-65 0 -65 64l15 185q-80 -130 -180.5 -196.5t-206.5 -66.5q-64 0 -113 25.5t-79.5 74.5t-41.5 120t1 163l76 644h177l-76 -644q-14 -119 14.5 -177t107.5 -58q46 0 95 25t94 71t84.5 111.5t67.5 145.5l63 526h177zM519 1449q30 0 44 -10.5 t24 -33.5l109 -242h-93q-19 0 -30.5 6.5t-22.5 21.5l-186 258h155z" />
<glyph unicode="&#xfa;" horiz-adv-x="1059" d="M975 1013l-122 -1013h-88q-65 0 -65 64l15 185q-80 -130 -180.5 -196.5t-206.5 -66.5q-64 0 -113 25.5t-79.5 74.5t-41.5 120t1 163l76 644h177l-76 -644q-14 -119 14.5 -177t107.5 -58q46 0 95 25t94 71t84.5 111.5t67.5 145.5l63 526h177zM921 1449l-244 -258 q-14 -15 -27 -21.5t-32 -6.5h-98l163 242q15 23 31.5 33.5t46.5 10.5h160z" />
<glyph unicode="&#xfb;" horiz-adv-x="1059" d="M975 1013l-122 -1013h-88q-65 0 -65 64l15 185q-80 -130 -180.5 -196.5t-206.5 -66.5q-64 0 -113 25.5t-79.5 74.5t-41.5 120t1 163l76 644h177l-76 -644q-14 -119 14.5 -177t107.5 -58q46 0 95 25t94 71t84.5 111.5t67.5 145.5l63 526h177zM882 1169h-110q-10 0 -19.5 4 t-18.5 15l-99 132q-3 5 -6.5 9.5t-6.5 9.5q-5 -5 -9 -10t-8 -9l-130 -132q-19 -19 -42 -19h-114l235 264h152z" />
<glyph unicode="&#xfc;" horiz-adv-x="1059" d="M975 1013l-122 -1013h-88q-65 0 -65 64l15 185q-80 -130 -180.5 -196.5t-206.5 -66.5q-64 0 -113 25.5t-79.5 74.5t-41.5 120t1 163l76 644h177l-76 -644q-14 -119 14.5 -177t107.5 -58q46 0 95 25t94 71t84.5 111.5t67.5 145.5l63 526h177zM542 1289q0 -23 -9 -43 t-25 -35t-36.5 -24t-43.5 -9t-43 9t-35.5 24t-24.5 35t-9 43t9 44t24.5 36.5t35.5 24.5t43 9t43.5 -9t36.5 -24.5t25 -36.5t9 -44zM903 1289q0 -23 -9 -43t-24.5 -35t-36 -24t-43.5 -9t-43.5 9t-36 24t-24.5 35t-9 43t9 44t24.5 36.5t36 24.5t43.5 9t43.5 -9t36 -24.5 t24.5 -36.5t9 -44z" />
<glyph unicode="&#xfd;" horiz-adv-x="959" d="M992 1013l-684 -1315q-11 -21 -25.5 -31t-36.5 -10h-131l220 403l-263 953h147q22 0 32 -10.5t15 -26.5l163 -638q5 -21 8 -42t5 -42q9 21 18 42.5t19 42.5l320 639q8 16 22.5 25.5t29.5 9.5h141zM863 1449l-244 -258q-14 -15 -27 -21.5t-32 -6.5h-98l163 242 q15 23 31.5 33.5t46.5 10.5h160z" />
<glyph unicode="&#xfe;" horiz-adv-x="1057" d="M259 223q38 -54 91 -76.5t108 -22.5q52 0 98 22t84 59.5t68 88t50.5 108t31.5 119t11 121.5q0 119 -43 181t-121 62q-48 0 -97 -30t-94.5 -83t-85.5 -126t-69 -159zM325 758q38 61 81.5 111t91.5 85.5t100 54.5t106 19q130 0 201.5 -94t71.5 -275q0 -82 -17 -164 t-48.5 -156.5t-76 -139t-99 -112t-118.5 -74.5t-134 -27q-75 0 -136.5 29.5t-103.5 83.5l-47 -378q-3 -26 -22.5 -45t-49.5 -19h-108l221 1816h175z" />
<glyph unicode="&#xff;" horiz-adv-x="959" d="M992 1013l-684 -1315q-11 -21 -25.5 -31t-36.5 -10h-131l220 403l-263 953h147q22 0 32 -10.5t15 -26.5l163 -638q5 -21 8 -42t5 -42q9 21 18 42.5t19 42.5l320 639q8 16 22.5 25.5t29.5 9.5h141zM505 1289q0 -23 -9 -43t-25 -35t-36.5 -24t-43.5 -9t-43 9t-35.5 24 t-24.5 35t-9 43t9 44t24.5 36.5t35.5 24.5t43 9t43.5 -9t36.5 -24.5t25 -36.5t9 -44zM866 1289q0 -23 -9 -43t-24.5 -35t-36 -24t-43.5 -9t-43.5 9t-36 24t-24.5 35t-9 43t9 44t24.5 36.5t36 24.5t43.5 9t43.5 -9t36 -24.5t24.5 -36.5t9 -44z" />
<glyph unicode="&#x100;" horiz-adv-x="1262" d="M867 531l-131 593q-5 27 -12 62.5t-12 76.5q-15 -42 -30 -77l-27 -63l-277 -592h489zM1178 0h-144q-25 0 -39 12.5t-20 32.5l-78 350h-583l-164 -350q-9 -18 -27.5 -31.5t-41.5 -13.5h-146l702 1433h190zM510 1694h512l-12 -105h-513z" />
<glyph unicode="&#x101;" horiz-adv-x="1022" d="M753 889q-22 5 -43.5 6.5t-42.5 1.5q-60 0 -116 -19.5t-105 -54.5t-89 -83.5t-68.5 -106.5t-44.5 -123.5t-16 -134.5q0 -241 154 -241q49 0 96 30.5t89.5 85t78.5 129t64 163.5zM685 267q-36 -64 -77.5 -116t-88 -88.5t-98 -56.5t-106.5 -20q-60 0 -109 23.5t-83.5 69 t-53.5 112t-19 152.5q0 90 22.5 175.5t64 161.5t99.5 139.5t129.5 110t153.5 72t172 25.5q65 0 126.5 -10.5t121.5 -36.5l-121 -980h-92q-35 0 -47.5 18t-12.5 44zM445 1348h528l-13 -117h-529z" />
<glyph unicode="&#x102;" horiz-adv-x="1262" d="M867 531l-131 593q-5 27 -12 62.5t-12 76.5q-15 -42 -30 -77l-27 -63l-277 -592h489zM1178 0h-144q-25 0 -39 12.5t-20 32.5l-78 350h-583l-164 -350q-9 -18 -27.5 -31.5t-41.5 -13.5h-146l702 1433h190zM748 1544q-131 0 -195.5 65t-49.5 200h126q-4 -37 0.5 -65.5 t19.5 -48.5t42 -30.5t69 -10.5q83 0 120.5 40.5t45.5 114.5h126q-14 -127 -93.5 -196t-210.5 -69z" />
<glyph unicode="&#x103;" horiz-adv-x="1022" d="M753 889q-22 5 -43.5 6.5t-42.5 1.5q-60 0 -116 -19.5t-105 -54.5t-89 -83.5t-68.5 -106.5t-44.5 -123.5t-16 -134.5q0 -241 154 -241q49 0 96 30.5t89.5 85t78.5 129t64 163.5zM685 267q-36 -64 -77.5 -116t-88 -88.5t-98 -56.5t-106.5 -20q-60 0 -109 23.5t-83.5 69 t-53.5 112t-19 152.5q0 90 22.5 175.5t64 161.5t99.5 139.5t129.5 110t153.5 72t172 25.5q65 0 126.5 -10.5t121.5 -36.5l-121 -980h-92q-35 0 -47.5 18t-12.5 44zM703 1164q-70 0 -116 21.5t-71.5 58t-33 85.5t-1.5 104h117q-4 -33 -1 -61.5t16.5 -48.5t38.5 -31.5 t64 -11.5t66.5 11.5t45.5 31.5t27.5 48.5t13.5 61.5h116q-6 -55 -24.5 -104t-52 -85.5t-84.5 -58t-121 -21.5z" />
<glyph unicode="&#x104;" horiz-adv-x="1262" d="M867 531l-131 593q-5 27 -12 62.5t-12 76.5q-15 -42 -30 -77l-27 -63l-277 -592h489zM1224 -290q-32 -23 -76.5 -37.5t-92.5 -14.5q-78 0 -119.5 35t-41.5 93q0 63 42.5 117.5t111.5 96.5h-14q-25 0 -39 12.5t-20 32.5l-78 350h-583l-164 -350q-9 -18 -27.5 -31.5 t-41.5 -13.5h-146l702 1433h190l351 -1433h-18q-21 -12 -43.5 -28.5t-40.5 -37.5t-30 -46t-12 -53q0 -32 19 -51t51 -19q20 0 34 3.5t23.5 8t15.5 8.5t11 4q12 0 16 -13z" />
<glyph unicode="&#x105;" horiz-adv-x="1022" d="M754 889q-22 5 -43.5 6.5t-42.5 1.5q-60 0 -116 -19.5t-105 -54.5t-89 -83.5t-68.5 -106.5t-44.5 -123.5t-16 -134.5q0 -241 154 -241q49 0 96 30.5t89.5 85t78.5 129t64 163.5zM799 0q-21 -12 -43.5 -28.5t-40.5 -37.5t-30 -46t-12 -53q0 -32 19 -51t51 -19q20 0 34 3.5 t23.5 8t15.5 8.5t11 4q12 0 16 -13l20 -66q-32 -23 -76.5 -37.5t-92.5 -14.5q-78 0 -119.5 35t-41.5 93q0 33 12 63.5t34 58t51.5 52.5t65.5 46q-17 8 -23 22.5t-6 33.5l19 205q-36 -64 -77.5 -116t-88 -88.5t-98 -56.5t-106.5 -20q-60 0 -109 23.5t-83.5 69t-53.5 112 t-19 152.5q0 90 22.5 175.5t64 161.5t99.5 139.5t129.5 110t153.5 72t172 25.5q65 0 126.5 -10.5t121.5 -36.5l-121 -980h-20z" />
<glyph unicode="&#x106;" horiz-adv-x="1249" d="M677 145q66 0 117 11t90 27t66.5 35.5t48 35.5t34.5 27t25 11q9 0 15 -3.5t10 -8.5l65 -81q-94 -102 -216.5 -158.5t-285.5 -56.5q-129 0 -230.5 46t-172 128.5t-108 196.5t-37.5 251q0 187 58 342t159.5 266.5t238.5 173t295 61.5q76 0 138 -13t113 -38t92.5 -60 t77.5 -78l-64 -78q-8 -10 -18 -16.5t-25 -6.5q-18 0 -38 20t-54.5 43.5t-89 43.5t-141.5 20q-117 0 -217.5 -46.5t-174.5 -133t-116.5 -209.5t-42.5 -276q0 -111 29 -199t80.5 -149.5t122.5 -94.5t156 -33zM1238 1852l-331 -286q-17 -14 -29.5 -17t-32.5 -3h-116l244 274 q18 22 34 27t46 5h185z" />
<glyph unicode="&#x107;" horiz-adv-x="909" d="M818 182q-52 -57 -99 -95t-94 -60.5t-97.5 -31.5t-108.5 -9q-88 0 -155.5 30t-113 84.5t-69 131t-23.5 168.5q0 123 38.5 236t107.5 200t164.5 139t208.5 52q101 0 169 -35.5t119 -103.5l-56 -67q-7 -8 -15.5 -13t-19.5 -5q-14 0 -27.5 12.5t-35.5 28t-54.5 28 t-83.5 12.5q-69 0 -130 -37.5t-107 -102.5t-72.5 -154t-26.5 -191q0 -62 14 -112.5t42 -86t68.5 -55t94.5 -19.5q67 0 112.5 20t76.5 43.5t52.5 43.5t42.5 20q19 0 34 -17l44 -54v0zM896 1449l-244 -258q-14 -15 -27 -21.5t-32 -6.5h-98l163 242q15 23 31.5 33.5t46.5 10.5 h160z" />
<glyph unicode="&#x108;" horiz-adv-x="1249" d="M677 145q66 0 117 11t90 27t66.5 35.5t48 35.5t34.5 27t25 11q9 0 15 -3.5t10 -8.5l65 -81q-94 -102 -216.5 -158.5t-285.5 -56.5q-129 0 -230.5 46t-172 128.5t-108 196.5t-37.5 251q0 187 58 342t159.5 266.5t238.5 173t295 61.5q76 0 138 -13t113 -38t92.5 -60 t77.5 -78l-64 -78q-8 -10 -18 -16.5t-25 -6.5q-18 0 -38 20t-54.5 43.5t-89 43.5t-141.5 20q-117 0 -217.5 -46.5t-174.5 -133t-116.5 -209.5t-42.5 -276q0 -111 29 -199t80.5 -149.5t122.5 -94.5t156 -33zM1148 1546h-120q-11 0 -26 4.5t-28 24.5l-92 141q-2 5 -4.5 8.5 t-4.5 8.5q-3 -7 -12 -17l-124 -141q-18 -20 -33.5 -24.5t-26.5 -4.5h-116l251 271h147z" />
<glyph unicode="&#x109;" horiz-adv-x="909" d="M818 182q-52 -57 -99 -95t-94 -60.5t-97.5 -31.5t-108.5 -9q-88 0 -155.5 30t-113 84.5t-69 131t-23.5 168.5q0 123 38.5 236t107.5 200t164.5 139t208.5 52q101 0 169 -35.5t119 -103.5l-56 -67q-7 -8 -15.5 -13t-19.5 -5q-14 0 -27.5 12.5t-35.5 28t-54.5 28 t-83.5 12.5q-69 0 -130 -37.5t-107 -102.5t-72.5 -154t-26.5 -191q0 -62 14 -112.5t42 -86t68.5 -55t94.5 -19.5q67 0 112.5 20t76.5 43.5t52.5 43.5t42.5 20q19 0 34 -17zM874 1169h-110q-10 0 -19.5 4t-18.5 15l-99 132q-3 5 -6.5 9.5t-6.5 9.5q-5 -5 -9 -10t-8 -9 l-130 -132q-19 -19 -42 -19h-114l235 264h152z" />
<glyph unicode="&#x10a;" horiz-adv-x="1249" d="M677 145q66 0 117 11t90 27t66.5 35.5t48 35.5t34.5 27t25 11q9 0 15 -3.5t10 -8.5l65 -81q-94 -102 -216.5 -158.5t-285.5 -56.5q-129 0 -230.5 46t-172 128.5t-108 196.5t-37.5 251q0 187 58 342t159.5 266.5t238.5 173t295 61.5q76 0 138 -13t113 -38t92.5 -60 t77.5 -78l-64 -78q-8 -10 -18 -16.5t-25 -6.5q-18 0 -38 20t-54.5 43.5t-89 43.5t-141.5 20q-117 0 -217.5 -46.5t-174.5 -133t-116.5 -209.5t-42.5 -276q0 -111 29 -199t80.5 -149.5t122.5 -94.5t156 -33zM1029 1687q0 -26 -10.5 -48.5t-28 -40t-39.5 -27.5t-46 -10 t-45.5 10t-38 27.5t-26.5 40t-10 48.5t10 49t27 40.5t38.5 28t45.5 10.5t46 -10t39.5 -27.5t27.5 -41t10 -49.5z" />
<glyph unicode="&#x10b;" horiz-adv-x="909" d="M818 182q-52 -57 -99 -95t-94 -60.5t-97.5 -31.5t-108.5 -9q-88 0 -155.5 30t-113 84.5t-69 131t-23.5 168.5q0 123 38.5 236t107.5 200t164.5 139t208.5 52q101 0 169 -35.5t119 -103.5l-56 -67q-7 -8 -15.5 -13t-19.5 -5q-14 0 -27.5 12.5t-35.5 28t-54.5 28 t-83.5 12.5q-69 0 -130 -37.5t-107 -102.5t-72.5 -154t-26.5 -191q0 -62 14 -112.5t42 -86t68.5 -55t94.5 -19.5q67 0 112.5 20t76.5 43.5t52.5 43.5t42.5 20q19 0 34 -17l44 -54v0zM726 1331q0 -26 -10.5 -48.5t-28 -40t-40 -27.5t-46.5 -10q-23 0 -45 10t-38.5 27.5 t-26.5 40t-10 48.5t10 49t27 40.5t39 28t45 10.5q24 0 46.5 -10t39.5 -27.5t27.5 -41t10.5 -49.5z" />
<glyph unicode="&#x10c;" horiz-adv-x="1249" d="M677 145q66 0 117 11t90 27t66.5 35.5t48 35.5t34.5 27t25 11q9 0 15 -3.5t10 -8.5l65 -81q-94 -102 -216.5 -158.5t-285.5 -56.5q-129 0 -230.5 46t-172 128.5t-108 196.5t-37.5 251q0 187 58 342t159.5 266.5t238.5 173t295 61.5q76 0 138 -13t113 -38t92.5 -60 t77.5 -78l-64 -78q-8 -10 -18 -16.5t-25 -6.5q-18 0 -38 20t-54.5 43.5t-89 43.5t-141.5 20q-117 0 -217.5 -46.5t-174.5 -133t-116.5 -209.5t-42.5 -276q0 -111 29 -199t80.5 -149.5t122.5 -94.5t156 -33zM1188 1817l-250 -271h-152l-188 271h119q11 0 25.5 -3t25.5 -20 l95 -151q2 -5 4 -9l4 -8l6 8t7 9l128 150q14 18 30 21t27 3h119z" />
<glyph unicode="&#x10d;" horiz-adv-x="909" d="M818 182q-52 -57 -99 -95t-94 -60.5t-97.5 -31.5t-108.5 -9q-88 0 -155.5 30t-113 84.5t-69 131t-23.5 168.5q0 123 38.5 236t107.5 200t164.5 139t208.5 52q101 0 169 -35.5t119 -103.5l-56 -67q-7 -8 -15.5 -13t-19.5 -5q-14 0 -27.5 12.5t-35.5 28t-54.5 28 t-83.5 12.5q-69 0 -130 -37.5t-107 -102.5t-72.5 -154t-26.5 -191q0 -62 14 -112.5t42 -86t68.5 -55t94.5 -19.5q67 0 112.5 20t76.5 43.5t52.5 43.5t42.5 20q19 0 34 -17zM884 1433l-235 -264h-153l-176 264h114q11 0 20.5 -5t14.5 -10l103 -136q3 -5 6.5 -10t6.5 -10 q5 5 9 10t9 10l133 136q7 5 17.5 10t20.5 5h110z" />
<glyph unicode="&#x10e;" horiz-adv-x="1415" d="M1342 817q0 -183 -56.5 -333.5t-156.5 -258t-237.5 -166.5t-299.5 -59h-494l176 1433h495q132 0 238 -45t180.5 -126.5t114.5 -195t40 -249.5zM1149 813q0 108 -27 195t-78.5 147.5t-125.5 93t-167 32.5h-307l-140 -1130h307q119 0 218 45.5t170 131t110.5 208 t39.5 277.5zM1083 1817l-250 -271h-152l-188 271h119q11 0 25.5 -3t25.5 -20l95 -151q2 -5 4 -9l4 -8l6 8t7 9l128 150q14 18 30 21t27 3h119z" />
<glyph unicode="&#x10f;" horiz-adv-x="1058" d="M1265 1473q17 0 22.5 -7.5t5.5 -17.5t-3.5 -25t-15 -43.5t-33 -75.5t-57.5 -120q-12 -22 -27 -28.5t-39 -6.5h-44l93 324h98zM774 792q-38 54 -91.5 75.5t-108.5 21.5q-79 0 -142 -47t-107.5 -121.5t-68.5 -166.5t-24 -181q0 -119 42.5 -181.5t121.5 -62.5q48 0 97 30 t94.5 83.5t85 126.5t68.5 160zM1032 1473l-181 -1473h-93q-35 0 -47 18t-12 44l19 213q-38 -66 -83 -119t-94.5 -91t-103 -58.5t-108.5 -20.5q-130 0 -202 94.5t-72 274.5q0 82 17 164t48.5 157t76 139.5t99.5 111.5t118.5 74t133.5 27q75 0 136.5 -29.5t104.5 -83.5l69 558 h174z" />
<glyph unicode="&#x110;" horiz-adv-x="1426" d="M624 151q120 0 218.5 45.5t169.5 131t110 208t39 277.5q0 108 -27.5 195t-78.5 147.5t-125 93t-167 32.5h-307l-62 -504h348l-13 -110h-348l-63 -516h306zM781 1433q132 0 238 -45t180.5 -126.5t114 -195t39.5 -249.5q0 -183 -56.5 -333.5t-156 -258t-236.5 -166.5 t-298 -59h-495l82 667h-179l13 110h179l81 656h494z" />
<glyph unicode="&#x111;" horiz-adv-x="1058" d="M772 774q-38 52 -91.5 73.5t-106.5 21.5q-79 0 -142 -44t-107.5 -114.5t-68.5 -159.5t-24 -178q0 -119 42.5 -181.5t121.5 -62.5q48 0 97 30t94.5 83.5t85 126.5t68.5 160zM1125 1144h-133l-141 -1144h-93q-35 0 -47 18t-12 44l19 213q-38 -66 -83 -119t-94.5 -91 t-103 -58.5t-108.5 -20.5q-130 0 -202 94.5t-72 274.5q0 124 37.5 241t104 208.5t156.5 147t195 55.5q74 0 135 -28.5t104 -81.5l30 247h-154q-37 0 -49.5 16t-7.5 48l8 46h217l27 219h174l-27 -219h132z" />
<glyph unicode="&#x112;" horiz-adv-x="1076" d="M443 1280l-59 -483h507l-19 -147h-506l-61 -498h629l-19 -152h-817l176 1433h816l-19 -153h-628zM471 1694h512l-12 -105h-513z" />
<glyph unicode="&#x113;" horiz-adv-x="957" d="M574 899q-63 0 -116 -26t-94 -71.5t-70 -107t-45 -132.5q154 19 247 43.5t143 53t66 61.5t16 69q0 18 -8 37.5t-25.5 35.5t-45.5 26.5t-68 10.5zM856 187q-51 -53 -100 -90.5t-99.5 -62.5t-106 -36.5t-119.5 -11.5q-87 0 -156 29t-117 82.5t-74 129.5t-26 170 q0 78 16.5 155.5t48 147.5t77 130t104 103.5t129 68.5t151.5 25q77 0 133 -22t92 -56t53.5 -75t17.5 -78q0 -66 -27 -121.5t-99 -100t-198 -77.5t-324 -53q0 -11 -0.5 -21.5t-0.5 -21.5q0 -134 58.5 -204.5t176.5 -70.5q48 0 85.5 10t67 24.5t52 32t41 32t34.5 24.5t32 10 q19 0 34 -17zM351 1348h528l-13 -117h-529z" />
<glyph unicode="&#x114;" horiz-adv-x="1076" d="M443 1280l-59 -483h507l-19 -147h-506l-61 -498h629l-19 -152h-817l176 1433h816l-19 -153h-628zM710 1544q-131 0 -195.5 65t-49.5 200h126q-4 -37 0.5 -65.5t19.5 -48.5t42 -30.5t69 -10.5q83 0 120.5 40.5t45.5 114.5h126q-14 -127 -93.5 -196t-210.5 -69z" />
<glyph unicode="&#x115;" horiz-adv-x="957" d="M574 899q-63 0 -116 -26t-94 -71.5t-70 -107t-45 -132.5q154 19 247 43.5t143 53t66 61.5t16 69q0 18 -8 37.5t-25.5 35.5t-45.5 26.5t-68 10.5zM856 187q-51 -53 -100 -90.5t-99.5 -62.5t-106 -36.5t-119.5 -11.5q-87 0 -156 29t-117 82.5t-74 129.5t-26 170 q0 78 16.5 155.5t48 147.5t77 130t104 103.5t129 68.5t151.5 25q77 0 133 -22t92 -56t53.5 -75t17.5 -78q0 -66 -27 -121.5t-99 -100t-198 -77.5t-324 -53q0 -11 -0.5 -21.5t-0.5 -21.5q0 -134 58.5 -204.5t176.5 -70.5q48 0 85.5 10t67 24.5t52 32t41 32t34.5 24.5t32 10 q19 0 34 -17zM589 1164q-70 0 -116 21.5t-71.5 58t-33 85.5t-1.5 104h117q-4 -33 -1 -61.5t16.5 -48.5t38.5 -31.5t64 -11.5t66.5 11.5t45.5 31.5t27.5 48.5t13.5 61.5h116q-6 -55 -24.5 -104t-52 -85.5t-84.5 -58t-121 -21.5z" />
<glyph unicode="&#x116;" horiz-adv-x="1076" d="M443 1280l-59 -483h507l-19 -147h-506l-61 -498h629l-19 -152h-817l176 1433h816l-19 -153h-628zM840 1687q0 -26 -10.5 -48.5t-28 -40t-39.5 -27.5t-46 -10t-45.5 10t-38 27.5t-26.5 40t-10 48.5t10 49t27 40.5t38.5 28t45.5 10.5t46 -10t39.5 -27.5t27.5 -41t10 -49.5z " />
<glyph unicode="&#x117;" horiz-adv-x="957" d="M574 899q-63 0 -116 -26t-94 -71.5t-70 -107t-45 -132.5q154 19 247 43.5t143 53t66 61.5t16 69q0 18 -8 37.5t-25.5 35.5t-45.5 26.5t-68 10.5zM856 187q-51 -53 -100 -90.5t-99.5 -62.5t-106 -36.5t-119.5 -11.5q-87 0 -156 29t-117 82.5t-74 129.5t-26 170 q0 78 16.5 155.5t48 147.5t77 130t104 103.5t129 68.5t151.5 25q77 0 133 -22t92 -56t53.5 -75t17.5 -78q0 -66 -27 -121.5t-99 -100t-198 -77.5t-324 -53q0 -11 -0.5 -21.5t-0.5 -21.5q0 -134 58.5 -204.5t176.5 -70.5q48 0 85.5 10t67 24.5t52 32t41 32t34.5 24.5t32 10 q19 0 34 -17zM733 1331q0 -26 -10.5 -48.5t-28 -40t-40 -27.5t-46.5 -10q-23 0 -45 10t-38.5 27.5t-26.5 40t-10 48.5t10 49t27 40.5t39 28t45 10.5q24 0 46.5 -10t39.5 -27.5t27.5 -41t10.5 -49.5z" />
<glyph unicode="&#x118;" horiz-adv-x="1076" d="M443 1280l-59 -483h507l-19 -147h-506l-61 -498h629l-19 -152h-67q-21 -12 -43.5 -28.5t-40.5 -37.5t-30 -46t-12 -53q0 -32 19 -51t51 -19q20 0 34 3.5t23.5 8t15.5 8.5t11 4q12 0 16 -13l20 -66q-32 -23 -76.5 -37.5t-92.5 -14.5q-78 0 -119.5 35t-41.5 93 q0 63 42.5 117.5t111.5 96.5h-638l176 1433h816l-19 -153h-628z" />
<glyph unicode="&#x119;" horiz-adv-x="957" d="M574 899q-63 0 -116 -26t-94 -71.5t-70 -107t-45 -132.5q154 19 247 43.5t143 53t66 61.5t16 69q0 18 -8 37.5t-25.5 35.5t-45.5 26.5t-68 10.5zM626 -290q-32 -23 -76.5 -37.5t-92.5 -14.5q-78 0 -119.5 35t-41.5 93t36 109t96 91q-86 0 -154.5 29.5t-116.5 83 t-73.5 129t-25.5 169.5q0 78 16.5 155.5t48 147.5t77 130t104 103.5t129 68.5t151.5 25q77 0 133 -22t92 -56t53.5 -75t17.5 -78q0 -66 -27 -121.5t-99 -100t-198 -77.5t-324 -53q0 -11 -0.5 -21.5t-0.5 -21.5q0 -134 58.5 -204.5t176.5 -70.5q48 0 85.5 10t67 24.5t52 32 t41 32t34.5 24.5t32 10q19 0 34 -17l44 -55q-75 -77 -144.5 -122.5t-150.5 -64.5h1q-21 -12 -43.5 -28.5t-40.5 -37.5t-30 -46t-12 -53q0 -32 19 -51t51 -19q20 0 34 3.5t23.5 8t15.5 8.5t11 4q12 0 16 -13z" />
<glyph unicode="&#x11a;" horiz-adv-x="1076" d="M443 1280l-59 -483h507l-19 -147h-506l-61 -498h629l-19 -152h-817l176 1433h816l-19 -153h-628zM1027 1817l-250 -271h-152l-188 271h119q11 0 25.5 -3t25.5 -20l95 -151q2 -5 4 -9l4 -8l6 8t7 9l128 150q14 18 30 21t27 3h119z" />
<glyph unicode="&#x11b;" horiz-adv-x="957" d="M574 899q-63 0 -116 -26t-94 -71.5t-70 -107t-45 -132.5q154 19 247 43.5t143 53t66 61.5t16 69q0 18 -8 37.5t-25.5 35.5t-45.5 26.5t-68 10.5zM856 187q-51 -53 -100 -90.5t-99.5 -62.5t-106 -36.5t-119.5 -11.5q-87 0 -156 29t-117 82.5t-74 129.5t-26 170 q0 78 16.5 155.5t48 147.5t77 130t104 103.5t129 68.5t151.5 25q77 0 133 -22t92 -56t53.5 -75t17.5 -78q0 -66 -27 -121.5t-99 -100t-198 -77.5t-324 -53q0 -11 -0.5 -21.5t-0.5 -21.5q0 -134 58.5 -204.5t176.5 -70.5q48 0 85.5 10t67 24.5t52 32t41 32t34.5 24.5t32 10 q19 0 34 -17zM885 1433l-235 -264h-153l-176 264h114q11 0 20.5 -5t14.5 -10l103 -136q3 -5 6.5 -10t6.5 -10q5 5 9 10t9 10l133 136q7 5 17.5 10t20.5 5h110z" />
<glyph unicode="&#x11c;" horiz-adv-x="1361" d="M848 686h411l-68 -547q-54 -39 -111.5 -68t-121 -48.5t-134.5 -29t-153 -9.5q-130 0 -236 46.5t-181 130t-115.5 199.5t-40.5 254q0 185 57.5 338.5t159 264t241 171.5t304.5 61q84 0 151.5 -14t123 -39t100 -59t81.5 -74l-60 -78q-15 -21 -35.5 -26t-42.5 9 q-22 13 -48.5 33.5t-64.5 39t-91 32t-128 13.5q-123 0 -225.5 -47t-176 -134t-114 -210t-40.5 -274q0 -113 29.5 -203t83.5 -153t130 -96.5t169 -33.5q52 0 97 6t85 16.5t76 26t72 35.5l40 324h-200q-18 0 -28 10.5t-8 25.5zM1154 1546h-120q-11 0 -26 4.5t-28 24.5l-92 141 q-2 5 -4.5 8.5t-4.5 8.5q-3 -7 -12 -17l-124 -141q-18 -20 -33.5 -24.5t-26.5 -4.5h-116l251 271h147z" />
<glyph unicode="&#x11d;" horiz-adv-x="968" d="M439 457q54 0 95.5 23.5t70 62t43.5 86.5t15 97q0 88 -44.5 133t-122.5 45q-54 0 -95 -22t-69.5 -59t-43 -84t-14.5 -98q0 -90 43.5 -137t121.5 -47zM640 -25q0 27 -5 49.5t-13 42.5q-132 21 -228 15.5t-158.5 -29.5t-92.5 -62t-30 -82q0 -72 60.5 -110t171.5 -38 q66 0 120.5 17.5t93 46.5t60 68t21.5 82zM980 976l-7 -59q-5 -36 -40 -48l-127 -22q19 -52 19 -115q0 -50 -11.5 -90t-28.5 -74t-37 -64t-37 -59.5t-28.5 -61t-11.5 -68.5q0 -27 9.5 -51.5t24 -48t32 -47.5t32 -51t24 -58.5t9.5 -69.5q-1 -71 -34 -134.5t-94 -112.5 t-148 -77.5t-196 -28.5q-87 0 -158.5 18t-122 51t-78 79.5t-27.5 102.5q0 64 27 113t73 84.5t107 58.5t129.5 34t140.5 10.5t141 -10.5q-9 19 -14.5 39.5t-5.5 44.5q0 31 9.5 64t31.5 75q-38 -26 -85 -40.5t-107 -14.5q-58 0 -108.5 19t-88.5 56t-60 92.5t-22 129.5 q0 72 26.5 141.5t77.5 124t126 87.5t173 33q54 0 103 -13t88 -39h274zM856 1169h-110q-10 0 -19.5 4t-18.5 15l-99 132q-3 5 -6.5 9.5t-6.5 9.5q-5 -5 -9 -10t-8 -9l-130 -132q-19 -19 -42 -19h-114l235 264h152z" />
<glyph unicode="&#x11e;" horiz-adv-x="1361" d="M848 686h411l-68 -547q-54 -39 -111.5 -68t-121 -48.5t-134.5 -29t-153 -9.5q-130 0 -236 46.5t-181 130t-115.5 199.5t-40.5 254q0 185 57.5 338.5t159 264t241 171.5t304.5 61q84 0 151.5 -14t123 -39t100 -59t81.5 -74l-60 -78q-15 -21 -35.5 -26t-42.5 9 q-22 13 -48.5 33.5t-64.5 39t-91 32t-128 13.5q-123 0 -225.5 -47t-176 -134t-114 -210t-40.5 -274q0 -113 29.5 -203t83.5 -153t130 -96.5t169 -33.5q52 0 97 6t85 16.5t76 26t72 35.5l40 324h-200q-18 0 -28 10.5t-8 25.5zM856 1544q-131 0 -195.5 65t-49.5 200h126 q-4 -37 0.5 -65.5t19.5 -48.5t42 -30.5t69 -10.5q83 0 120.5 40.5t45.5 114.5h126q-14 -127 -93.5 -196t-210.5 -69z" />
<glyph unicode="&#x11f;" horiz-adv-x="968" d="M439 457q54 0 95.5 23.5t70 62t43.5 86.5t15 97q0 88 -44.5 133t-122.5 45q-54 0 -95 -22t-69.5 -59t-43 -84t-14.5 -98q0 -90 43.5 -137t121.5 -47zM640 -25q0 27 -5 49.5t-13 42.5q-132 21 -228 15.5t-158.5 -29.5t-92.5 -62t-30 -82q0 -72 60.5 -110t171.5 -38 q66 0 120.5 17.5t93 46.5t60 68t21.5 82zM980 976l-7 -59q-5 -36 -40 -48l-127 -22q19 -52 19 -115q0 -50 -11.5 -90t-28.5 -74t-37 -64t-37 -59.5t-28.5 -61t-11.5 -68.5q0 -27 9.5 -51.5t24 -48t32 -47.5t32 -51t24 -58.5t9.5 -69.5q-1 -71 -34 -134.5t-94 -112.5 t-148 -77.5t-196 -28.5q-87 0 -158.5 18t-122 51t-78 79.5t-27.5 102.5q0 64 27 113t73 84.5t107 58.5t129.5 34t140.5 10.5t141 -10.5q-9 19 -14.5 39.5t-5.5 44.5q0 31 9.5 64t31.5 75q-38 -26 -85 -40.5t-107 -14.5q-58 0 -108.5 19t-88.5 56t-60 92.5t-22 129.5 q0 72 26.5 141.5t77.5 124t126 87.5t173 33q54 0 103 -13t88 -39h274zM563 1164q-70 0 -116 21.5t-71.5 58t-33 85.5t-1.5 104h117q-4 -33 -1 -61.5t16.5 -48.5t38.5 -31.5t64 -11.5t66.5 11.5t45.5 31.5t27.5 48.5t13.5 61.5h116q-6 -55 -24.5 -104t-52 -85.5t-84.5 -58 t-121 -21.5z" />
<glyph unicode="&#x120;" horiz-adv-x="1361" d="M848 686h411l-68 -547q-54 -39 -111.5 -68t-121 -48.5t-134.5 -29t-153 -9.5q-130 0 -236 46.5t-181 130t-115.5 199.5t-40.5 254q0 185 57.5 338.5t159 264t241 171.5t304.5 61q84 0 151.5 -14t123 -39t100 -59t81.5 -74l-60 -78q-15 -21 -35.5 -26t-42.5 9 q-22 13 -48.5 33.5t-64.5 39t-91 32t-128 13.5q-123 0 -225.5 -47t-176 -134t-114 -210t-40.5 -274q0 -113 29.5 -203t83.5 -153t130 -96.5t169 -33.5q52 0 97 6t85 16.5t76 26t72 35.5l40 324h-200q-18 0 -28 10.5t-8 25.5zM1006 1687q0 -26 -10.5 -48.5t-28 -40 t-39.5 -27.5t-46 -10t-45.5 10t-38 27.5t-26.5 40t-10 48.5t10 49t27 40.5t38.5 28t45.5 10.5t46 -10t39.5 -27.5t27.5 -41t10 -49.5z" />
<glyph unicode="&#x121;" horiz-adv-x="968" d="M439 457q54 0 95.5 23.5t70 62t43.5 86.5t15 97q0 88 -44.5 133t-122.5 45q-54 0 -95 -22t-69.5 -59t-43 -84t-14.5 -98q0 -90 43.5 -137t121.5 -47zM640 -25q0 27 -5 49.5t-13 42.5q-132 21 -228 15.5t-158.5 -29.5t-92.5 -62t-30 -82q0 -72 60.5 -110t171.5 -38 q66 0 120.5 17.5t93 46.5t60 68t21.5 82zM980 976l-7 -59q-5 -36 -40 -48l-127 -22q19 -52 19 -115q0 -50 -11.5 -90t-28.5 -74t-37 -64t-37 -59.5t-28.5 -61t-11.5 -68.5q0 -27 9.5 -51.5t24 -48t32 -47.5t32 -51t24 -58.5t9.5 -69.5q-1 -71 -34 -134.5t-94 -112.5 t-148 -77.5t-196 -28.5q-87 0 -158.5 18t-122 51t-78 79.5t-27.5 102.5q0 64 27 113t73 84.5t107 58.5t129.5 34t140.5 10.5t141 -10.5q-9 19 -14.5 39.5t-5.5 44.5q0 31 9.5 64t31.5 75q-38 -26 -85 -40.5t-107 -14.5q-58 0 -108.5 19t-88.5 56t-60 92.5t-22 129.5 q0 72 26.5 141.5t77.5 124t126 87.5t173 33q54 0 103 -13t88 -39h274zM706 1331q0 -26 -10.5 -48.5t-28 -40t-40 -27.5t-46.5 -10q-23 0 -45 10t-38.5 27.5t-26.5 40t-10 48.5t10 49t27 40.5t39 28t45 10.5q24 0 46.5 -10t39.5 -27.5t27.5 -41t10.5 -49.5z" />
<glyph unicode="&#x122;" horiz-adv-x="1361" d="M848 686h411l-68 -547q-54 -39 -111.5 -68t-121 -48.5t-134.5 -29t-153 -9.5q-130 0 -236 46.5t-181 130t-115.5 199.5t-40.5 254q0 185 57.5 338.5t159 264t241 171.5t304.5 61q84 0 151.5 -14t123 -39t100 -59t81.5 -74l-60 -78q-15 -21 -35.5 -26t-42.5 9 q-22 13 -48.5 33.5t-64.5 39t-91 32t-128 13.5q-123 0 -225.5 -47t-176 -134t-114 -210t-40.5 -274q0 -113 29.5 -203t83.5 -153t130 -96.5t169 -33.5q52 0 97 6t85 16.5t76 26t72 35.5l40 324h-200q-18 0 -28 10.5t-8 25.5zM729 -96q18 0 23.5 -8t5.5 -18q0 -11 -4 -28 t-14 -44t-27.5 -66t-43.5 -93q-11 -22 -27 -29t-40 -7h-62l81 293h108z" />
<glyph unicode="&#x123;" horiz-adv-x="968" d="M439 457q54 0 95.5 23.5t70 62t43.5 86.5t15 97q0 88 -44.5 133t-122.5 45q-54 0 -95 -22t-69.5 -59t-43 -84t-14.5 -98q0 -90 43.5 -137t121.5 -47zM640 -25q0 27 -5 49.5t-13 42.5q-132 21 -228 15.5t-158.5 -29.5t-92.5 -62t-30 -82q0 -72 60.5 -110t171.5 -38 q66 0 120.5 17.5t93 46.5t60 68t21.5 82zM980 976l-7 -59q-5 -36 -40 -48l-127 -22q19 -52 19 -115q0 -50 -11.5 -90t-28.5 -74t-37 -64t-37 -59.5t-28.5 -61t-11.5 -68.5q0 -27 9.5 -51.5t24 -48t32 -47.5t32 -51t24 -58.5t9.5 -69.5q-1 -71 -34 -134.5t-94 -112.5 t-148 -77.5t-196 -28.5q-87 0 -158.5 18t-122 51t-78 79.5t-27.5 102.5q0 64 27 113t73 84.5t107 58.5t129.5 34t140.5 10.5t141 -10.5q-9 19 -14.5 39.5t-5.5 44.5q0 31 9.5 64t31.5 75q-38 -26 -85 -40.5t-107 -14.5q-58 0 -108.5 19t-88.5 56t-60 92.5t-22 129.5 q0 72 26.5 141.5t77.5 124t126 87.5t173 33q54 0 103 -13t88 -39h274zM627 1158h-146l119 282h104z" />
<glyph unicode="&#x124;" horiz-adv-x="1420" d="M1350 1433l-177 -1433h-188l80 654h-699l-80 -654h-188l176 1433h188l-79 -643h699l79 643h189zM1129 1546h-120q-11 0 -26 4.5t-28 24.5l-92 141q-2 5 -4.5 8.5t-4.5 8.5q-3 -7 -12 -17l-124 -141q-18 -20 -33.5 -24.5t-26.5 -4.5h-116l251 271h147z" />
<glyph unicode="&#x125;" horiz-adv-x="1059" d="M207 1559q-9 -6 -22.5 -9.5t-25.5 -3.5h-130l245 209h170l194 -209h-131q-11 0 -23.5 4t-20.5 9l-104 97q-4 3 -10 9q-3 -2 -6.5 -4.5t-6.5 -4.5zM332 789q79 118 175.5 178.5t196.5 60.5q65 0 114 -25.5t79.5 -74.5t41.5 -120.5t0 -162.5l-76 -645h-178l76 645 q15 120 -14 178t-108 58q-45 0 -93 -24.5t-92.5 -69.5t-84 -109t-68.5 -143l-65 -535h-177l178 1473h178z" />
<glyph unicode="&#x126;" horiz-adv-x="1440" d="M1126 1038h-699l-30 -248h699zM1467 1038h-152l-128 -1038h-188l80 654h-699l-80 -654h-188l127 1038h-144l13 112h145l35 283h188l-35 -283h699l35 283h189l-35 -283h151z" />
<glyph unicode="&#x127;" horiz-adv-x="1059" d="M329 765q79 119 175.5 180t197.5 61q65 0 114 -25.5t79.5 -74t41.5 -120t0 -162.5l-74 -624h-178l74 624q15 119 -14 177t-108 58q-46 0 -93.5 -24.5t-92.5 -70t-84.5 -110t-68.5 -144.5l-62 -510h-177l138 1143h-154l15 113h153l26 217h178l-26 -217h247l-10 -64 q-8 -49 -61 -49h-190z" />
<glyph unicode="&#x128;" horiz-adv-x="533" d="M286 0h-188l175 1433h188zM516 1663q21 0 38 8.5t29.5 23t20 32.5t9.5 36h101q-5 -43 -20.5 -82.5t-40 -70t-58 -48.5t-73.5 -18q-41 0 -72 16.5t-57 36t-49 36t-48 16.5q-21 0 -38 -9t-29.5 -23.5t-20 -32.5t-9.5 -36h-103q5 43 21 83t41 70.5t58 48.5t73 18 q42 0 73.5 -16.5t57 -36t48.5 -36t48 -16.5z" />
<glyph unicode="&#x129;" horiz-adv-x="460" d="M366 1013l-122 -1013h-175l122 1013h175zM418 1325q67 0 79 86h100q-5 -47 -21 -86.5t-41 -67.5t-56.5 -43.5t-68.5 -15.5q-32 0 -58.5 14.5t-49.5 31.5t-43.5 31.5t-41.5 14.5q-67 0 -78 -88h-102q5 48 21.5 87.5t41.5 68t57 44t68 15.5q33 0 59 -14.5t49 -31.5 t43.5 -31.5t41.5 -14.5z" />
<glyph unicode="&#x12a;" horiz-adv-x="533" d="M286 0h-188l175 1433h188zM143 1694h512l-12 -105h-513z" />
<glyph unicode="&#x12b;" horiz-adv-x="460" d="M366 1013l-122 -1013h-175l122 1013h175zM61 1348h528l-13 -117h-529z" />
<glyph unicode="&#x12c;" horiz-adv-x="533" d="M286 0h-188l175 1433h188zM392 1544q-131 0 -195.5 65t-49.5 200h126q-4 -37 0.5 -65.5t19.5 -48.5t42 -30.5t69 -10.5q83 0 120.5 40.5t45.5 114.5h126q-14 -127 -93.5 -196t-210.5 -69z" />
<glyph unicode="&#x12d;" horiz-adv-x="460" d="M366 1013l-122 -1013h-175l122 1013h175zM310 1164q-70 0 -116 21.5t-71.5 58t-33 85.5t-1.5 104h117q-4 -33 -1 -61.5t16.5 -48.5t38.5 -31.5t64 -11.5t66.5 11.5t45.5 31.5t27.5 48.5t13.5 61.5h116q-6 -55 -24.5 -104t-52 -85.5t-84.5 -58t-121 -21.5z" />
<glyph unicode="&#x12e;" horiz-adv-x="533" d="M257 0q-21 -12 -43.5 -28.5t-40.5 -37.5t-30 -46t-12 -53q0 -32 19 -51t51 -19q20 0 34 3.5t23.5 8t15.5 8.5t11 4q12 0 16 -13l20 -66q-32 -23 -76.5 -37.5t-92.5 -14.5q-78 0 -119.5 35t-41.5 93q0 63 42.5 117.5t111.5 96.5h-47l175 1433h188l-175 -1433h-29z" />
<glyph unicode="&#x12f;" horiz-adv-x="460" d="M219 0q-21 -12 -43.5 -28.5t-40.5 -37.5t-30 -46t-12 -53q0 -32 19 -51t51 -19q20 0 34 3.5t23.5 8t15.5 8.5t11 4q12 0 16 -13l20 -66q-32 -23 -76.5 -37.5t-92.5 -14.5q-78 0 -119.5 35t-41.5 93q0 63 42.5 117.5t111.5 96.5h-38l122 1013h175l-122 -1013h-25z M310 1459q24 0 46.5 -10t39.5 -27.5t27.5 -41t10.5 -49.5t-10.5 -48.5t-28 -40t-40 -27.5t-46.5 -10q-23 0 -45 10t-38.5 27.5t-26.5 40t-10 48.5t10 49t27 40.5t39 28t45 10.5z" />
<glyph unicode="&#x130;" horiz-adv-x="533" d="M286 0h-188l175 1433h188zM521 1687q0 -26 -10.5 -48.5t-28 -40t-39.5 -27.5t-46 -10t-45.5 10t-38 27.5t-26.5 40t-10 48.5t10 49t27 40.5t38.5 28t45.5 10.5t46 -10t39.5 -27.5t27.5 -41t10 -49.5z" />
<glyph unicode="&#x131;" horiz-adv-x="460" d="M366 1013l-122 -1013h-175l122 1013h175z" />
<glyph unicode="&#x132;" horiz-adv-x="1367" d="M286 0h-188l175 1433h188zM1191 475q-15 -119 -52.5 -210.5t-97 -154t-139 -94.5t-178.5 -32q-54 0 -100.5 7t-93.5 21l13 109q3 15 12 26t29 11q11 0 23.5 -2.5t29 -6t38 -6t50.5 -2.5q52 0 98 17t82.5 56t62 102t36.5 155l118 962h187z" />
<glyph unicode="&#x133;" horiz-adv-x="926" d="M365 1013l-122 -1013h-175l122 1013h175zM433 1331q0 -26 -10.5 -48.5t-28 -40t-40 -27.5t-46.5 -10q-23 0 -45 10t-38.5 27.5t-26.5 40t-10 48.5t10 49t27 40.5t39 28t45 10.5q24 0 46.5 -10t39.5 -27.5t27.5 -41t10.5 -49.5zM834 1013l-134 -1088q-7 -61 -30 -113.5 t-60.5 -91.5t-90.5 -61.5t-120 -22.5q-35 0 -59.5 5t-48.5 15l18 96q3 9 7.5 13.5t12 5.5t19 0.5t28.5 -0.5q71 0 105 36.5t45 117.5l133 1088h175zM897 1331q0 -26 -10.5 -48.5t-28 -40t-39.5 -27.5t-46 -10t-45.5 10t-38 27.5t-26.5 40t-10 48.5t10 49t27 40.5t38.5 28 t45.5 10.5t46 -10t39.5 -27.5t27.5 -41t10 -49.5z" />
<glyph unicode="&#x134;" horiz-adv-x="801" d="M625 475q-15 -119 -52.5 -210.5t-97 -154t-139 -94.5t-178.5 -32q-54 0 -100.5 7t-93.5 21l13 109q3 15 12 26t29 11q11 0 23.5 -2.5t29 -6t38 -6t50.5 -2.5q52 0 98 17t82.5 56t62 102t36.5 155l118 962h187zM970 1546h-120q-11 0 -26 4.5t-28 24.5l-92 141 q-2 5 -4.5 8.5t-4.5 8.5q-3 -7 -12 -17l-124 -141q-18 -20 -33.5 -24.5t-26.5 -4.5h-116l251 271h147z" />
<glyph unicode="&#x135;" horiz-adv-x="458" d="M366 1013l-134 -1088q-7 -61 -30 -113.5t-60.5 -91.5t-90.5 -61.5t-120 -22.5q-35 0 -59.5 5t-48.5 15l18 96q3 9 7.5 13.5t12 5.5t19 0.5t28.5 -0.5q71 0 105 36.5t45 117.5l133 1088h175zM588 1169h-110q-10 0 -19.5 4t-18.5 15l-99 132q-3 5 -6.5 9.5t-6.5 9.5 q-5 -5 -9 -10t-8 -9l-130 -132q-19 -19 -42 -19h-114l235 264h152z" />
<glyph unicode="&#x136;" horiz-adv-x="1236" d="M382 802h66q35 0 57.5 9.5t43.5 32.5l496 544q21 27 44 36t53 9h159l-572 -620q-40 -46 -78 -63q24 -10 42.5 -26.5t33.5 -44.5l432 -679h-161q-37 0 -52 10.5t-26 29.5l-376 572q-15 25 -35 35.5t-63 10.5h-81l-81 -658h-186l175 1433h187zM588 -96q18 0 23.5 -8 t5.5 -18q0 -11 -4 -28t-14 -44t-27.5 -66t-43.5 -93q-11 -22 -27 -29t-40 -7h-62l81 293h108z" />
<glyph unicode="&#x137;" horiz-adv-x="948" d="M413 1473l-106 -867h30q21 0 34 5.5t28 22.5l336 343q14 17 30 26.5t39 9.5h158l-391 -397q-30 -35 -61 -53q16 -12 27.5 -27.5t21.5 -35.5l304 -500h-153q-22 0 -36.5 7.5t-23.5 27.5l-258 415q-12 21 -25 27.5t-41 6.5h-34l-59 -484h-176l181 1473h175zM455 -96 q18 0 23.5 -8t5.5 -18q0 -11 -4 -28t-14 -44t-27.5 -66t-43.5 -93q-11 -22 -27 -29t-40 -7h-62l81 293h108z" />
<glyph unicode="&#x138;" horiz-adv-x="947" d="M358 1013l-50 -407h30q17 0 31 5t31 23l335 343q14 17 30 26.5t39 9.5h157l-388 -397q-29 -35 -61 -54q15 -12 26 -27.5t21 -34.5l304 -500h-152q-22 0 -36.5 7.5t-23.5 27.5l-259 415q-12 21 -25 27.5t-41 6.5h-33l-60 -484h-176l126 1013h175z" />
<glyph unicode="&#x139;" horiz-adv-x="951" d="M870 158l-19 -158h-753l176 1433h187l-157 -1275h566zM797 1852l-331 -286q-17 -14 -29.5 -17t-32.5 -3h-116l244 274q18 22 34 27t46 5h185z" />
<glyph unicode="&#x13a;" horiz-adv-x="450" d="M64 0l179 1473h175l-179 -1473h-175zM741 1852l-331 -286q-17 -14 -29.5 -17t-32.5 -3h-116l244 274q18 22 34 27t46 5h185z" />
<glyph unicode="&#x13b;" horiz-adv-x="951" d="M870 158l-19 -158h-753l176 1433h187l-157 -1275h566zM519 -96q18 0 23.5 -8t5.5 -18q0 -11 -4 -28t-14 -44t-27.5 -66t-43.5 -93q-11 -22 -27 -29t-40 -7h-62l81 293h108z" />
<glyph unicode="&#x13c;" horiz-adv-x="450" d="M64 0l179 1473h175l-179 -1473h-175zM180 -96q18 0 23.5 -8t5.5 -18q0 -11 -4 -28t-14 -44t-27.5 -66t-43.5 -93q-11 -22 -27 -29t-40 -7h-62l81 293h108z" />
<glyph unicode="&#x13d;" horiz-adv-x="951" d="M853 1473q17 0 22.5 -7.5t5.5 -17.5t-3.5 -25t-15 -43.5t-33 -75.5t-57.5 -120q-12 -22 -27.5 -28.5t-38.5 -6.5h-60l93 324h114zM870 158l-19 -158h-753l176 1433h187l-157 -1275h566z" />
<glyph unicode="&#x13e;" horiz-adv-x="450" d="M667 1473q17 0 22.5 -7.5t5.5 -17.5t-4 -25t-15.5 -43.5t-33 -75.5t-57.5 -120q-11 -22 -26.5 -28.5t-38.5 -6.5h-44l93 324h98zM64 0l179 1473h175l-179 -1473h-175z" />
<glyph unicode="&#x13f;" horiz-adv-x="972" d="M870 158l-19 -158h-753l176 1433h187l-157 -1275h566zM558 775q0 26 9.5 49t26 40t39.5 27t49 10t49 -10t40 -27t27 -40t10 -49q0 -27 -10 -49.5t-27 -39.5t-40 -26.5t-49 -9.5t-49 9.5t-39.5 26.5t-26 39.5t-9.5 49.5z" />
<glyph unicode="&#x140;" horiz-adv-x="731" d="M64 0l179 1473h175l-179 -1473h-175zM484 753q0 26 9.5 49t26 40t39.5 27t49 10t49 -10t40 -27t27 -40t10 -49q0 -27 -10 -49.5t-27 -39.5t-40 -26.5t-49 -9.5t-49 9.5t-39.5 26.5t-26 39.5t-9.5 49.5z" />
<glyph unicode="&#x141;" horiz-adv-x="983" d="M901 158l-19 -158h-753l68 556l-189 -95l16 128q2 27 28 39l165 86l88 719h187l-77 -628l367 192l-15 -125q-5 -31 -30 -42l-342 -182l-60 -490h566z" />
<glyph unicode="&#x142;" horiz-adv-x="577" d="M584 976v-102q0 -33 -28 -44l-152 -68l-93 -762h-175l84 695l-170 -74v105q0 27 25 40l163 73l77 634h175l-69 -567z" />
<glyph unicode="&#x143;" horiz-adv-x="1420" d="M1350 1433l-177 -1433h-93q-23 0 -37 8.5t-27 26.5l-618 1096q-2 -20 -3 -37.5t-3 -33.5l-129 -1060h-165l176 1433h97q25 0 36 -6t23 -26l619 -1095q2 23 3.5 44t3.5 39l129 1044h165zM1211 1851l-331 -286q-17 -14 -29.5 -17t-32.5 -3h-116l244 274q18 22 34 27t46 5 h185z" />
<glyph unicode="&#x144;" horiz-adv-x="1060" d="M314 757q81 134 183 202.5t210 68.5q64 0 112.5 -25.5t79 -74.5t41.5 -120.5t0 -162.5l-76 -645h-177l76 645q14 120 -15 177.5t-107 57.5q-48 0 -97.5 -26t-95.5 -74t-85.5 -115.5t-67.5 -150.5l-58 -514h-178l122 1014h88q60 0 60 -60zM881 1449l-244 -258 q-14 -15 -27 -21.5t-32 -6.5h-98l163 242q15 23 31.5 33.5t46.5 10.5h160z" />
<glyph unicode="&#x145;" horiz-adv-x="1420" d="M1350 1433l-177 -1433h-93q-23 0 -37 8.5t-27 26.5l-618 1096q-2 -20 -3 -37.5t-3 -33.5l-129 -1060h-165l176 1433h97q25 0 36 -6t23 -26l619 -1095q2 23 3.5 44t3.5 39l129 1044h165zM682 -96q18 0 23.5 -8t5.5 -18q0 -11 -4 -28t-14 -44t-27.5 -66t-43.5 -93 q-11 -22 -27 -29t-40 -7h-62l81 293h108z" />
<glyph unicode="&#x146;" horiz-adv-x="1060" d="M314 757q81 134 183 202.5t210 68.5q64 0 112.5 -25.5t79 -74.5t41.5 -120.5t0 -162.5l-76 -645h-177l76 645q14 120 -15 177.5t-107 57.5q-48 0 -97.5 -26t-95.5 -74t-85.5 -115.5t-67.5 -150.5l-58 -514h-178l122 1014h88q60 0 60 -60zM494 -96q18 0 23.5 -8t5.5 -18 q0 -11 -4 -28t-14 -44t-27.5 -66t-43.5 -93q-11 -22 -27 -29t-40 -7h-62l81 293h108z" />
<glyph unicode="&#x147;" horiz-adv-x="1420" d="M1350 1433l-177 -1433h-93q-23 0 -37 8.5t-27 26.5l-618 1096q-2 -20 -3 -37.5t-3 -33.5l-129 -1060h-165l176 1433h97q25 0 36 -6t23 -26l619 -1095q2 23 3.5 44t3.5 39l129 1044h165zM1161 1816l-250 -271h-152l-188 271h119q11 0 25.5 -3t25.5 -20l95 -151q2 -5 4 -9 l4 -8l6 8t7 9l128 150q14 18 30 21t27 3h119z" />
<glyph unicode="&#x148;" horiz-adv-x="1060" d="M314 757q81 134 183 202.5t210 68.5q64 0 112.5 -25.5t79 -74.5t41.5 -120.5t0 -162.5l-76 -645h-177l76 645q14 120 -15 177.5t-107 57.5q-48 0 -97.5 -26t-95.5 -74t-85.5 -115.5t-67.5 -150.5l-58 -514h-178l122 1014h88q60 0 60 -60zM893 1433l-235 -264h-153 l-176 264h114q11 0 20.5 -5t14.5 -10l103 -136q3 -5 6.5 -10t6.5 -10q5 5 9 10t9 10l133 136q7 5 17.5 10t20.5 5h110z" />
<glyph unicode="&#x149;" horiz-adv-x="1146" d="M287 1503q31 -69 32.5 -137.5t-22 -134t-69 -126t-109.5 -112.5l-47 31q-11 8 -11 22q0 8 4 15t15 19q22 25 44.5 60.5t35.5 78.5t12.5 91.5t-23.5 99.5q-7 16 0.5 29.5t27.5 21.5zM399 757q81 134 183 202.5t210 68.5q64 0 112.5 -25.5t79 -74.5t41.5 -120.5t0 -162.5 l-76 -645h-177l76 645q14 120 -15 177.5t-107 57.5q-48 0 -97.5 -26t-95.5 -74t-85.5 -115.5t-67.5 -150.5l-58 -514h-178l122 1014h88q60 0 60 -60z" />
<glyph unicode="&#x14a;" horiz-adv-x="1420" d="M1178 46l-5 -42q-9 -81 -34.5 -148t-68.5 -114.5t-103.5 -73.5t-141.5 -26q-45 0 -80 8.5t-74 26.5l28 75q8 22 19.5 28.5t23.5 6.5t30.5 -7.5t52.5 -7.5q76 0 122 52.5t59 160.5l7 55l-617 1082q-1 -23 -3 -45.5t-4 -42.5l-127 -1034h-164l176 1432h96q25 0 36.5 -6 t24.5 -26l621 -1089q1 25 2.5 48.5t4.5 44.5l126 1028h164l-170 -1386h-1z" />
<glyph unicode="&#x14b;" horiz-adv-x="1060" d="M314 757q81 134 183 202.5t210 68.5q64 0 112.5 -25.5t79 -74.5t41.5 -120.5t0 -162.5l-66 -570l-10 -78q-10 -83 -36 -150t-69.5 -114t-105 -73t-143.5 -26q-44 0 -74 5t-68 18l15 84q5 22 12.5 30.5t30.5 8.5q11 0 29.5 -5.5t53.5 -5.5q75 0 118.5 50t56.5 158l10 81 l69 587q14 120 -15 177.5t-107 57.5q-48 0 -97.5 -26t-95.5 -74t-85.5 -115.5t-67.5 -150.5l-58 -514h-178l122 1014h88q61 0 60 -60z" />
<glyph unicode="&#x14c;" horiz-adv-x="1491" d="M1420 818q0 -183 -56.5 -336t-157 -263.5t-238 -172t-299.5 -61.5q-132 0 -237.5 47t-180 130.5t-114 198.5t-39.5 252q0 183 57 336.5t158 264.5t238.5 173t298.5 62q132 0 237.5 -47.5t179.5 -131.5t113.5 -199.5t39.5 -252.5zM1228 814q0 109 -28 197.5t-79.5 150.5 t-126 96t-167.5 34q-118 0 -216.5 -47.5t-170 -135.5t-111 -212.5t-39.5 -278.5q0 -109 27.5 -197t79.5 -150t126 -95.5t167 -33.5q119 0 218 47t170 134.5t110.5 212t39.5 278.5zM628 1694h512l-12 -105h-513z" />
<glyph unicode="&#x14d;" horiz-adv-x="1038" d="M453 125q73 0 132.5 40t102 106.5t65.5 153.5t23 182q0 140 -55.5 210.5t-159.5 70.5q-74 0 -133.5 -39.5t-101.5 -105.5t-65 -153t-23 -182q0 -140 55 -211.5t160 -71.5zM436 -14q-83 0 -152 28.5t-119 82.5t-78 132t-28 178q0 128 40 241t110 197.5t164.5 133.5 t203.5 49q83 0 152 -28.5t119 -82.5t78 -132t28 -177q0 -127 -40 -240t-109.5 -198t-164.5 -134.5t-204 -49.5zM369 1348h528l-13 -117h-529z" />
<glyph unicode="&#x14e;" horiz-adv-x="1491" d="M1420 818q0 -183 -56.5 -336t-157 -263.5t-238 -172t-299.5 -61.5q-132 0 -237.5 47t-180 130.5t-114 198.5t-39.5 252q0 183 57 336.5t158 264.5t238.5 173t298.5 62q132 0 237.5 -47.5t179.5 -131.5t113.5 -199.5t39.5 -252.5zM1228 814q0 109 -28 197.5t-79.5 150.5 t-126 96t-167.5 34q-118 0 -216.5 -47.5t-170 -135.5t-111 -212.5t-39.5 -278.5q0 -109 27.5 -197t79.5 -150t126 -95.5t167 -33.5q119 0 218 47t170 134.5t110.5 212t39.5 278.5zM871 1544q-131 0 -195.5 65t-49.5 200h126q-4 -37 0.5 -65.5t19.5 -48.5t42 -30.5t69 -10.5 q83 0 120.5 40.5t45.5 114.5h126q-14 -127 -93.5 -196t-210.5 -69z" />
<glyph unicode="&#x14f;" horiz-adv-x="1038" d="M453 125q73 0 132.5 40t102 106.5t65.5 153.5t23 182q0 140 -55.5 210.5t-159.5 70.5q-74 0 -133.5 -39.5t-101.5 -105.5t-65 -153t-23 -182q0 -140 55 -211.5t160 -71.5zM436 -14q-83 0 -152 28.5t-119 82.5t-78 132t-28 178q0 128 40 241t110 197.5t164.5 133.5 t203.5 49q83 0 152 -28.5t119 -82.5t78 -132t28 -177q0 -127 -40 -240t-109.5 -198t-164.5 -134.5t-204 -49.5zM612 1164q-70 0 -116 21.5t-71.5 58t-33 85.5t-1.5 104h117q-4 -33 -1 -61.5t16.5 -48.5t38.5 -31.5t64 -11.5t66.5 11.5t45.5 31.5t27.5 48.5t13.5 61.5h116 q-6 -55 -24.5 -104t-52 -85.5t-84.5 -58t-121 -21.5z" />
<glyph unicode="&#x150;" horiz-adv-x="1491" d="M1420 818q0 -183 -56.5 -336t-157 -263.5t-238 -172t-299.5 -61.5q-132 0 -237.5 47t-180 130.5t-114 198.5t-39.5 252q0 183 57 336.5t158 264.5t238.5 173t298.5 62q132 0 237.5 -47.5t179.5 -131.5t113.5 -199.5t39.5 -252.5zM1228 814q0 109 -28 197.5t-79.5 150.5 t-126 96t-167.5 34q-118 0 -216.5 -47.5t-170 -135.5t-111 -212.5t-39.5 -278.5q0 -109 27.5 -197t79.5 -150t126 -95.5t167 -33.5q119 0 218 47t170 134.5t110.5 212t39.5 278.5zM973 1818l-217 -245q-15 -14 -27.5 -20.5t-32.5 -6.5h-78l162 228q14 21 34.5 32.5 t50.5 11.5h108zM1315 1818l-257 -245q-16 -14 -30.5 -20.5t-33.5 -6.5h-89l197 228q18 21 38.5 32.5t50.5 11.5h124z" />
<glyph unicode="&#x151;" horiz-adv-x="1038" d="M453 125q73 0 132.5 40t102 106.5t65.5 153.5t23 182q0 140 -55.5 210.5t-159.5 70.5q-74 0 -133.5 -39.5t-101.5 -105.5t-65 -153t-23 -182q0 -140 55 -211.5t160 -71.5zM436 -14q-83 0 -152 28.5t-119 82.5t-78 132t-28 178q0 128 40 241t110 197.5t164.5 133.5 t203.5 49q83 0 152 -28.5t119 -82.5t78 -132t28 -177q0 -127 -40 -240t-109.5 -198t-164.5 -134.5t-204 -49.5zM725 1449l-212 -258q-13 -16 -26.5 -22t-33.5 -6h-68l155 242q14 23 30 33.5t46 10.5h109zM1014 1449l-252 -258q-14 -15 -27.5 -21.5t-32.5 -6.5h-78l192 242 q17 22 32 33t46 11h120z" />
<glyph unicode="&#x152;" horiz-adv-x="2019" d="M644 137q109 0 199.5 49t156 139t101.5 216.5t36 282.5q0 106 -23.5 193.5t-68.5 149.5t-110 96t-148 34q-109 0 -200 -49.5t-156.5 -140t-102 -217.5t-36.5 -282q0 -107 24 -193.5t69 -148.5t110.5 -95.5t148.5 -33.5zM1389 1280l-59 -484h504l-17 -147h-505l-60 -497 h624l-19 -152h-791l28 227q-90 -115 -213.5 -178t-273.5 -63q-118 0 -212 46t-159.5 127.5t-100.5 195t-35 248.5q0 185 52 340t144 267.5t217.5 175.5t271.5 63q151 0 258.5 -74t166.5 -201l32 259h791l-18 -153h-626z" />
<glyph unicode="&#x153;" horiz-adv-x="1609" d="M425 121q78 0 137 35t100.5 98t65 151t30.5 194q4 67 -5 121t-32 92.5t-61 59.5t-91 21q-78 0 -140.5 -38t-106.5 -108t-67.5 -168t-23.5 -219q0 -47 10 -90t33 -76t60 -53t91 -20zM1212 902q-59 0 -110 -23.5t-91 -67.5t-67.5 -107.5t-39.5 -144.5q145 18 236 43t143 54 t71 61.5t19 65.5q0 24 -9.5 45.5t-29.5 38t-50 26t-72 9.5zM895 436q0 -155 60.5 -232.5t169.5 -77.5q48 0 85.5 10t67 24.5t52 32t41.5 32t34.5 24.5t31.5 10q19 0 34 -17l44 -55q-50 -52 -99 -90t-100 -62.5t-106.5 -36.5t-119.5 -12q-104 0 -184.5 58t-118.5 172 q-69 -109 -172 -169.5t-233 -60.5q-81 0 -142 29.5t-101.5 80t-61 116.5t-20.5 138q0 164 42.5 290.5t115.5 213t168.5 131t202.5 44.5t179 -51t107 -142q63 91 155 142t212 51q65 0 117.5 -17.5t89 -49t56.5 -76t20 -97.5q0 -41 -11.5 -79t-39.5 -71.5t-74 -62.5 t-116 -53.5t-165 -43t-221 -31.5v-12z" />
<glyph unicode="&#x154;" horiz-adv-x="1167" d="M558 737q85 0 150 24t109.5 67.5t67 103t22.5 130.5q0 109 -68.5 166.5t-205.5 57.5h-190l-68 -549h183zM650 1433q114 0 197.5 -24t138 -68.5t81 -108t26.5 -141.5q0 -87 -26 -162t-75 -134t-118 -100.5t-156 -61.5q32 -22 53 -61l309 -572h-166q-51 0 -70 40l-270 516 q-13 25 -30 35t-54 10h-132l-74 -601h-186l175 1433h377zM1058 1852l-331 -286q-17 -14 -29.5 -17t-32.5 -3h-116l244 274q18 22 34 27t46 5h185z" />
<glyph unicode="&#x155;" horiz-adv-x="684" d="M313 731q40 85 86.5 147.5t97.5 98t105 43t110 -16.5l-32 -171q-130 52 -229.5 -38t-161.5 -325l-56 -469h-174l122 1014h88q61 0 61 -60zM763 1449l-244 -258q-14 -15 -27 -21.5t-32 -6.5h-98l163 242q15 23 31.5 33.5t46.5 10.5h160z" />
<glyph unicode="&#x156;" horiz-adv-x="1167" d="M558 737q85 0 150 24t109.5 67.5t67 103t22.5 130.5q0 109 -68.5 166.5t-205.5 57.5h-190l-68 -549h183zM650 1433q114 0 197.5 -24t138 -68.5t81 -108t26.5 -141.5q0 -87 -26 -162t-75 -134t-118 -100.5t-156 -61.5q32 -22 53 -61l309 -572h-166q-51 0 -70 40l-270 516 q-13 25 -30 35t-54 10h-132l-74 -601h-186l175 1433h377zM590 -96q18 0 23.5 -8t5.5 -18q0 -11 -4 -28t-14 -44t-27.5 -66t-43.5 -93q-11 -22 -27 -29t-40 -7h-62l81 293h108z" />
<glyph unicode="&#x157;" horiz-adv-x="684" d="M313 731q40 85 86.5 147.5t97.5 98t105 43t110 -16.5l-32 -171q-130 52 -229.5 -38t-161.5 -325l-56 -469h-174l122 1014h88q61 0 61 -60zM175 -96q18 0 23.5 -8t5.5 -18q0 -11 -4 -28t-14 -44t-27.5 -66t-43.5 -93q-11 -22 -27 -29t-40 -7h-62l81 293h108z" />
<glyph unicode="&#x158;" horiz-adv-x="1167" d="M558 737q85 0 150 24t109.5 67.5t67 103t22.5 130.5q0 109 -68.5 166.5t-205.5 57.5h-190l-68 -549h183zM650 1433q114 0 197.5 -24t138 -68.5t81 -108t26.5 -141.5q0 -87 -26 -162t-75 -134t-118 -100.5t-156 -61.5q32 -22 53 -61l309 -572h-166q-51 0 -70 40l-270 516 q-13 25 -30 35t-54 10h-132l-74 -601h-186l175 1433h377zM1003 1817l-250 -271h-152l-188 271h119q11 0 25.5 -3t25.5 -20l95 -151q2 -5 4 -9l4 -8l6 8t7 9l128 150q14 18 30 21t27 3h119z" />
<glyph unicode="&#x159;" horiz-adv-x="684" d="M313 731q40 85 86.5 147.5t97.5 98t105 43t110 -16.5l-32 -171q-130 52 -229.5 -38t-161.5 -325l-56 -469h-174l122 1014h88q61 0 61 -60zM759 1433l-235 -264h-153l-176 264h114q11 0 20.5 -5t14.5 -10l103 -136q3 -5 6.5 -10t6.5 -10q5 5 9 10t9 10l133 136 q7 5 17.5 10t20.5 5h110z" />
<glyph unicode="&#x15a;" horiz-adv-x="1016" d="M927 1211q-11 -14 -21 -21.5t-24 -7.5q-17 0 -36 17.5t-48.5 38t-71.5 38t-105 17.5q-64 0 -114 -20t-84.5 -54.5t-52.5 -80.5t-18 -99q0 -52 24 -87.5t63 -61t89.5 -45t102.5 -40t102.5 -45.5t89.5 -62t63 -89t24 -126q0 -102 -35 -192.5t-100.5 -158.5t-158.5 -108 t-209 -40q-128 0 -228.5 50.5t-165.5 136.5l66 89q8 11 20 18t26 7q19 0 41 -22.5t56 -50t84 -50t125 -22.5q69 0 124.5 22t94 61t59.5 93.5t21 120.5q0 55 -24 91.5t-63 61.5t-89 43.5t-102 37.5t-102 43t-89 61t-63 91t-24 133q0 88 32 169t92 143t146.5 99t194.5 37 q110 0 198 -42t145 -115zM1034 1852l-331 -286q-17 -14 -29.5 -17t-32.5 -3h-116l244 274q18 22 34 27t46 5h185z" />
<glyph unicode="&#x15b;" horiz-adv-x="800" d="M712 851q-8 -12 -16 -17.5t-20 -5.5q-14 0 -30.5 11t-40 24.5t-57.5 25t-82 11.5q-45 0 -82 -12.5t-63.5 -34.5t-41 -51.5t-14.5 -62.5q0 -47 31 -75t78 -48.5t101 -39.5t101 -48t78 -74t31 -117q0 -70 -27.5 -134t-79 -112.5t-124 -77.5t-162.5 -29q-97 0 -171.5 34.5 t-121.5 88.5l44 68q9 13 19.5 20t27.5 7q16 0 32 -14t40 -31.5t60.5 -31.5t92.5 -14q49 0 88.5 15t67 40t42 58.5t14.5 71.5q0 51 -31 81t-78 50t-101 37.5t-101 45t-78 71.5t-31 117q0 64 25.5 123.5t73.5 105.5t116.5 73.5t154.5 27.5q91 0 160.5 -30.5t119.5 -82.5z M803 1449l-244 -258q-14 -15 -27 -21.5t-32 -6.5h-98l163 242q15 23 31.5 33.5t46.5 10.5h160z" />
<glyph unicode="&#x15c;" horiz-adv-x="1016" d="M927 1211q-11 -14 -21 -21.5t-24 -7.5q-17 0 -36 17.5t-48.5 38t-71.5 38t-105 17.5q-64 0 -114 -20t-84.5 -54.5t-52.5 -80.5t-18 -99q0 -52 24 -87.5t63 -61t89.5 -45t102.5 -40t102.5 -45.5t89.5 -62t63 -89t24 -126q0 -102 -35 -192.5t-100.5 -158.5t-158.5 -108 t-209 -40q-128 0 -228.5 50.5t-165.5 136.5l66 89q8 11 20 18t26 7q19 0 41 -22.5t56 -50t84 -50t125 -22.5q69 0 124.5 22t94 61t59.5 93.5t21 120.5q0 55 -24 91.5t-63 61.5t-89 43.5t-102 37.5t-102 43t-89 61t-63 91t-24 133q0 88 32 169t92 143t146.5 99t194.5 37 q110 0 198 -42t145 -115zM958 1546h-120q-11 0 -26 4.5t-28 24.5l-92 141q-2 5 -4.5 8.5t-4.5 8.5q-3 -7 -12 -17l-124 -141q-18 -20 -33.5 -24.5t-26.5 -4.5h-116l251 271h147z" />
<glyph unicode="&#x15d;" horiz-adv-x="800" d="M712 851q-8 -12 -16 -17.5t-20 -5.5q-14 0 -30.5 11t-40 24.5t-57.5 25t-82 11.5q-45 0 -82 -12.5t-63.5 -34.5t-41 -51.5t-14.5 -62.5q0 -47 31 -75t78 -48.5t101 -39.5t101 -48t78 -74t31 -117q0 -70 -27.5 -134t-79 -112.5t-124 -77.5t-162.5 -29q-97 0 -171.5 34.5 t-121.5 88.5l44 68q9 13 19.5 20t27.5 7q16 0 32 -14t40 -31.5t60.5 -31.5t92.5 -14q49 0 88.5 15t67 40t42 58.5t14.5 71.5q0 51 -31 81t-78 50t-101 37.5t-101 45t-78 71.5t-31 117q0 64 25.5 123.5t73.5 105.5t116.5 73.5t154.5 27.5q91 0 160.5 -30.5t119.5 -82.5z M791 1169h-110q-10 0 -19.5 4t-18.5 15l-99 132q-3 5 -6.5 9.5t-6.5 9.5q-5 -5 -9 -10t-8 -9l-130 -132q-19 -19 -42 -19h-114l235 264h152z" />
<glyph unicode="&#x15e;" horiz-adv-x="1016" d="M927 1211q-11 -14 -21 -21.5t-24 -7.5q-17 0 -36 17.5t-48.5 38t-71.5 38t-105 17.5q-64 0 -114 -20t-84.5 -54.5t-52.5 -80.5t-18 -99q0 -52 24 -87.5t63 -61t89.5 -45t102.5 -40t102.5 -45.5t89.5 -62t63 -89t24 -126q0 -96 -31.5 -182.5t-90 -153.5t-142 -109.5 t-188.5 -51.5l-24 -62q76 -17 110.5 -48.5t34.5 -77.5q0 -36 -16.5 -65t-46.5 -49t-71 -30.5t-89 -10.5q-38 0 -71 8.5t-60 22.5l24 55q7 18 25 18q6 0 12.5 -3.5t15.5 -8t22 -8t32 -3.5q40 0 61 19t21 48q0 34 -35.5 48.5t-100.5 23.5l54 123q-110 10 -197.5 58.5 t-145.5 126.5l66 89q8 11 20 18t26 7q19 0 41 -22.5t56 -50t84 -50t125 -22.5q69 0 124.5 22t94 61t59.5 93.5t21 120.5q0 55 -24 91.5t-63 61.5t-89 43.5t-102 37.5t-102 43t-89 61t-63 91t-24 133q0 88 32 169t92 143t146.5 99t194.5 37q110 0 198 -42t145 -115z" />
<glyph unicode="&#x15f;" horiz-adv-x="800" d="M43 175q9 13 19.5 20t27.5 7q16 0 32 -14t40 -31.5t60.5 -31.5t92.5 -14q49 0 88.5 15t67 40t42 58.5t14.5 71.5q0 51 -31 81t-78 50t-101 37.5t-101 45t-78 71.5t-31 117q0 64 25.5 123.5t73.5 105.5t116.5 73.5t154.5 27.5q91 0 160.5 -30.5t119.5 -82.5l-45 -64 q-8 -12 -16 -17.5t-20 -5.5q-14 0 -30.5 11t-40 24.5t-57.5 25t-82 11.5q-45 0 -82 -12.5t-63.5 -34.5t-41 -51.5t-14.5 -62.5q0 -47 31 -75t78 -48.5t101 -39.5t101 -48t78 -74t31 -117q0 -65 -24 -124.5t-68 -107t-107.5 -79t-142.5 -39.5l-24 -63q76 -17 110.5 -48.5 t34.5 -77.5q0 -36 -16.5 -65t-46.5 -49t-71 -30.5t-89 -10.5q-38 0 -71 8.5t-60 22.5l24 55q7 18 25 18q6 0 12.5 -3.5t15.5 -8t22 -8t32 -3.5q40 0 61 19t21 48q0 34 -35.5 48.5t-100.5 23.5l54 124q-79 8 -140 40.5t-102 79.5z" />
<glyph unicode="&#x160;" horiz-adv-x="1016" d="M927 1211q-11 -14 -21 -21.5t-24 -7.5q-17 0 -36 17.5t-48.5 38t-71.5 38t-105 17.5q-64 0 -114 -20t-84.5 -54.5t-52.5 -80.5t-18 -99q0 -52 24 -87.5t63 -61t89.5 -45t102.5 -40t102.5 -45.5t89.5 -62t63 -89t24 -126q0 -102 -35 -192.5t-100.5 -158.5t-158.5 -108 t-209 -40q-128 0 -228.5 50.5t-165.5 136.5l66 89q8 11 20 18t26 7q19 0 41 -22.5t56 -50t84 -50t125 -22.5q69 0 124.5 22t94 61t59.5 93.5t21 120.5q0 55 -24 91.5t-63 61.5t-89 43.5t-102 37.5t-102 43t-89 61t-63 91t-24 133q0 88 32 169t92 143t146.5 99t194.5 37 q110 0 198 -42t145 -115zM978 1817l-250 -271h-152l-188 271h119q11 0 25.5 -3t25.5 -20l95 -151q2 -5 4 -9l4 -8l6 8t7 9l128 150q14 18 30 21t27 3h119z" />
<glyph unicode="&#x161;" horiz-adv-x="800" d="M712 851q-8 -12 -16 -17.5t-20 -5.5q-14 0 -30.5 11t-40 24.5t-57.5 25t-82 11.5q-45 0 -82 -12.5t-63.5 -34.5t-41 -51.5t-14.5 -62.5q0 -47 31 -75t78 -48.5t101 -39.5t101 -48t78 -74t31 -117q0 -70 -27.5 -134t-79 -112.5t-124 -77.5t-162.5 -29q-97 0 -171.5 34.5 t-121.5 88.5l44 68q9 13 19.5 20t27.5 7q16 0 32 -14t40 -31.5t60.5 -31.5t92.5 -14q49 0 88.5 15t67 40t42 58.5t14.5 71.5q0 51 -31 81t-78 50t-101 37.5t-101 45t-78 71.5t-31 117q0 64 25.5 123.5t73.5 105.5t116.5 73.5t154.5 27.5q91 0 160.5 -30.5t119.5 -82.5z M811 1433l-235 -264h-153l-176 264h114q11 0 20.5 -5t14.5 -10l103 -136q3 -5 6.5 -10t6.5 -10q5 5 9 10t9 10l133 136q7 5 17.5 10t20.5 5h110z" />
<glyph unicode="&#x162;" horiz-adv-x="1092" d="M1163 1433l-19 -157h-422l-158 -1276h-48l-29 -76q76 -17 110.5 -48.5t34.5 -77.5q0 -36 -16.5 -65t-46.5 -49t-71 -30.5t-89 -10.5q-38 0 -71 8.5t-60 22.5l24 55q7 18 25 18q6 0 12.5 -3.5t15.5 -8t22 -8t32 -3.5q40 0 61 19t21 48q0 34 -35.5 48.5t-100.5 23.5l60 137 h-37l156 1276h-424l18 157h1035z" />
<glyph unicode="&#x163;" horiz-adv-x="710" d="M140 191v15.5t1.5 27.5t5 47t9.5 76l62 507h-113q-14 0 -22.5 9.5t-6.5 29.5l8 71l156 21l76 313q5 15 15.5 24.5t26.5 9.5h93l-43 -349h266l-15 -129h-267l-61 -498q-5 -41 -8 -66t-4.5 -40t-2 -21t-0.5 -9q0 -51 24 -75.5t64 -24.5q27 0 46.5 7.5t34.5 16.5t25 16.5 t17 7.5q9 0 13.5 -4t8.5 -13l38 -85q-45 -39 -100 -62.5t-112 -28.5l-23 -61q76 -17 110.5 -48.5t34.5 -77.5q0 -36 -16.5 -65t-46.5 -49t-71 -30.5t-89 -10.5q-38 0 -71 8.5t-60 22.5l24 55q7 18 25 18q6 0 12.5 -3.5t15.5 -8t22 -8t32 -3.5q40 0 61 19t21 48 q0 34 -35.5 48.5t-100.5 23.5l57 131q-64 17 -99.5 67t-37.5 130z" />
<glyph unicode="&#x164;" horiz-adv-x="1092" d="M1144 1276h-422l-158 -1276h-186l156 1276h-424l18 157h1035zM979 1817l-250 -271h-152l-188 271h119q11 0 25.5 -3t25.5 -20l95 -151q2 -5 4 -9l4 -8l6 8t7 9l128 150q14 18 30 21t27 3h119z" />
<glyph unicode="&#x165;" horiz-adv-x="709" d="M742 1473q17 0 22.5 -7.5t5.5 -17.5t-3.5 -25t-15 -43.5t-33 -75.5t-57.5 -120q-12 -22 -27 -28.5t-39 -6.5h-43l93 324h97zM139 191v15.5t1.5 27.5t5 47t9.5 76l62 507h-113q-14 0 -22.5 9.5t-6.5 29.5l8 71l156 21l76 313q5 15 15.5 24.5t26.5 9.5h93l-43 -349h266 l-15 -129h-267l-61 -498q-5 -41 -8 -66t-4.5 -40t-2 -21t-0.5 -9q0 -51 24 -75.5t64 -24.5q27 0 46.5 7.5t34.5 16.5t25 16.5t17 7.5q9 0 13.5 -4t8.5 -13l38 -85q-49 -43 -111.5 -67.5t-125.5 -24.5q-97 0 -152.5 53t-57.5 154z" />
<glyph unicode="&#x166;" horiz-adv-x="1127" d="M740 1276l-53 -425h297l-13 -110h-297l-92 -741h-186l91 741h-301l13 110h301l52 425h-424l18 157h1035l-19 -157h-422z" />
<glyph unicode="&#x167;" horiz-adv-x="719" d="M148 191v15.5t1.5 27.5t5 47t9.5 76l27 222h-118q-16 0 -26.5 10.5t-8.5 30.5l10 72h157l21 172h-113q-14 0 -22.5 9.5t-6.5 29.5l8 71l156 21l76 313q5 15 15.5 24.5t26.5 9.5h93l-43 -349h266l-15 -129h-267l-21 -172h256l-15 -113h-255l-26 -213q-5 -41 -8 -66 t-4.5 -40t-2 -21t-0.5 -9q0 -51 24 -75.5t64 -24.5q27 0 46.5 7.5t34.5 16.5t25 16.5t17 7.5q9 0 13.5 -4t8.5 -13l38 -85q-49 -43 -111.5 -67.5t-125.5 -24.5q-97 0 -152.5 53t-57.5 154z" />
<glyph unicode="&#x168;" horiz-adv-x="1370" d="M628 147q81 0 148 31t118 85.5t83.5 130.5t43.5 166l107 873h187l-107 -873q-15 -123 -65 -228.5t-128 -183t-181 -121.5t-226 -44q-122 0 -214.5 44t-151.5 121.5t-82.5 183t-8.5 228.5l106 873h187l-107 -872q-11 -90 3 -166t51 -131t96.5 -86t140.5 -31zM935 1663 q21 0 38 8.5t29.5 23t20 32.5t9.5 36h101q-5 -43 -20.5 -82.5t-40 -70t-58 -48.5t-73.5 -18q-41 0 -72 16.5t-57 36t-49 36t-48 16.5q-21 0 -38 -9t-29.5 -23.5t-20 -32.5t-9.5 -36h-103q5 43 21 83t41 70.5t58 48.5t73 18q42 0 73.5 -16.5t57 -36t48.5 -36t48 -16.5z" />
<glyph unicode="&#x169;" horiz-adv-x="1059" d="M975 1013l-122 -1013h-88q-65 0 -65 64l15 185q-80 -130 -180.5 -196.5t-206.5 -66.5q-64 0 -113 25.5t-79.5 74.5t-41.5 120t1 163l76 644h177l-76 -644q-14 -119 14.5 -177t107.5 -58q46 0 95 25t94 71t84.5 111.5t67.5 145.5l63 526h177zM714 1327q67 0 79 86h100 q-5 -47 -21 -86.5t-41 -67.5t-56.5 -43.5t-68.5 -15.5q-32 0 -58.5 14.5t-49.5 31.5t-43.5 31.5t-41.5 14.5q-67 0 -78 -88h-102q5 48 21.5 87.5t41.5 68t57 44t68 15.5q33 0 59 -14.5t49 -31.5t43.5 -31.5t41.5 -14.5z" />
<glyph unicode="&#x16a;" horiz-adv-x="1370" d="M628 147q81 0 148 31t118 85.5t83.5 130.5t43.5 166l107 873h187l-107 -873q-15 -123 -65 -228.5t-128 -183t-181 -121.5t-226 -44q-122 0 -214.5 44t-151.5 121.5t-82.5 183t-8.5 228.5l106 873h187l-107 -872q-11 -90 3 -166t51 -131t96.5 -86t140.5 -31zM567 1694h512 l-12 -105h-513z" />
<glyph unicode="&#x16b;" horiz-adv-x="1059" d="M975 1013l-122 -1013h-88q-65 0 -65 64l15 185q-80 -130 -180.5 -196.5t-206.5 -66.5q-64 0 -113 25.5t-79.5 74.5t-41.5 120t1 163l76 644h177l-76 -644q-14 -119 14.5 -177t107.5 -58q46 0 95 25t94 71t84.5 111.5t67.5 145.5l63 526h177zM357 1348h528l-13 -117h-529z " />
<glyph unicode="&#x16c;" horiz-adv-x="1370" d="M628 147q81 0 148 31t118 85.5t83.5 130.5t43.5 166l107 873h187l-107 -873q-15 -123 -65 -228.5t-128 -183t-181 -121.5t-226 -44q-122 0 -214.5 44t-151.5 121.5t-82.5 183t-8.5 228.5l106 873h187l-107 -872q-11 -90 3 -166t51 -131t96.5 -86t140.5 -31zM806 1544 q-131 0 -195.5 65t-49.5 200h126q-4 -37 0.5 -65.5t19.5 -48.5t42 -30.5t69 -10.5q83 0 120.5 40.5t45.5 114.5h126q-14 -127 -93.5 -196t-210.5 -69z" />
<glyph unicode="&#x16d;" horiz-adv-x="1059" d="M975 1013l-122 -1013h-88q-65 0 -65 64l15 185q-80 -130 -180.5 -196.5t-206.5 -66.5q-64 0 -113 25.5t-79.5 74.5t-41.5 120t1 163l76 644h177l-76 -644q-14 -119 14.5 -177t107.5 -58q46 0 95 25t94 71t84.5 111.5t67.5 145.5l63 526h177zM600 1164q-70 0 -116 21.5 t-71.5 58t-33 85.5t-1.5 104h117q-4 -33 -1 -61.5t16.5 -48.5t38.5 -31.5t64 -11.5t66.5 11.5t45.5 31.5t27.5 48.5t13.5 61.5h116q-6 -55 -24.5 -104t-52 -85.5t-84.5 -58t-121 -21.5z" />
<glyph unicode="&#x16e;" horiz-adv-x="1370" d="M628 147q81 0 148 31t118 85.5t83.5 130.5t43.5 166l107 873h187l-107 -873q-15 -123 -65 -228.5t-128 -183t-181 -121.5t-226 -44q-122 0 -214.5 44t-151.5 121.5t-82.5 183t-8.5 228.5l106 873h187l-107 -872q-11 -90 3 -166t51 -131t96.5 -86t140.5 -31zM639 1697 q5 39 23 72t44.5 56t59 36t66.5 13q36 0 66.5 -13t52 -36t31.5 -56t6 -72t-21.5 -71t-44.5 -55t-60 -36t-69 -13q-35 0 -64.5 13t-51 36t-32 55t-6.5 71zM722 1697q-5 -44 17 -72t65 -28q41 0 69.5 28t33.5 72q5 45 -17 73t-64 28q-43 0 -71 -28t-33 -73z" />
<glyph unicode="&#x16f;" horiz-adv-x="1059" d="M975 1013l-122 -1013h-88q-65 0 -65 64l15 185q-80 -130 -180.5 -196.5t-206.5 -66.5q-64 0 -113 25.5t-79.5 74.5t-41.5 120t1 163l76 644h177l-76 -644q-14 -119 14.5 -177t107.5 -58q46 0 95 25t94 71t84.5 111.5t67.5 145.5l63 526h177zM433 1315q4 42 23 76t47 59 t62.5 38.5t71.5 13.5t69.5 -13.5t55.5 -38.5t34 -59t6 -76q-5 -41 -23.5 -75t-46.5 -58t-63.5 -37.5t-73.5 -13.5q-37 0 -68.5 13.5t-54 37.5t-33.5 58t-6 75zM525 1315q-5 -44 16.5 -72t65.5 -28q41 0 69.5 28t33.5 72q5 45 -17.5 73t-63.5 28q-43 0 -71 -28t-33 -73z" />
<glyph unicode="&#x170;" horiz-adv-x="1370" d="M628 147q81 0 148 31t118 85.5t83.5 130.5t43.5 166l107 873h187l-107 -873q-15 -123 -65 -228.5t-128 -183t-181 -121.5t-226 -44q-122 0 -214.5 44t-151.5 121.5t-82.5 183t-8.5 228.5l106 873h187l-107 -872q-11 -90 3 -166t51 -131t96.5 -86t140.5 -31zM924 1818 l-217 -245q-15 -14 -27.5 -20.5t-32.5 -6.5h-78l162 228q14 21 34.5 32.5t50.5 11.5h108zM1266 1818l-257 -245q-16 -14 -30.5 -20.5t-33.5 -6.5h-89l197 228q18 21 38.5 32.5t50.5 11.5h124z" />
<glyph unicode="&#x171;" horiz-adv-x="1059" d="M975 1013l-122 -1013h-88q-65 0 -65 64l15 185q-80 -130 -180.5 -196.5t-206.5 -66.5q-64 0 -113 25.5t-79.5 74.5t-41.5 120t1 163l76 644h177l-76 -644q-14 -119 14.5 -177t107.5 -58q46 0 95 25t94 71t84.5 111.5t67.5 145.5l63 526h177zM738 1449l-212 -258 q-13 -16 -26.5 -22t-33.5 -6h-68l155 242q14 23 30 33.5t46 10.5h109zM1027 1449l-252 -258q-14 -15 -27.5 -21.5t-32.5 -6.5h-78l192 242q17 22 32 33t46 11h120z" />
<glyph unicode="&#x172;" horiz-adv-x="1368" d="M1315 1433l-107 -873q-14 -107 -53.5 -201t-101 -168.5t-143.5 -125t-180 -70.5q-21 -12 -43.5 -28.5t-40.5 -37.5t-30 -46t-12 -53q0 -32 19 -51t51 -19q20 0 34 3.5t23.5 8t15.5 8.5t11 4q12 0 16 -13l20 -66q-32 -23 -76.5 -37.5t-92.5 -14.5q-78 0 -119.5 35 t-41.5 93q0 59 37.5 110t97.5 92q-120 2 -211 46.5t-148.5 122t-80.5 182t-8 226.5l106 873h187l-107 -872q-11 -90 3 -166t51 -131t96.5 -86t140.5 -31t148 31t118 85.5t83.5 130.5t43.5 166l107 873h187z" />
<glyph unicode="&#x173;" horiz-adv-x="1059" d="M830 0q-21 -12 -43.5 -28.5t-40.5 -37.5t-30 -46t-12 -53q0 -32 19 -51t51 -19q20 0 34 3.5t23.5 8t15.5 8.5t11 4q12 0 16 -13l20 -66q-32 -23 -76.5 -37.5t-92.5 -14.5q-78 0 -119.5 35t-41.5 93q0 66 46.5 122.5t118.5 98.5q-29 15 -29 57l15 185 q-80 -130 -180.5 -196.5t-206.5 -66.5q-64 0 -113 25.5t-79.5 74.5t-41.5 120t1 163l76 644h177l-76 -644q-14 -119 14.5 -177t107.5 -58q46 0 95 25t94 71t84.5 111.5t67.5 145.5l63 526h177l-122 -1013h-23z" />
<glyph unicode="&#x174;" horiz-adv-x="1910" d="M1982 1433l-588 -1433h-169l-194 1103q-2 16 -4.5 35t-4.5 39q-7 -20 -14 -39t-13 -35l-466 -1103h-168l-236 1433h147q25 0 40 -12.5t17 -32.5l155 -1014q2 -26 4 -56.5t4 -62.5q11 33 21.5 63t21.5 56l428 1014q8 17 26 31t42 14h43q25 0 39.5 -12.5t19.5 -32.5 l179 -1014q5 -26 8 -55t6 -61q9 32 18 61t18 55l403 1014q5 17 25.5 31t44.5 14h147zM1371 1546h-120q-11 0 -26 4.5t-28 24.5l-92 141q-2 5 -4.5 8.5t-4.5 8.5q-3 -7 -12 -17l-124 -141q-18 -20 -33.5 -24.5t-26.5 -4.5h-116l251 271h147z" />
<glyph unicode="&#x175;" horiz-adv-x="1445" d="M1462 1013l-425 -1013h-135q-24 0 -30 34l-123 687q-2 17 -3.5 32.5t-3.5 32.5q-11 -33 -24 -66l-292 -686q-14 -34 -41 -34h-130l-178 1013h133q20 0 32 -10t16 -27l93 -652q2 -35 4 -68t3 -65q11 32 24 65t27 68l277 656q5 15 19 25t31 10h74q19 0 30 -10t13 -25 l114 -656q5 -35 9 -67.5t7 -65.5q9 32 19.5 65t22.5 68l257 652q5 16 19.5 26.5t31.5 10.5h129zM1079 1169h-110q-10 0 -19.5 4t-18.5 15l-99 132q-3 5 -6.5 9.5t-6.5 9.5q-5 -5 -9 -10t-8 -9l-130 -132q-19 -19 -42 -19h-114l235 264h152z" />
<glyph unicode="&#x176;" horiz-adv-x="1164" d="M672 573l-71 -573h-187l71 571l-378 862h165q25 0 39 -12t21 -32l237 -574q19 -57 30 -108q12 26 26.5 52.5t31.5 55.5l380 574q11 17 27.5 30.5t40.5 13.5h155zM988 1546h-120q-11 0 -26 4.5t-28 24.5l-92 141q-2 5 -4.5 8.5t-4.5 8.5q-3 -7 -12 -17l-124 -141 q-18 -20 -33.5 -24.5t-26.5 -4.5h-116l251 271h147z" />
<glyph unicode="&#x177;" horiz-adv-x="959" d="M992 1013l-684 -1315q-11 -21 -25.5 -31t-36.5 -10h-131l220 403l-263 953h147q22 0 32 -10.5t15 -26.5l163 -638q5 -21 8 -42t5 -42q9 21 18 42.5t19 42.5l320 639q8 16 22.5 25.5t29.5 9.5h141zM833 1169h-110q-10 0 -19.5 4t-18.5 15l-99 132q-3 5 -6.5 9.5t-6.5 9.5 q-5 -5 -9 -10t-8 -9l-130 -132q-19 -19 -42 -19h-114l235 264h152z" />
<glyph unicode="&#x178;" horiz-adv-x="1164" d="M672 573l-71 -573h-187l71 571l-378 862h165q25 0 39 -12t21 -32l237 -574q19 -57 30 -108q12 26 26.5 52.5t31.5 55.5l380 574q11 17 27.5 30.5t40.5 13.5h155zM625 1663q0 -23 -9 -43t-25 -35t-36.5 -23.5t-43.5 -8.5q-22 0 -42 8.5t-35.5 23.5t-24.5 35t-9 43 q0 24 9 44.5t24.5 36.5t35.5 25t42 9q23 0 43.5 -9t36.5 -25t25 -36.5t9 -44.5zM1005 1663q0 -23 -9 -43t-24.5 -35t-36 -23.5t-43.5 -8.5t-43.5 8.5t-35.5 23.5t-24 35t-9 43q0 24 9 44.5t24 36.5t35.5 25t43.5 9t43.5 -9t36 -25t24.5 -36.5t9 -44.5z" />
<glyph unicode="&#x179;" horiz-adv-x="1113" d="M1146 1373q-2 -14 -8.5 -25t-14.5 -24l-875 -1172h737l-20 -152h-990l8 59q2 14 8 25t14 23l877 1173h-714l19 153h967zM1053 1852l-331 -286q-17 -14 -29.5 -17t-32.5 -3h-116l244 274q18 22 34 27t46 5h185z" />
<glyph unicode="&#x17a;" horiz-adv-x="848" d="M836 1013l-10 -76q-2 -19 -10.5 -36.5t-19.5 -31.5l-584 -730h499l-16 -139h-713l9 74q1 13 9 31t21 33l587 735h-491l17 140h702zM811 1449l-244 -258q-14 -15 -27 -21.5t-32 -6.5h-98l163 242q15 23 31.5 33.5t46.5 10.5h160z" />
<glyph unicode="&#x17b;" horiz-adv-x="1111" d="M1145 1373q-2 -14 -8.5 -25t-14.5 -24l-875 -1172h737l-20 -152h-990l8 59q2 14 8 25t14 23l877 1173h-714l19 153h967zM825 1687q0 -26 -10.5 -48.5t-28 -40t-39.5 -27.5t-46 -10t-45.5 10t-38 27.5t-26.5 40t-10 48.5t10 49t27 40.5t38.5 28t45.5 10.5t46 -10 t39.5 -27.5t27.5 -41t10 -49.5z" />
<glyph unicode="&#x17c;" horiz-adv-x="848" d="M836 1013l-10 -76q-2 -19 -10.5 -36.5t-19.5 -31.5l-584 -730h499l-16 -139h-713l9 74q1 13 9 31t21 33l587 735h-491l17 140h702zM655 1331q0 -26 -10.5 -48.5t-28 -40t-40 -27.5t-46.5 -10q-23 0 -45 10t-38.5 27.5t-26.5 40t-10 48.5t10 49t27 40.5t39 28t45 10.5 q24 0 46.5 -10t39.5 -27.5t27.5 -41t10.5 -49.5z" />
<glyph unicode="&#x17d;" horiz-adv-x="1111" d="M1145 1373q-2 -14 -8.5 -25t-14.5 -24l-875 -1172h737l-20 -152h-990l8 59q2 14 8 25t14 23l877 1173h-714l19 153h967zM1006 1817l-250 -271h-152l-188 271h119q11 0 25.5 -3t25.5 -20l95 -151q2 -5 4 -9l4 -8l6 8t7 9l128 150q14 18 30 21t27 3h119z" />
<glyph unicode="&#x17e;" horiz-adv-x="848" d="M836 1013l-10 -76q-2 -19 -10.5 -36.5t-19.5 -31.5l-584 -730h499l-16 -139h-713l9 74q1 13 9 31t21 33l587 735h-491l17 140h702zM823 1433l-235 -264h-153l-176 264h114q11 0 20.5 -5t14.5 -10l103 -136q3 -5 6.5 -10t6.5 -10q5 5 9 10t9 10l133 136q7 5 17.5 10 t20.5 5h110z" />
<glyph unicode="&#x17f;" horiz-adv-x="540" d="M255 1091q11 87 42 154.5t79 113.5t111 70t137 24q32 0 60.5 -5.5t53.5 -15.5l-16 -88q-2 -10 -9 -14t-18.5 -5t-26 0t-31.5 1q-42 0 -76.5 -13t-61 -41.5t-44.5 -74t-26 -111.5l-128 -1053l-47 -207q-11 -36 -32.5 -55.5t-59.5 -19.5h-70l135 1112l-108 13 q-21 5 -32.5 15t-7.5 29l7 71h157z" />
<glyph unicode="&#x180;" horiz-adv-x="1057" d="M259 222q38 -53 91.5 -75.5t107.5 -22.5q52 0 98 22t84 59.5t67.5 88t50.5 108t31.5 119t10.5 121.5q0 119 -42.5 181t-120.5 62q-48 0 -97 -30t-95 -83.5t-85.5 -127t-68.5 -160.5zM324 756q38 62 81.5 112t91.5 85.5t100 55t106 19.5q130 0 202 -94t72 -275 q0 -82 -17 -164t-48.5 -156.5t-76 -139t-99 -112t-118.5 -74.5t-134 -27q-81 0 -146 34t-108 97l-14 -65q-8 -26 -20 -39t-43 -13h-94l138 1144h-72q-36 0 -48.5 16t-7.5 48l7 46h135l26 219h174l-27 -219h216l-13 -110h-216z" />
<glyph unicode="&#x181;" horiz-adv-x="1481" d="M860 148q80 0 140 21t100 60t60 94t20 124q0 95 -64 151.5t-194 56.5h-280l-62 -507h280zM719 1284l-61 -496h231q81 0 141.5 21t100.5 59.5t60 92t20 118.5q0 104 -61.5 154.5t-192.5 50.5h-238zM975 1432q112 0 192.5 -22.5t132.5 -64t76.5 -101t24.5 -132.5 q0 -63 -18.5 -121.5t-55.5 -107t-92.5 -86.5t-129.5 -61q129 -28 194 -100.5t65 -185.5q0 -99 -35.5 -182t-102.5 -142.5t-163.5 -92.5t-217.5 -33h-470l158 1294h-24q-68 0 -115 -16t-76.5 -45.5t-42.5 -70.5t-13 -92q0 -16 1.5 -33.5t2.5 -28.5q3 -19 -3.5 -36t-34.5 -25 l-110 -24q-8 32 -12 66t-4 63q0 87 28.5 157.5t83 120t133.5 76t179 26.5h449z" />
<glyph unicode="&#x182;" horiz-adv-x="1161" d="M366 665l-64 -517h251q80 0 139.5 21t99 61t59 96.5t19.5 128.5q0 100 -60 155t-193 55h-251zM442 1284l-58 -471h252q110 0 189.5 -25t131 -69.5t76 -105.5t24.5 -134q0 -108 -35.5 -196.5t-103 -151.5t-164.5 -97t-219 -34h-438l176 1432h859l-18 -148h-672z" />
<glyph unicode="&#x183;" horiz-adv-x="1043" d="M260 242q35 -68 84.5 -95.5t114.5 -27.5q73 0 132.5 33.5t101.5 97t64.5 155.5t22.5 209q0 142 -50.5 209.5t-142.5 67.5q-80 0 -144 -40t-122 -114zM396 1347l-59 -480q67 74 146.5 117.5t176.5 43.5q69 0 124.5 -27t93.5 -79t58.5 -128t20.5 -173q0 -137 -34.5 -253.5 t-97.5 -201t-150.5 -132.5t-193.5 -48q-90 0 -147 37.5t-96 105.5l-20 -92q-13 -37 -49 -37h-111l181 1472h750l-15 -125h-578z" />
<glyph unicode="&#x184;" horiz-adv-x="1261" d="M669 148q93 0 157 33t104.5 84t58.5 114t18 123q0 49 -15 94.5t-47 81t-82 56.5t-120 21h-283l-65 -535l-9 -72h283zM753 904q112 0 194.5 -31.5t137 -85.5t81 -125.5t26.5 -150.5q0 -107 -35.5 -200t-104.5 -162t-169 -109t-229 -40h-473l116 953l-183 133l292 346h137 l-64 -528h274z" />
<glyph unicode="&#x185;" horiz-adv-x="1080" d="M282 223q38 -54 91 -76.5t108 -22.5q52 0 98 22t84 59.5t68 88t50.5 108t31.5 119t11 121.5q0 119 -43 181t-121 62q-48 0 -97 -30t-95 -83t-85.5 -126.5t-68.5 -160.5zM347 757q38 62 82 112t92 85.5t100 54.5t106 19q130 0 201.5 -94t71.5 -275q0 -82 -17 -164 t-48.5 -156.5t-76 -139t-99 -112t-118.5 -74.5t-134 -27q-81 0 -146 34t-107 97l-14 -65q-8 -26 -20.5 -39t-42.5 -13h-95l126 1030l-168 122l266 320l129 1z" />
<glyph unicode="&#x186;" horiz-adv-x="1250" d="M113 292q9 0 16.5 -4.5t14.5 -10.5q30 -34 61 -59t68 -41t82 -24t104 -8q106 0 201.5 45.5t168 131t115 209.5t42.5 281q0 109 -28 197t-79 149.5t-123 94.5t-161 33q-84 0 -143.5 -20t-101 -43.5t-68 -43.5t-43.5 -20q-14 0 -22.5 6.5t-13.5 15.5l-51 86 q92 84 206 132.5t255 48.5q130 0 234.5 -46.5t177.5 -130t112.5 -198.5t39.5 -253q0 -122 -24.5 -231.5t-70 -202.5t-110.5 -167.5t-145.5 -126.5t-175.5 -80t-200 -28q-82 0 -149.5 14.5t-123 42.5t-99.5 67.5t-78 90.5l83 80q14 13 29 13z" />
<glyph unicode="&#x187;" horiz-adv-x="1257" d="M1135 1381q4 71 21.5 136.5t53.5 115.5t93.5 80t140.5 30q54 0 93.5 -9t80.5 -26l-35 -97q-11 -27 -28 -31.5t-35 0.5q-17 6 -36.5 9t-39.5 3q-70 0 -109.5 -56.5t-51.5 -159.5l-13 -116l-64 -78q-8 -10 -18 -16.5t-25 -6.5q-18 0 -38 20t-54.5 43.5t-89 43.5t-141.5 20 q-117 0 -217.5 -46.5t-174.5 -133t-116.5 -209.5t-42.5 -276q0 -111 29 -199t80.5 -149.5t122.5 -94.5t156 -33q66 0 117 11t90 27t66.5 35.5t48 35.5t34.5 27t25 11q9 0 15 -3.5t10 -8.5l65 -81q-94 -102 -216.5 -158.5t-285.5 -56.5q-129 0 -230.5 46t-172 128.5 t-108 196.5t-37.5 251q0 187 58 341.5t159 266t237 173t293 62.5q82 0 155 -19.5t135 -55.5v7z" />
<glyph unicode="&#x188;" horiz-adv-x="912" d="M817 182q-52 -57 -98.5 -95t-93.5 -60.5t-97.5 -31.5t-108.5 -9q-88 0 -155.5 30t-113 84.5t-69 131t-23.5 168.5q0 123 38.5 236t107 200t162 139t203.5 52q49 0 88.5 -10t74.5 -28l10 89q7 62 27 118.5t54.5 99t84 68t116.5 25.5q38 0 74 -9t75 -27l-28 -74 q-8 -23 -20 -29t-23 -6q-12 0 -33 7.5t-51 7.5q-60 0 -88.5 -46t-38.5 -127l-27 -198l-56 -67q-6 -8 -15 -13t-20 -5q-14 0 -27.5 12.5t-35 28t-54 28t-83.5 12.5q-69 0 -130.5 -37.5t-107.5 -102.5t-72.5 -154t-26.5 -191q0 -62 14 -112.5t42 -86t68.5 -55t94.5 -19.5 q45 0 80 9.5t62 23.5t47.5 30.5t37 30.5t30 23.5t27.5 9.5q20 0 34 -17l44 -54v0z" />
<glyph unicode="&#x189;" horiz-adv-x="1426" d="M624 151q120 0 218.5 45.5t169.5 131t110 208t39 277.5q0 108 -27.5 195t-78.5 147.5t-125 93t-167 32.5h-307l-62 -504h348l-13 -110h-348l-63 -516h306zM781 1433q132 0 238 -45t180.5 -126.5t114 -195t39.5 -249.5q0 -183 -56.5 -333.5t-156 -258t-236.5 -166.5 t-298 -59h-495l82 667h-179l13 110h179l81 656h494z" />
<glyph unicode="&#x18a;" horiz-adv-x="1690" d="M888 151q119 0 218 45.5t170 131t110 208.5t39 278q0 108 -27.5 194.5t-79 147t-125.5 93t-167 32.5h-306l-139 -1130h307zM1045 1432q132 0 238 -45t180.5 -126t114 -194t39.5 -249q0 -183 -56.5 -334t-156 -258.5t-236.5 -166.5t-299 -59h-494l158 1294h-24 q-68 0 -115 -16t-76.5 -45.5t-42.5 -70.5t-13 -92q0 -16 1.5 -33.5t2.5 -28.5q3 -19 -3.5 -36t-34.5 -25l-110 -24q-8 32 -12 66t-4 63q0 87 28.5 157.5t83 120t133.5 76t179 26.5h519z" />
<glyph unicode="&#x18b;" horiz-adv-x="1154" d="M738 148l64 517h-252q-161 0 -238 -74.5t-77 -223.5q0 -48 14.5 -88.5t45 -69.5t78.5 -45t115 -16h250zM1083 1432l-176 -1432h-438q-101 0 -179 26.5t-131 74.5t-80 116.5t-27 152.5q0 97 30.5 178.5t93.5 140.5t160.5 91.5t231.5 32.5h252l58 471h-671l17 148h859z" />
<glyph unicode="&#x18c;" horiz-adv-x="1058" d="M774 792q-38 54 -91.5 75.5t-108.5 21.5q-79 0 -142 -47t-107.5 -121.5t-68.5 -166.5t-24 -181q0 -119 42.5 -181.5t121.5 -62.5q48 0 97 30t94.5 83.5t85 126.5t68.5 160zM1029 1448l-178 -1448h-93q-35 0 -47 18t-12 44l19 213q-38 -66 -83 -119t-94.5 -91t-103 -58.5 t-108.5 -20.5q-130 0 -202 94.5t-72 274.5q0 82 17 164t48.5 157t76 139.5t99.5 111.5t118.5 74t133.5 27q75 0 136.5 -29.5t104.5 -83.5l53 432h-576l15 125h577v1h174v-1z" />
<glyph unicode="&#x18d;" horiz-adv-x="966" d="M467 570q61 23 118.5 60t101.5 92t70.5 130t26.5 174q0 57 -13 108.5t-40.5 90.5t-69.5 62t-100 23q-65 0 -121 -26.5t-97 -75.5t-64.5 -119.5t-23.5 -157.5q0 -68 17.5 -121t47 -96t68 -78t79.5 -66zM104 128q5 24 17.5 32t34.5 8q12 0 40.5 -7t65.5 -15t78 -15t79 -7 q44 0 74.5 8.5t49 23t27 33.5t8.5 41q0 33 -21.5 61.5t-56 57t-79.5 58.5t-91.5 65t-91 77.5t-79 95.5t-56 119t-21.5 149q0 117 36 214.5t101.5 167t157 108.5t201.5 39q94 0 165.5 -31.5t120.5 -86.5t74 -129t25 -159q0 -196 -100.5 -330.5t-299.5 -203.5 q36 -26 68.5 -52.5t57 -57t39 -66t14.5 -78.5q0 -54 -20.5 -102t-63 -83t-109 -55.5t-157.5 -20.5q-32 0 -72 2.5t-82 7.5t-83.5 12t-75.5 15z" />
<glyph unicode="&#x18e;" horiz-adv-x="1071" d="M825 0h-816l17 152h629l61 498h-507l18 146h507l59 484h-627l18 152h816z" />
<glyph unicode="&#x18f;" horiz-adv-x="1343" d="M261 584q-12 -100 5 -181.5t58.5 -139t106 -89t146.5 -31.5q94 0 172 31t138 88.5t102 139t64 182.5h-792zM180 1234q57 57 121.5 98t133.5 68t141 39.5t145 12.5q121 0 222 -42.5t173.5 -124t112.5 -199.5t40 -268q0 -179 -51 -331.5t-144 -263.5t-224 -174t-290 -63 q-109 0 -198 36.5t-152.5 105.5t-98 168.5t-34.5 226.5q0 64 5.5 102t16 58t25.5 26t34 6h914q2 23 3 46.5t1 48.5q0 115 -26.5 204t-76.5 149.5t-123.5 92t-166.5 31.5q-89 0 -155 -22.5t-115 -50t-83.5 -50t-59.5 -22.5q-29 0 -42 22z" />
</font>
</defs>
</svg>
