<?xml version="1.0" standalone="no"?>
<!DOCTYPE svg PUBLIC "-//W3C//DTD SVG 1.1//EN" "http://www.w3.org/Graphics/SVG/1.1/DTD/svg11.dtd" >
<svg xmlns="http://www.w3.org/2000/svg">
<metadata></metadata>
<defs>
<font id="latosemibold_italic" horiz-adv-x="0" >
<font-face units-per-em="2000" ascent="1610" descent="-390" />
<missing-glyph horiz-adv-x="452" />
<glyph unicode="&#xfb00;" horiz-adv-x="1252" d="M1023 1006h254l-19 -150h-246l-99 -818l-49 -196q-14 -43 -39 -66.5t-71 -23.5h-86l133 1104h-377l-99 -818l-49 -196q-14 -43 -39 -66.5t-71 -23.5h-86l135 1103l-88 13q-23 5 -36.5 17.5t-10.5 35.5l10 85h143l9 69q11 88 44.5 157t84.5 117t117 73t143 25 q61 0 116 -19l-20 -113q-5 -21 -27.5 -23.5t-54.5 -2.5q-41 0 -74.5 -9.5t-59 -33t-42.5 -63.5t-24 -101l-10 -76h384l12 99q11 88 45 157t86 117t119.5 73t145.5 25q61 0 116 -19l-20 -113q-5 -21 -28 -23.5t-54 -2.5q-42 0 -76.5 -11.5t-60.5 -38t-44 -68.5t-25 -102z" />
<glyph unicode="&#xfb01;" horiz-adv-x="1097" d="M434 1006h579l-123 -1006h-210l105 851h-363l-99 -814l-48 -197q-14 -43 -39.5 -66t-71.5 -23h-85l135 1098l-87 14q-24 5 -36.5 17t-10.5 35l9 91h144l6 43q11 94 48.5 172.5t101 135.5t153 89t205.5 32q18 0 38.5 -1.5t40.5 -4t38 -6t32 -8.5l-21 -108 q-5 -22 -28.5 -23.5t-59.5 -1.5q-87 0 -149 -17t-103 -51.5t-64 -87.5t-32 -124z" />
<glyph unicode="&#xfb02;" horiz-adv-x="1122" d="M424 852l-101 -815l-48 -197q-14 -43 -39.5 -66t-71.5 -23h-85l135 1098l-87 14q-24 5 -37 17t-10 35l10 91h143l6 50q10 83 43 157.5t88.5 131t133 90t177.5 33.5q75 0 143 -6t134 -7h140l-178 -1455h-208l158 1299q-45 5 -89.5 10t-85.5 5q-108 0 -174 -66.5 t-80 -191.5l-5 -50h226l-18 -154h-220z" />
<glyph unicode="&#xfb03;" horiz-adv-x="1685" d="M1583 856l-104 -856h-207l104 856h-363l-100 -819l-49 -197q-14 -43 -39 -66t-71 -23h-85l136 1105h-381l-99 -818l-49 -196q-14 -43 -39 -66.5t-71 -23.5h-86l135 1103l-88 13q-23 5 -36.5 17.5t-10.5 35.5l10 85h143l9 69q11 88 44.5 157t84.5 117t117 73t143 25 q61 0 116 -19l-20 -113q-5 -21 -27.5 -23.5t-54.5 -2.5q-41 0 -74.5 -9.5t-59 -33t-42.5 -63.5t-24 -101l-10 -76h388l6 43q11 94 48.5 172.5t101 135.5t153 89t205.5 32q18 0 38.5 -1.5t40.5 -4t38 -6t32 -8.5l-21 -108q-5 -22 -28.5 -23.5t-59.5 -1.5q-87 0 -149 -17 t-103.5 -51.5t-64.5 -87.5t-32 -124l-4 -39h578l-18 -150h-1z" />
<glyph unicode="&#xfb04;" horiz-adv-x="1709" d="M431 1004h388l7 52q10 83 43 157.5t88.5 131t133 90t177.5 33.5q81 0 154.5 -6.5t145.5 -6.5h118l-179 -1455h-207l158 1299q-45 5 -89.5 10t-86.5 5q-107 0 -173.5 -66.5t-80.5 -191.5l-6 -52h255l-19 -150h-246l-101 -817l-49 -197q-14 -43 -39 -66t-71 -23h-86 l135 1103h-380l-99 -816l-49 -196q-14 -43 -39 -66.5t-72 -23.5h-85l135 1101l-85 13q-23 5 -36.5 17.5t-10.5 35.5l10 85h140l9 71q11 88 44 157t84 117t117.5 73t143.5 25q61 0 116 -19l-20 -113q-5 -21 -28 -23.5t-54 -2.5q-41 0 -74.5 -9.5t-59 -33t-43 -63.5 t-24.5 -101z" />
<glyph unicode="fb" horiz-adv-x="1732" d="M1019 793q37 55 79 100t88 77t95.5 49t101.5 17q64 0 115.5 -23.5t87.5 -71t55.5 -118t19.5 -164.5q0 -85 -17.5 -168t-49.5 -157.5t-77.5 -138.5t-100.5 -110.5t-119 -73t-133 -26.5q-79 0 -142.5 33t-105.5 90l-11 -47q-10 -32 -25 -46.5t-51 -14.5h-115l162 1339 q-42 8 -84 15.5t-80 7.5q-56 0 -101.5 -19t-80 -54.5t-56 -86t-28.5 -112.5l-10 -84h238l-18 -154h-232l-100 -815l-49 -197q-14 -43 -39 -66t-72 -23h-85l135 1099l-86 13q-24 5 -37.5 17t-10.5 35l10 91h143l11 84q10 83 44.5 157.5t91.5 131t137 90t181 33.5q56 0 110 -3 t103.5 -7t93.5 -7.5t80 -4.5h18zM950 233q36 -45 84.5 -63.5t96.5 -18.5t90 20t77.5 55t63 82.5t47 101.5t29.5 112.5t10 115.5q0 113 -39 169.5t-109 56.5q-44 0 -90 -29t-88 -80t-78.5 -121t-62.5 -151z" />
<glyph unicode="ffb" horiz-adv-x="2321" d="M1608 793q37 55 79 100t88 77t95.5 49t101.5 17q64 0 115.5 -23.5t87.5 -71t55.5 -118t19.5 -164.5q0 -85 -17.5 -168t-49.5 -157.5t-77.5 -138.5t-100.5 -110.5t-119 -73t-133 -26.5q-79 0 -142.5 33t-105.5 90l-11 -47q-10 -32 -25 -46.5t-51 -14.5h-115l162 1339 q-42 8 -84 15.5t-80 7.5q-56 0 -101.5 -19t-80 -54.5t-56 -86t-28.5 -112.5l-10 -86h251l-19 -150h-244l-101 -817l-48 -197q-14 -43 -39 -66t-72 -23h-85l136 1103h-380l-99 -816l-49 -196q-14 -43 -39 -66.5t-71 -23.5h-86l135 1101l-89 13q-23 5 -36.5 17.5t-10.5 35.5 l11 85h143l9 71q11 88 44.5 157t84.5 117t117 73t143 25q61 0 116 -19l-20 -113q-5 -21 -27.5 -23.5t-54.5 -2.5q-41 0 -74.5 -9.5t-59 -33t-42.5 -63.5t-24 -101l-11 -78h388l11 86q10 83 44.5 157.5t91.5 131t137 90t181 33.5q56 0 110 -3t103.5 -7t93.5 -7.5t80 -4.5h18z M1539 233q36 -45 84.5 -63.5t96.5 -18.5t90 20t77.5 55t63 82.5t47 101.5t29.5 112.5t10 115.5q0 113 -39 169.5t-109 56.5q-44 0 -90 -29t-88 -80t-78.5 -121t-62.5 -151z" />
<glyph unicode="fh" horiz-adv-x="1730" d="M1022 823q77 106 168 159.5t187 53.5q65 0 115.5 -25.5t82.5 -75t44 -121.5t0 -165l-76 -649h-214l76 649q14 109 -12 159.5t-96 50.5q-42 0 -86.5 -23.5t-85.5 -66t-77.5 -103t-61.5 -134.5l-64 -532h-214l162 1340q-41 7 -81 14.5t-78 7.5q-55 0 -101 -19t-80 -54.5 t-55.5 -86t-28.5 -112.5l-10 -84h237l-18 -154h-231l-101 -815l-48 -197q-14 -43 -39.5 -66t-71.5 -23h-85l135 1098l-87 14q-24 5 -37 17t-10 35l10 91h143l11 84q10 83 44 157.5t91 131t137 90t181 33.5q57 0 111 -3t103.5 -7t93 -7.5t79.5 -4.5h17z" />
<glyph unicode="ffh" horiz-adv-x="2320" d="M1612 823q77 106 168 159.5t187 53.5q65 0 115.5 -25.5t82.5 -75t44 -121.5t0 -165l-76 -649h-214l76 649q14 109 -12 159.5t-96 50.5q-42 0 -86.5 -23.5t-85.5 -66t-77.5 -103t-61.5 -134.5l-64 -532h-214l162 1340q-41 8 -81 15t-78 7q-56 0 -101.5 -19t-80 -54.5 t-56 -86t-28.5 -112.5l-10 -86h251l-19 -150h-244l-101 -817l-48 -197q-14 -43 -39 -66t-72 -23h-85l136 1103h-380l-99 -816l-49 -196q-14 -43 -39 -66.5t-71 -23.5h-86l135 1101l-89 13q-23 5 -36.5 17.5t-10.5 35.5l11 85h143l9 71q11 88 44.5 157t84.5 117t117 73 t143 25q61 0 116 -19l-20 -113q-5 -21 -27.5 -23.5t-54.5 -2.5q-41 0 -74.5 -9.5t-59 -33t-42.5 -63.5t-24 -101l-11 -78h388l11 86q10 83 44.5 157.5t91.5 131t137 90t181 33.5q59 0 116 -3.5t108.5 -7.5t96.5 -7.5t81 -3.5h2z" />
<glyph unicode="f&#xec;" horiz-adv-x="1097" d="M435 1006h578l-123 -1006h-210l105 851h-363l-99 -813l-45 -196q-14 -43 -39.5 -66.5t-71.5 -23.5h-85l134 1097l-89 14q-24 5 -37 17t-10 35l9 91h146l15 118q20 165 101.5 255.5t215.5 90.5q23 0 45 -2t39 -8l-13 -114q-2 -17 -17 -22.5t-38 -5.5q-57 0 -89.5 -46.5 t-43.5 -146.5zM859 1456q33 0 48.5 -12t26.5 -37l106 -242h-113q-22 0 -35.5 7t-26.5 25l-192 259h186z" />
<glyph unicode="f&#xee;" horiz-adv-x="1097" d="M435 1006h578l-123 -1006h-210l105 851h-363l-99 -813l-45 -196q-14 -43 -39.5 -66.5t-71.5 -23.5h-85l134 1097l-89 14q-24 5 -37 17t-10 35l9 91h146l15 118q20 165 101.5 255.5t215.5 90.5q23 0 45 -2t39 -8l-13 -114q-2 -17 -17 -22.5t-38 -5.5q-57 0 -89.5 -46.5 t-43.5 -146.5zM1245 1169h-132q-11 0 -22.5 4t-22.5 18l-88 116q-9 10 -14 21l-20 -21l-116 -116q-11 -11 -24 -16.5t-25 -5.5h-137l239 271h184z" />
<glyph unicode="f&#x129;" horiz-adv-x="1097" d="M435 1006h578l-123 -1006h-210l105 851h-363l-99 -813l-45 -196q-14 -43 -39.5 -66.5t-71.5 -23.5h-85l134 1097l-89 14q-24 5 -37 17t-10 35l9 91h146l15 118q20 165 101.5 255.5t215.5 90.5q23 0 45 -2t39 -8l-13 -114q-2 -17 -17 -22.5t-38 -5.5q-57 0 -89.5 -46.5 t-43.5 -146.5zM1054 1344q30 0 49 18.5t24 61.5h121q-6 -52 -24 -94.5t-44.5 -73t-61 -47t-73.5 -16.5q-33 0 -59.5 13.5t-50 29.5t-44 29.5t-39.5 13.5q-30 0 -48.5 -19.5t-23.5 -62.5h-122q6 52 24 95t45 73.5t61.5 47.5t73.5 17q33 0 60 -13.5t50 -29.5t43 -29.5 t39 -13.5z" />
<glyph unicode="f&#xef;" horiz-adv-x="1097" d="M905 1291q0 -23 -9.5 -43t-25 -35t-36.5 -24t-45 -9q-23 0 -43 9t-35.5 24t-24.5 35t-9 43q0 24 9 45.5t24.5 37.5t35.5 25t43 9q24 0 45 -9t36.5 -25t25 -37.5t9.5 -45.5zM1204 1291q0 -23 -9 -43t-24.5 -35t-36 -24t-44.5 -9t-44.5 9t-35.5 24t-24 35t-9 43 q0 24 9 45.5t24 37.5t35.5 25t44.5 9t44.5 -9t36 -25t24.5 -37.5t9 -45.5zM435 1006h578l-123 -1006h-210l105 851h-363l-99 -813l-45 -196q-14 -43 -39.5 -66.5t-71.5 -23.5h-85l134 1097l-89 14q-24 5 -37 17t-10 35l9 91h146l15 118q20 165 101.5 255.5t215.5 90.5 q23 0 45 -2t39 -8l-13 -114q-2 -17 -17 -22.5t-38 -5.5q-57 0 -89.5 -46.5t-43.5 -146.5z" />
<glyph unicode="f&#x12b;" horiz-adv-x="1097" d="M435 1006h578l-123 -1006h-210l105 851h-363l-99 -813l-45 -196q-14 -43 -39.5 -66.5t-71.5 -23.5h-85l134 1097l-89 14q-24 5 -37 17t-10 35l9 91h146l15 118q20 165 101.5 255.5t215.5 90.5q23 0 45 -2t39 -8l-13 -114q-2 -17 -17 -22.5t-38 -5.5q-57 0 -89.5 -46.5 t-43.5 -146.5zM686 1361h541l-17 -139h-539z" />
<glyph unicode="f&#x12d;" horiz-adv-x="1097" d="M435 1006h578l-123 -1006h-210l105 851h-363l-99 -813l-45 -196q-14 -43 -39.5 -66.5t-71.5 -23.5h-85l134 1097l-89 14q-24 5 -37 17t-10 35l9 91h146l15 118q20 165 101.5 255.5t215.5 90.5q23 0 45 -2t39 -8l-13 -114q-2 -17 -17 -22.5t-38 -5.5q-57 0 -89.5 -46.5 t-43.5 -146.5zM937 1163q-75 0 -123 22t-75 60t-34.5 88t-1.5 107h139q-4 -32 -1 -57.5t15.5 -43.5t35.5 -28t61 -10q37 0 62.5 10t42 28t25 43.5t12.5 57.5h139q-6 -57 -25.5 -107t-54.5 -88t-88.5 -60t-128.5 -22z" />
<glyph unicode="f&#x12f;" horiz-adv-x="1097" d="M880 -198q15 0 19 -14l23 -80q-32 -23 -78.5 -37t-96.5 -14q-82 0 -125.5 35.5t-43.5 93.5q0 61 41 115.5t113 98.5h-52l105 851h-363l-99 -814l-48 -197q-14 -43 -39.5 -66t-71.5 -23h-85l135 1098l-87 14q-24 5 -36.5 17t-10.5 35l9 91h144l6 43q11 94 48.5 172.5 t101 135.5t153 89t205.5 32q18 0 38.5 -1.5t40.5 -4t38 -6t32 -8.5l-21 -108q-5 -22 -28.5 -23.5t-59.5 -1.5q-87 0 -149 -17t-103 -51.5t-64 -87.5t-32 -124l-5 -39h579l-123 -1006h-27q-21 -12 -41.5 -28t-37.5 -35.5t-27.5 -42.5t-10.5 -49q0 -28 16 -44.5t45 -16.5 q18 0 30 3t20 6t13 6t10 3z" />
<glyph unicode="f&#x131;" horiz-adv-x="1097" d="M435 1006h578l-123 -1006h-210l105 851h-363l-99 -813l-45 -196q-14 -43 -39.5 -66.5t-71.5 -23.5h-85l134 1097l-89 14q-24 5 -37 17t-10 35l9 91h146l15 118q20 165 101.5 255.5t215.5 90.5q23 0 45 -2t39 -8l-13 -114q-2 -17 -17 -22.5t-38 -5.5q-57 0 -89.5 -46.5 t-43.5 -146.5z" />
<glyph unicode="ff&#xec;" horiz-adv-x="1686" d="M1583 856l-104 -856h-207l104 856h-364l-100 -818l-45 -196q-14 -43 -39 -66.5t-71 -23.5h-86l135 1104h-382l-99 -818l-49 -196q-14 -43 -39 -66.5t-71 -23.5h-86l135 1103l-88 13q-23 5 -36.5 17.5t-10.5 35.5l10 85h143l9 69q11 88 44.5 157t84.5 117t117 73t143 25 q61 0 116 -19l-20 -113q-5 -21 -27.5 -23.5t-54.5 -2.5q-41 0 -74.5 -9.5t-59 -33t-42.5 -63.5t-24 -101l-10 -76h389l15 118q20 165 102 255.5t216 90.5q23 0 45 -2t39 -8l-14 -114q-2 -17 -16.5 -22.5t-37.5 -5.5q-58 0 -90 -46.5t-44 -146.5l-15 -119h578l-18 -150h-1z M1449 1456q33 0 48.5 -12t26.5 -37l106 -242h-113q-22 0 -35.5 7t-26.5 25l-192 259h186z" />
<glyph unicode="ff&#xee;" horiz-adv-x="1686" d="M1583 856l-104 -856h-207l104 856h-364l-100 -818l-45 -196q-14 -43 -39 -66.5t-71 -23.5h-86l135 1104h-382l-99 -818l-49 -196q-14 -43 -39 -66.5t-71 -23.5h-86l135 1103l-88 13q-23 5 -36.5 17.5t-10.5 35.5l10 85h143l9 69q11 88 44.5 157t84.5 117t117 73t143 25 q61 0 116 -19l-20 -113q-5 -21 -27.5 -23.5t-54.5 -2.5q-41 0 -74.5 -9.5t-59 -33t-42.5 -63.5t-24 -101l-10 -76h389l15 118q20 165 102 255.5t216 90.5q23 0 45 -2t39 -8l-14 -114q-2 -17 -16.5 -22.5t-37.5 -5.5q-58 0 -90 -46.5t-44 -146.5l-15 -119h578l-18 -150h-1z M1828 1169h-132q-11 0 -22.5 4t-22.5 18l-88 116q-9 10 -14 21l-20 -21l-116 -116q-11 -11 -24 -16.5t-25 -5.5h-137l239 271h184z" />
<glyph unicode="ff&#x129;" horiz-adv-x="1686" d="M1583 856l-104 -856h-207l104 856h-364l-100 -818l-45 -196q-14 -43 -39 -66.5t-71 -23.5h-86l135 1104h-382l-99 -818l-49 -196q-14 -43 -39 -66.5t-71 -23.5h-86l135 1103l-88 13q-23 5 -36.5 17.5t-10.5 35.5l10 85h143l9 69q11 88 44.5 157t84.5 117t117 73t143 25 q61 0 116 -19l-20 -113q-5 -21 -27.5 -23.5t-54.5 -2.5q-41 0 -74.5 -9.5t-59 -33t-42.5 -63.5t-24 -101l-10 -76h389l15 118q20 165 102 255.5t216 90.5q23 0 45 -2t39 -8l-14 -114q-2 -17 -16.5 -22.5t-37.5 -5.5q-58 0 -90 -46.5t-44 -146.5l-15 -119h578l-18 -150h-1z M1649 1344q30 0 49 18.5t24 61.5h121q-6 -52 -24 -94.5t-44.5 -73t-61 -47t-73.5 -16.5q-33 0 -59.5 13.5t-50 29.5t-44 29.5t-39.5 13.5q-30 0 -48.5 -19.5t-23.5 -62.5h-122q6 52 24 95t45 73.5t61.5 47.5t73.5 17q33 0 60 -13.5t50 -29.5t43 -29.5t39 -13.5z" />
<glyph unicode="ff&#xef;" horiz-adv-x="1685" d="M1536 1291q0 -23 -9.5 -43t-25 -35t-36.5 -24t-45 -9q-22 0 -42.5 9t-36 24t-24.5 35t-9 43q0 24 9 45.5t24.5 37.5t36 25t42.5 9q24 0 45 -9t36.5 -25t25 -37.5t9.5 -45.5zM1835 1291q0 -23 -9 -43t-24.5 -35t-36.5 -24t-44 -9q-24 0 -44.5 9t-35.5 24t-24 35t-9 43 q0 24 9 45.5t24 37.5t35.5 25t44.5 9q23 0 44 -9t36.5 -25t24.5 -37.5t9 -45.5zM1583 856l-104 -856h-207l104 856h-364l-100 -818l-45 -196q-14 -43 -39 -66.5t-71 -23.5h-86l135 1104h-382l-99 -818l-49 -196q-14 -43 -39 -66.5t-71 -23.5h-86l135 1103l-88 13 q-23 5 -36.5 17.5t-10.5 35.5l10 85h143l9 69q11 88 44.5 157t84.5 117t117 73t143 25q61 0 116 -19l-20 -113q-5 -21 -27.5 -23.5t-54.5 -2.5q-41 0 -74.5 -9.5t-59 -33t-42.5 -63.5t-24 -101l-10 -76h389l15 118q20 165 102 255.5t216 90.5q23 0 45 -2t39 -8l-14 -114 q-2 -17 -16.5 -22.5t-37.5 -5.5q-58 0 -90 -46.5t-44 -146.5l-15 -119h578l-18 -150h-1z" />
<glyph unicode="ff&#x12b;" horiz-adv-x="1686" d="M1583 856l-104 -856h-207l104 856h-364l-100 -818l-45 -196q-14 -43 -39 -66.5t-71 -23.5h-86l135 1104h-382l-99 -818l-49 -196q-14 -43 -39 -66.5t-71 -23.5h-86l135 1103l-88 13q-23 5 -36.5 17.5t-10.5 35.5l10 85h143l9 69q11 88 44.5 157t84.5 117t117 73t143 25 q61 0 116 -19l-20 -113q-5 -21 -27.5 -23.5t-54.5 -2.5q-41 0 -74.5 -9.5t-59 -33t-42.5 -63.5t-24 -101l-10 -76h389l15 118q20 165 102 255.5t216 90.5q23 0 45 -2t39 -8l-14 -114q-2 -17 -16.5 -22.5t-37.5 -5.5q-58 0 -90 -46.5t-44 -146.5l-15 -119h578l-18 -150h-1z M1269 1361h541l-17 -139h-539z" />
<glyph unicode="ff&#x12d;" horiz-adv-x="1686" d="M1583 856l-104 -856h-207l104 856h-364l-100 -818l-45 -196q-14 -43 -39 -66.5t-71 -23.5h-86l135 1104h-382l-99 -818l-49 -196q-14 -43 -39 -66.5t-71 -23.5h-86l135 1103l-88 13q-23 5 -36.5 17.5t-10.5 35.5l10 85h143l9 69q11 88 44.5 157t84.5 117t117 73t143 25 q61 0 116 -19l-20 -113q-5 -21 -27.5 -23.5t-54.5 -2.5q-41 0 -74.5 -9.5t-59 -33t-42.5 -63.5t-24 -101l-10 -76h389l15 118q20 165 102 255.5t216 90.5q23 0 45 -2t39 -8l-14 -114q-2 -17 -16.5 -22.5t-37.5 -5.5q-58 0 -90 -46.5t-44 -146.5l-15 -119h578l-18 -150h-1z M1521 1163q-75 0 -123 22t-75 60t-34.5 88t-1.5 107h139q-4 -32 -1 -57.5t15.5 -43.5t35.5 -28t61 -10q37 0 62.5 10t42 28t25 43.5t12.5 57.5h139q-6 -57 -25.5 -107t-54.5 -88t-88.5 -60t-128.5 -22z" />
<glyph unicode="ff&#x12f;" horiz-adv-x="1686" d="M1583 856l-104 -856h-30q-21 -12 -41.5 -28t-37.5 -35.5t-27.5 -42.5t-10.5 -49q0 -28 16 -44.5t45 -16.5q18 0 30 3t20 6t13 6t10 3q15 0 19 -14l23 -80q-32 -23 -78.5 -37t-96.5 -14q-82 0 -125.5 35.5t-43.5 93.5q0 61 41 115.5t113 98.5h-46l104 856h-363l-100 -819 l-49 -197q-14 -43 -39 -66t-71 -23h-85l136 1105h-381l-99 -818l-49 -196q-14 -43 -39 -66.5t-71 -23.5h-86l135 1103l-88 13q-23 5 -36.5 17.5t-10.5 35.5l10 85h143l9 69q11 88 44.5 157t84.5 117t117 73t143 25q61 0 116 -19l-20 -113q-5 -21 -27.5 -23.5t-54.5 -2.5 q-41 0 -74.5 -9.5t-59 -33t-42.5 -63.5t-24 -101l-10 -76h388l6 43q11 94 48.5 172.5t101 135.5t153 89t205.5 32q18 0 38.5 -1.5t40.5 -4t38 -6t32 -8.5l-21 -108q-5 -22 -28.5 -23.5t-59.5 -1.5q-87 0 -149 -17t-103.5 -51.5t-64.5 -87.5t-32 -124l-4 -39h578l-18 -150h-1 z" />
<glyph unicode="ff&#x131;" horiz-adv-x="1686" d="M1583 856l-104 -856h-207l104 856h-364l-100 -818l-45 -196q-14 -43 -39 -66.5t-71 -23.5h-86l135 1104h-382l-99 -818l-49 -196q-14 -43 -39 -66.5t-71 -23.5h-86l135 1103l-88 13q-23 5 -36.5 17.5t-10.5 35.5l10 85h143l9 69q11 88 44.5 157t84.5 117t117 73t143 25 q61 0 116 -19l-20 -113q-5 -21 -27.5 -23.5t-54.5 -2.5q-41 0 -74.5 -9.5t-59 -33t-42.5 -63.5t-24 -101l-10 -76h389l15 118q20 165 102 255.5t216 90.5q23 0 45 -2t39 -8l-14 -114q-2 -17 -16.5 -22.5t-37.5 -5.5q-58 0 -90 -46.5t-44 -146.5l-15 -119h578l-18 -150h-1z " />
<glyph unicode="fj" horiz-adv-x="1096" d="M1011 1006l-128 -1059q-8 -64 -31.5 -120.5t-64 -98.5t-97.5 -66t-130 -24q-38 0 -64.5 5t-52.5 14l21 117q6 20 19.5 23t47.5 3t58.5 8t41.5 25.5t27.5 45.5t15.5 68l110 909h-360l-100 -819l-48 -197q-14 -43 -39.5 -66t-71.5 -23h-85l136 1104l-89 13 q-23 5 -36.5 17.5t-10.5 35.5l10 85h144l6 43q11 94 48.5 172.5t101 135.5t153 89t205.5 32q18 0 38.5 -1.5t40.5 -4t38 -6t32 -8.5l-21 -108q-5 -22 -28.5 -23.5t-59.5 -1.5q-87 0 -149 -17t-103 -51.5t-64 -87.5t-32 -124l-5 -39h576z" />
<glyph unicode="ffj" horiz-adv-x="1687" d="M435 1006h388l6 43q11 94 48.5 172.5t101 135.5t153 89t205.5 32q18 0 38.5 -1.5t40.5 -4t38 -6t32 -8.5l-21 -108q-5 -22 -28.5 -23.5t-59.5 -1.5q-87 0 -149 -17t-103.5 -51.5t-64.5 -87.5t-32 -124l-4 -39h578l-18 -150l-110 -909q-8 -65 -31.5 -121.5t-64 -98.5 t-97.5 -66t-130 -24q-38 0 -64.5 5t-52.5 15l21 116q6 20 19.5 23t47.5 3t58.5 8t41.5 26t27.5 46t15.5 68l110 909h-362l-100 -819l-49 -197q-14 -43 -39 -66t-71 -23h-85l136 1105h-381l-99 -818l-49 -196q-14 -43 -39 -66.5t-71 -23.5h-86l135 1103l-88 13 q-23 5 -36.5 17.5t-10.5 35.5l10 85h143l9 69q11 88 44.5 157t84.5 117t117 73t143 25q61 0 116 -19l-20 -113q-5 -21 -27.5 -23.5t-54.5 -2.5q-41 0 -74.5 -9.5t-59 -33t-42.5 -63.5t-24 -101z" />
<glyph unicode="fk" horiz-adv-x="1634" d="M424 852l-101 -815l-48 -197q-14 -43 -39.5 -66t-71.5 -23h-85l135 1098l-87 14q-24 5 -37 17t-10 35l10 91h143l11 84q10 83 44 157.5t91 131t137 90t181 33.5q60 0 116.5 -3.5t108 -7.5t96.5 -7.5t81 -3.5h2l-105 -858h28q22 0 35.5 6.5t29.5 24.5l302 327 q16 20 33.5 30t43.5 10h191l-364 -388q-31 -38 -69 -61q17 -14 29.5 -32t23.5 -40l277 -499h-185q-25 0 -41 8.5t-26 31.5l-227 400q-11 23 -24 29.5t-41 6.5h-34l-58 -476h-212l165 1340q-42 8 -83 15t-79 7q-55 0 -101 -19t-80 -54.5t-55.5 -86t-28.5 -112.5l-10 -84h237 l-18 -154h-231z" />
<glyph unicode="ffk" horiz-adv-x="2226" d="M434 1004h389l11 86q10 83 44 157.5t91 131t137 90t181 33.5q60 0 116.5 -3.5t108 -7.5t96.5 -7.5t81 -3.5h2l-105 -858h28q22 0 35.5 6.5t29.5 24.5l302 327q16 20 33.5 30t43.5 10h191l-364 -388q-31 -38 -69 -61q17 -14 29.5 -32t23.5 -40l277 -499h-185 q-25 0 -41 8.5t-26 31.5l-227 400q-11 23 -24 29.5t-41 6.5h-34l-58 -476h-212l165 1340q-42 8 -83 15t-79 7q-55 0 -101 -19t-80.5 -54.5t-56 -86t-28.5 -112.5l-10 -86h252l-19 -150h-244l-101 -817l-49 -197q-14 -43 -39 -66t-71 -23h-86l136 1103h-379l-100 -816 l-48 -196q-14 -43 -39.5 -66.5t-71.5 -23.5h-85l134 1101l-88 13q-24 5 -37 17.5t-10 35.5l10 85h143l9 71q11 88 44.5 157t84.5 117t117.5 73t143.5 25q32 0 60.5 -5t55.5 -14l-20 -113q-5 -21 -28 -23.5t-54 -2.5q-41 0 -74.5 -9.5t-59 -33t-43 -63.5t-24.5 -101z" />
<glyph unicode="ft" horiz-adv-x="1328" d="M436 1006h408l80 297q6 17 18.5 27.5t30.5 10.5h114l-42 -335h258l-18 -150h-258l-59 -474q-5 -41 -8 -65.5t-4.5 -39t-1.5 -20v-8.5q0 -44 21 -67t58 -23q24 0 41 6.5t30 14t22 14t17 6.5q11 0 16 -4.5t10 -15.5l46 -105q-53 -44 -117.5 -67.5t-130.5 -23.5 q-103 0 -163 56.5t-63 160.5q0 7 0.5 16.5t2 27.5t4.5 48t9 77l60 486h-392l-100 -818l-48 -196q-14 -43 -39.5 -66.5t-71.5 -23.5h-85l133 1103l-87 13q-23 5 -36.5 17.5t-10.5 35.5l10 85h142l11 86q11 87 45 156t86 117t119.5 73.5t145.5 25.5q62 0 116 -20l-20 -112 q-2 -11 -9 -16.5t-18 -7.5t-25 -2h-30q-41 0 -76 -12t-62 -38t-45 -68t-25 -103z" />
<glyph unicode="fft" horiz-adv-x="1919" d="M1022 1004h412l81 299q6 17 18.5 27.5t30.5 10.5h114l-42 -337h258l-19 -150h-258l-58 -472q-5 -41 -8 -65.5t-4.5 -39t-1.5 -20v-8.5q0 -44 21 -67t58 -23q24 0 41 6.5t30 14t22 14t17 6.5q11 0 16 -4.5t10 -15.5l45 -105q-52 -44 -116.5 -67.5t-130.5 -23.5 q-103 0 -163 56.5t-63 160.5q0 7 0.5 16.5t2 27.5t4.5 48t9 77l60 484h-397l-99 -816l-49 -196q-14 -43 -39 -66.5t-71 -23.5h-85l132 1102h-376l-100 -816l-48 -196q-14 -43 -39.5 -66.5t-71.5 -23.5h-85l134 1101l-87 13q-23 5 -36.5 17.5t-10.5 35.5l10 85h142l9 71 q11 88 44.5 157t84.5 117t117.5 73t143.5 25q32 0 60.5 -5t55.5 -14l-20 -113q-5 -21 -28 -23.5t-54 -2.5q-41 0 -74.5 -9.5t-59 -33t-43 -63.5t-24.5 -101l-11 -78h385l12 101q11 88 45 157t86 117t119.5 73t145.5 25q61 0 116 -19l-20 -113q-5 -21 -27.5 -23.5t-54.5 -2.5 q-41 0 -75.5 -11.5t-61 -38t-44.5 -68.5t-25 -102z" />
<glyph unicode="tf" horiz-adv-x="1291" d="M1060 1004h255l-19 -150h-247l-99 -817l-49 -197q-14 -43 -39 -66t-71 -23h-85l133 1103h-421l-58 -472q-5 -41 -8 -65.5t-4.5 -39t-1.5 -20v-8.5q0 -44 21 -67t58 -23q24 0 41 6.5t29.5 14t22 14t17.5 6.5q10 0 15 -4.5t10 -15.5l46 -105q-52 -44 -116.5 -67.5 t-130.5 -23.5q-103 0 -163 56.5t-63 160.5q0 7 0.5 16.5t2 27.5t4.5 48t9 77l60 484h-101q-17 0 -27.5 11.5t-8.5 33.5l11 83l153 24l80 297q5 17 17.5 27.5t31.5 10.5h114l-42 -337h420l11 87q11 87 45 156t86 117t119.5 73t145.5 25q65 0 116 -19l-20 -113 q-4 -21 -27 -23.5t-55 -2.5q-41 0 -76 -11.5t-62 -37.5t-45 -68t-25 -103z" />
<glyph unicode="t&#x12f;" horiz-adv-x="1176" d="M1028 1472q27 0 52 -11.5t44.5 -31t31 -45.5t11.5 -56q0 -29 -12 -55t-31.5 -45.5t-45 -31t-52.5 -11.5q-26 0 -50.5 11.5t-43.5 31t-30.5 45.5t-11.5 55t11.5 55.5t31 46t44 31t51.5 11.5zM1093 1004l-18 -150l-105 -854h-18q-21 -12 -42.5 -28t-38.5 -35.5t-28 -43 t-11 -49.5q0 -29 17 -46.5t46 -17.5q19 0 31.5 3t21 7t13.5 7t10 3q16 0 19 -15l21 -77q-32 -23 -78 -37t-95 -14q-81 0 -123.5 35.5t-42.5 93.5q0 61 41 115.5t112 98.5h-62l105 854h-449l-59 -472q-5 -41 -8 -65.5t-4.5 -39t-1.5 -20v-8.5q0 -44 21 -67t58 -23 q24 0 41 6.5t29.5 14t22 14t17.5 6.5q10 0 15 -4.5t10 -15.5l46 -105q-52 -44 -116.5 -67.5t-130.5 -23.5q-103 0 -163 56.5t-63 160.5q0 7 0.5 16.5t2 27.5t4.5 48t9 77l60 484h-101q-17 0 -27.5 11.5t-8.5 33.5l11 83l153 24l80 297q5 17 17.5 27.5t31.5 10.5h114 l-42 -337h656z" />
<glyph unicode="t&#x131;" horiz-adv-x="1176" d="M1073 854l-105 -854h-207l105 854h-448l-59 -472q-5 -41 -8 -65.5t-4.5 -39t-2 -20t-0.5 -8.5q0 -44 21 -67t59 -23q23 0 40.5 6.5t30 14t22 14t17.5 6.5q10 0 15 -4.5t10 -15.5l46 -105q-52 -44 -116.5 -67.5t-130.5 -23.5q-104 0 -163.5 56.5t-62.5 160.5v16.5 t1.5 27.5t5 48t9.5 77l60 484h-101q-17 0 -27.5 11.5t-8.5 33.5l10 83l154 24l79 297q6 17 18.5 27.5t31.5 10.5h114l-42 -337h655z" />
<glyph unicode="tt" horiz-adv-x="1324" d="M132 201v16.5t1.5 27.5t5 48t9.5 77l60 484h-101q-17 0 -27.5 11.5t-8.5 33.5l10 83l153 24l80 297q6 17 18.5 27.5t31.5 10.5h114l-42 -337h404l81 299q5 17 17.5 27.5t31.5 10.5h114l-42 -337h255l-19 -150h-255l-58 -472q-5 -41 -8 -65.5t-4.5 -39t-2 -20t-0.5 -8.5 q0 -44 21 -67t59 -23q24 0 41 6.5t29.5 14t22 14t17.5 6.5q10 0 15 -4.5t10 -15.5l46 -105q-52 -44 -116.5 -67.5t-130.5 -23.5q-103 0 -163 56.5t-63 160.5q0 7 0.5 16.5t2 27.5t4.5 48t9 77l60 484h-397l-58 -472q-5 -41 -8 -65.5t-4.5 -39t-2 -20t-0.5 -8.5q0 -44 21 -67 t59 -23q23 0 40.5 6.5t30 14t22 14t17.5 6.5q10 0 15 -4.5t10 -15.5l46 -105q-52 -44 -116.5 -67.5t-130.5 -23.5q-104 0 -163.5 56.5t-62.5 160.5z" />
<glyph unicode="ttf" horiz-adv-x="1896" d="M1474 1091q11 87 45 156t86 117t119.5 73t145.5 25q65 0 116 -19l-20 -113q-4 -21 -27 -23.5t-55 -2.5q-42 0 -77 -11.5t-61.5 -37.5t-44.5 -68t-25 -103l-10 -80h254l-18 -150h-247l-99 -817l-49 -197q-14 -43 -39 -66t-71 -23h-85l133 1103h-420l-59 -472 q-5 -41 -8 -65.5t-4.5 -39t-2 -20t-0.5 -8.5q0 -44 21 -67t59 -23q24 0 41 6.5t29.5 14t22 14t17.5 6.5q10 0 15 -4.5t10 -15.5l46 -105q-52 -44 -116.5 -67.5t-130.5 -23.5q-103 0 -163 56.5t-63 160.5q0 7 0.5 16.5t2 27.5t4.5 48t9 77l60 484h-396l-59 -472 q-5 -41 -8 -65.5t-4.5 -39t-1.5 -20v-8.5q0 -44 21 -67t58 -23q24 0 41 6.5t29.5 14t22 14t17.5 6.5q10 0 15 -4.5t10 -15.5l46 -105q-52 -44 -116.5 -67.5t-130.5 -23.5q-103 0 -163 56.5t-63 160.5q0 7 0.5 16.5t2 27.5t4.5 48t9 77l60 484h-101q-17 0 -27.5 11.5 t-8.5 33.5l11 83l153 24l80 297q5 17 17.5 27.5t31.5 10.5h114l-42 -337h404l81 299q5 17 17.5 27.5t31.5 10.5h114l-42 -337h420z" />
<glyph unicode="tt&#x12f;" horiz-adv-x="1764" d="M1680 1004l-18 -150l-105 -853l6 -1q-21 -12 -41.5 -28t-37.5 -35.5t-27.5 -42.5t-10.5 -49q0 -28 16 -44.5t45 -16.5q18 0 30 3t20 6t13 6t10 3q15 0 19 -14l23 -80q-32 -23 -78.5 -37t-96.5 -14q-82 0 -125.5 35.5t-43.5 93.5q0 61 41 115.5t113 98.5h-82l105 854h-430 l-59 -472q-5 -41 -8 -65.5t-4.5 -39t-2 -20t-0.5 -8.5q0 -44 21 -67t59 -23q24 0 41 6.5t29.5 14t22 14t17.5 6.5q10 0 15 -4.5t10 -15.5l46 -105q-52 -44 -116.5 -67.5t-130.5 -23.5q-103 0 -163 56.5t-63 160.5q0 7 0.5 16.5t2 27.5t4.5 48t9 77l60 484h-396l-59 -472 q-5 -41 -8 -65.5t-4.5 -39t-1.5 -20v-8.5q0 -44 21 -67t58 -23q24 0 41 6.5t29.5 14t22 14t17.5 6.5q10 0 15 -4.5t10 -15.5l46 -105q-52 -44 -116.5 -67.5t-130.5 -23.5q-103 0 -163 56.5t-63 160.5q0 7 0.5 16.5t2 27.5t4.5 48t9 77l60 484h-101q-17 0 -27.5 11.5 t-8.5 33.5l11 83l153 24l80 297q5 17 17.5 27.5t31.5 10.5h114l-42 -337h404l81 299q5 17 17.5 27.5t31.5 10.5h114l-42 -337h637zM1616 1472q27 0 52.5 -11.5t45 -31t31 -45.5t11.5 -56q0 -29 -12 -55t-32 -45.5t-45 -31t-52 -11.5t-51.5 11.5t-43 31t-30 45.5t-11.5 55 t11.5 55.5t30.5 46t44 31t51 11.5z" />
<glyph unicode="tt&#x131;" horiz-adv-x="1763" d="M1555 0h-206l105 854h-431l-58 -472q-5 -41 -8 -65.5t-4.5 -39t-2 -20t-0.5 -8.5q0 -44 21 -67t59 -23q23 0 40.5 6.5t30 14t22 14t17.5 6.5q10 0 15 -4.5t10 -15.5l46 -105q-52 -44 -116.5 -67.5t-130.5 -23.5q-104 0 -163.5 56.5t-62.5 160.5v16.5t1.5 27.5t5 48 t9.5 77l60 484h-396l-59 -472q-5 -41 -8 -65.5t-4.5 -39t-2 -20t-0.5 -8.5q0 -44 21 -67t59 -23q23 0 40.5 6.5t30 14t22 14t17.5 6.5q10 0 15 -4.5t10 -15.5l46 -105q-52 -44 -116.5 -67.5t-130.5 -23.5q-104 0 -163.5 56.5t-62.5 160.5v16.5t1.5 27.5t5 48t9.5 77l60 484 h-101q-17 0 -27.5 11.5t-8.5 33.5l10 83l154 24l79 297q6 17 18.5 27.5t31.5 10.5h114l-42 -337h404l80 299q6 17 18.5 27.5t31.5 10.5h113l-41 -337h637z" />
<glyph unicode="f&#x1d0;" horiz-adv-x="1094" d="M431 1006h579l-123 -1006h-207l104 852h-365l-99 -814l-46 -196q-14 -43 -39 -66.5t-71 -23.5h-86l134 1099l-85 13q-23 5 -36.5 17t-10.5 36l10 89h141l15 118q20 165 102 255.5t216 90.5q23 0 45 -2t39 -8l-14 -114q-2 -17 -16.5 -22.5t-37.5 -5.5q-58 0 -90 -46.5 t-44 -146.5zM678 1439h144q13 0 24.5 -4t15.5 -12l70 -113l14 -30q6 9 11.5 16.5t10.5 13.5l98 113q6 8 19 12t27 4h137l-222 -270h-193z" />
<glyph unicode="f&#x209;" horiz-adv-x="1094" d="M432 1006h391v-2h187l-123 -1004h-207l104 851h-364l-99 -813l-45 -196q-14 -43 -39 -66.5t-72 -23.5h-85l133 1097l-86 14q-24 5 -37 17t-10 35l9 91h143l15 118q12 94 41.5 159.5t74.5 107t105 60.5t132 19q36 0 60.5 -3t42.5 -10t30 -19t22 -31l135 -242h-99 q-23 0 -37 7t-28 24l-89 123q-52 1 -85.5 -9t-54.5 -32.5t-32 -60t-18 -92.5zM974 1456q35 0 51.5 -12.5t25.5 -36.5l90 -242h-85q-23 0 -38.5 6.5t-26.5 24.5l-152 260h135z" />
<glyph unicode="f&#x20b;" horiz-adv-x="1094" d="M431 1006h579l-123 -1006h-207l104 852h-365l-99 -814l-46 -196q-14 -43 -39 -66.5t-71 -23.5h-86l134 1099l-85 13q-23 5 -36.5 17t-10.5 36l10 89h141l15 118q20 165 102 255.5t216 90.5q23 0 45 -2t39 -8l-14 -114q-2 -17 -16.5 -22.5t-37.5 -5.5q-58 0 -90 -46.5 t-44 -146.5zM965 1450q75 0 124.5 -22t76.5 -60t35 -88t1 -106h-145q4 32 1.5 58t-14.5 45t-34.5 29t-58.5 10t-61.5 -10t-42 -29t-26 -45t-13.5 -58h-145q7 56 27 106t56.5 88t90 60t128.5 22z" />
<glyph unicode="f&#x1e2f;" horiz-adv-x="1097" d="M435 1006h578l-123 -1006h-210l105 851h-363l-99 -813l-45 -196q-14 -43 -39.5 -66.5t-71.5 -23.5h-85l134 1097l-89 14q-24 5 -37 17t-10 35l9 91h146l15 118q20 165 101.5 255.5t215.5 90.5q23 0 45 -2t39 -8l-13 -114q-2 -17 -17 -22.5t-38 -5.5q-57 0 -89.5 -46.5 t-43.5 -146.5zM1300 1596l-231 -217q-17 -17 -33.5 -23.5t-40.5 -6.5h-123l139 200q16 23 35 35t54 12h200zM895 1211q0 -23 -9 -43t-24.5 -34.5t-36 -23t-42.5 -8.5t-42 8.5t-35 23t-24 34.5t-9 43t9 43.5t24 35.5t35 24t42 9t42.5 -9t36 -24t24.5 -35.5t9 -43.5z M1206 1211q0 -23 -9 -43t-24 -34.5t-35 -23t-43 -8.5t-42.5 8.5t-34.5 23t-23.5 34.5t-8.5 43t8.5 43.5t23.5 35.5t34.5 24t42.5 9t43 -9t35 -24t24 -35.5t9 -43.5z" />
<glyph unicode="ff&#x1d0;" horiz-adv-x="1685" d="M1023 1006h579l-18 -152h-1l-104 -854h-207l104 854h-365l-100 -816l-45 -196q-14 -43 -39 -66.5t-72 -23.5h-85l135 1102h-381l-99 -816l-49 -196q-14 -43 -39 -66.5t-71 -23.5h-86l135 1101l-88 13q-23 5 -36.5 17.5t-10.5 35.5l10 87h143l9 69q11 88 44.5 157 t84.5 117t117 73t143 25q61 0 116 -19l-20 -113q-5 -21 -27.5 -23.5t-54.5 -2.5q-41 0 -74.5 -9.5t-59 -33t-42.5 -63.5t-24 -101l-10 -76h388l15 118q20 165 102 255.5t216 90.5q23 0 45 -2t39 -8l-14 -114q-2 -17 -17 -22.5t-37 -5.5q-58 0 -90.5 -46.5t-43.5 -146.5z M1618 1169h-193l-155 270h143q13 0 25 -4t16 -12l69 -113l14 -30l23 30l98 113q5 8 18 12t27 4h138z" />
<glyph unicode="ff&#x209;" horiz-adv-x="1688" d="M439 1006h387l15 118q12 94 41.5 159.5t74.5 107t105 60.5t132 19q36 0 60.5 -3t42.5 -10t30 -19t22 -31l134 -242h-98q-23 0 -37 7t-28 24l-89 123q-52 1 -85.5 -9t-54.5 -32.5t-32 -60t-18 -92.5l-15 -119h578v-2l-6 -48l-12 -102h-1l-104 -854h-207l104 854h-363 l-100 -816l-45 -196q-14 -43 -39 -66.5t-72 -23.5h-85l134 1102h-380l-99 -816l-49 -196q-14 -43 -39 -66.5t-71 -23.5h-86l134 1100l-92 14q-23 5 -36.5 17.5t-10.5 35.5l10 87h148l9 69q11 88 44.5 157t84.5 117t117 73t143 25q61 0 116 -19l-20 -113q-5 -21 -27.5 -23.5 t-54.5 -2.5q-41 0 -74.5 -9.5t-59 -33t-42.5 -63.5t-24 -101zM1568 1456q35 0 51.5 -12.5t25.5 -36.5l90 -242h-85q-23 0 -38.5 6.5t-26.5 24.5l-152 260h135z" />
<glyph unicode="ff&#x20b;" horiz-adv-x="1685" d="M1023 1006h579l-18 -152h-1l-104 -854h-207l104 854h-365l-100 -816l-45 -196q-14 -43 -39 -66.5t-72 -23.5h-85l135 1102h-381l-99 -816l-49 -196q-14 -43 -39 -66.5t-71 -23.5h-86l135 1101l-88 13q-23 5 -36.5 17.5t-10.5 35.5l10 87h143l9 69q11 88 44.5 157 t84.5 117t117 73t143 25q61 0 116 -19l-20 -113q-5 -21 -27.5 -23.5t-54.5 -2.5q-41 0 -74.5 -9.5t-59 -33t-42.5 -63.5t-24 -101l-10 -76h388l15 118q20 165 102 255.5t216 90.5q23 0 45 -2t39 -8l-14 -114q-2 -17 -17 -22.5t-37 -5.5q-58 0 -90.5 -46.5t-43.5 -146.5z M1547 1450q75 0 124 -22t76.5 -60t35.5 -88t1 -106h-145q4 32 1 58t-15 45t-34.5 29t-58.5 10t-61.5 -10t-42 -29t-25.5 -45t-13 -58h-145q7 56 27 106t56 88t90 60t129 22z" />
<glyph unicode="ff&#x1e2f;" horiz-adv-x="1685" d="M1023 1006h579l-123 -1006h-210l105 854h-363l-100 -816l-45 -196q-14 -43 -39 -66.5t-71 -23.5h-86l135 1102h-381l-99 -816l-49 -196q-14 -43 -39 -66.5t-71 -23.5h-86l135 1101l-88 13q-23 5 -36.5 17.5t-10.5 35.5l10 87h143l9 69q11 88 44.5 157t84.5 117t117 73 t143 25q61 0 116 -19l-20 -113q-5 -21 -27.5 -23.5t-54.5 -2.5q-41 0 -74.5 -9.5t-59 -33t-42.5 -63.5t-24 -101l-10 -76h388l15 118q20 165 102 255.5t216 90.5q23 0 45 -2t39 -8l-14 -114q-2 -17 -16.5 -22.5t-37.5 -5.5q-58 0 -90 -46.5t-44 -146.5zM1889 1596l-232 -217 q-17 -17 -33.5 -23.5t-39.5 -6.5h-123l139 200q15 23 34 35t54 12h201zM1795 1211q0 -23 -9 -43t-24 -34.5t-35.5 -23t-43.5 -8.5q-22 0 -42 8.5t-35 23t-23.5 34.5t-8.5 43t8.5 43.5t23.5 35.5t35 24t42 9q23 0 43.5 -9t35.5 -24t24 -35.5t9 -43.5zM1483 1211q0 -23 -9 -43 t-24.5 -34.5t-36 -23t-42.5 -8.5t-41.5 8.5t-34.5 23t-24 34.5t-9 43t9 43.5t24 35.5t34.5 24t41.5 9t42.5 -9t36 -24t24.5 -35.5t9 -43.5z" />
<glyph unicode="f&#x237;" horiz-adv-x="1096" d="M434 1006h577l-128 -1059q-8 -64 -31.5 -120.5t-64 -98.5t-97.5 -66t-130 -24q-38 0 -64.5 5t-52.5 14l21 117q6 20 19.5 23t47.5 3t58.5 8t41.5 25.5t27.5 45.5t15.5 68l110 909h-361l-100 -818l-46 -196q-14 -43 -39 -66.5t-71 -23.5h-86l135 1103l-89 13 q-23 5 -36.5 17.5t-10.5 35.5l10 85h144l15 118q20 165 102 255.5t216 90.5q23 0 45 -2t39 -8l-14 -114q-2 -17 -16.5 -22.5t-37.5 -5.5q-58 0 -90 -46.5t-44 -146.5z" />
<glyph unicode="ff&#x237;" horiz-adv-x="1687" d="M1023 1006h579l-18 -150l-110 -909q-8 -65 -31.5 -121.5t-64 -98.5t-97.5 -66t-130 -24q-38 0 -64.5 5t-52.5 15l21 116q6 20 19.5 23t47.5 3t58.5 8t41.5 26t27.5 46t15.5 68l110 909h-363l-100 -818l-46 -196q-14 -43 -39 -66.5t-71 -23.5h-85l135 1104h-382l-99 -818 l-49 -196q-14 -43 -39 -66.5t-71 -23.5h-86l135 1103l-88 13q-23 5 -36.5 17.5t-10.5 35.5l10 85h143l9 69q11 88 44.5 157t84.5 117t117 73t143 25q61 0 116 -19l-20 -113q-5 -21 -27.5 -23.5t-54.5 -2.5q-41 0 -74.5 -9.5t-59 -33t-42.5 -63.5t-24 -101l-10 -76h389 l15 118q20 165 101.5 255.5t215.5 90.5q23 0 45 -2t39 -8l-13 -114q-2 -17 -17 -22.5t-38 -5.5q-57 0 -89.5 -46.5t-44.5 -146.5z" />
<glyph unicode="f&#x135;" horiz-adv-x="1096" d="M434 1006h577l-128 -1059q-8 -64 -31.5 -120.5t-64 -98.5t-97.5 -66t-130 -24q-38 0 -64.5 5t-52.5 14l21 117q6 20 19.5 23t47.5 3t58.5 8t41.5 25.5t27.5 45.5t15.5 68l110 909h-361l-100 -818l-46 -196q-14 -43 -39 -66.5t-71 -23.5h-86l135 1103l-89 13 q-23 5 -36.5 17.5t-10.5 35.5l10 85h144l15 118q20 165 102 255.5t216 90.5q23 0 45 -2t39 -8l-14 -114q-2 -17 -16.5 -22.5t-37.5 -5.5q-58 0 -90 -46.5t-44 -146.5zM1239 1169h-132q-11 0 -22.5 4t-22.5 18l-88 116q-9 10 -14 21l-20 -21l-116 -116q-11 -11 -24 -16.5 t-25 -5.5h-137l239 271h184z" />
<glyph unicode="f&#x13e;" horiz-adv-x="1122" d="M1348 1481q20 0 26 -9t6 -19t-3.5 -24t-15.5 -42.5t-35.5 -76.5t-62.5 -125q-14 -25 -31.5 -32t-45.5 -7h-53l97 335h118zM424 852l-101 -815l-48 -197q-14 -43 -39.5 -66t-71.5 -23h-85l135 1098l-87 14q-24 5 -37 17t-10 35l10 91h143l6 50q10 83 43 157.5t88.5 131 t133 90t177.5 33.5q75 0 143 -6t134 -7h140l-178 -1455h-208l158 1299q-45 5 -89.5 10t-85.5 5q-108 0 -174 -66.5t-80 -191.5l-5 -50h226l-18 -154h-220z" />
<glyph unicode="f&#x13c;" horiz-adv-x="1122" d="M424 852l-101 -815l-48 -197q-14 -43 -39.5 -66t-71.5 -23h-85l135 1098l-87 14q-24 5 -37 17t-10 35l10 91h143l6 50q10 83 43 157.5t88.5 131t133 90t177.5 33.5q75 0 143 -6t134 -7h140l-178 -1455h-208l158 1299q-45 5 -89.5 10t-85.5 5q-108 0 -174 -66.5 t-80 -191.5l-5 -50h226l-18 -154h-220zM862 -93q20 0 26.5 -9t6.5 -19q0 -11 -4 -28t-14 -43.5t-28 -64.5t-45 -91q-14 -25 -32.5 -33t-46.5 -8h-76l82 296h131z" />
<glyph unicode="f&#x21b;" horiz-adv-x="1328" d="M436 1006h408l80 297q6 17 18.5 27.5t30.5 10.5h114l-42 -335h258l-18 -150h-258l-59 -474q-5 -41 -8 -65.5t-4.5 -39t-1.5 -20v-8.5q0 -44 21 -67t58 -23q24 0 41 6.5t30 14t22 14t17 6.5q11 0 16 -4.5t10 -15.5l46 -105q-53 -44 -117.5 -67.5t-130.5 -23.5 q-103 0 -163 56.5t-63 160.5q0 7 0.5 16.5t2 27.5t4.5 48t9 77l60 486h-392l-100 -818l-48 -196q-14 -43 -39.5 -66.5t-71.5 -23.5h-85l133 1103l-87 13q-23 5 -36.5 17.5t-10.5 35.5l10 85h142l11 86q11 87 45 156t86 117t119.5 73.5t145.5 25.5q62 0 116 -20l-20 -112 q-2 -11 -9 -16.5t-18 -7.5t-25 -2h-30q-41 0 -76 -12t-62 -38t-45 -68t-25 -103zM987 -93q20 0 26.5 -9t6.5 -19q0 -11 -4 -28t-14 -43.5t-28 -64.5t-45 -91q-14 -25 -32.5 -33t-46.5 -8h-76l82 296h131z" />
<glyph unicode="f&#x165;" horiz-adv-x="1328" d="M1361 1481q20 0 26 -9t6 -19t-3.5 -24t-15.5 -42.5t-35.5 -76.5t-62.5 -125q-14 -25 -31.5 -32t-45.5 -7h-52l96 335h118zM436 1006h408l80 297q6 17 18.5 27.5t30.5 10.5h114l-42 -335h258l-18 -150h-258l-59 -474q-5 -41 -8 -65.5t-4.5 -39t-1.5 -20v-8.5q0 -44 21 -67 t58 -23q24 0 41 6.5t30 14t22 14t17 6.5q11 0 16 -4.5t10 -15.5l46 -105q-53 -44 -117.5 -67.5t-130.5 -23.5q-103 0 -163 56.5t-63 160.5q0 7 0.5 16.5t2 27.5t4.5 48t9 77l60 486h-392l-100 -818l-48 -196q-14 -43 -39.5 -66.5t-71.5 -23.5h-85l133 1103l-87 13 q-23 5 -36.5 17.5t-10.5 35.5l10 85h142l11 86q11 87 45 156t86 117t119.5 73.5t145.5 25.5q62 0 116 -20l-20 -112q-2 -11 -9 -16.5t-18 -7.5t-25 -2h-30q-41 0 -76 -12t-62 -38t-45 -68t-25 -103z" />
<glyph unicode="f&#x1ecb;" horiz-adv-x="1097" d="M434 1006h579l-123 -1006h-210l105 851h-363l-99 -814l-48 -197q-14 -43 -39.5 -66t-71.5 -23h-85l135 1098l-87 14q-24 5 -36.5 17t-10.5 35l9 91h144l6 43q11 94 48.5 172.5t101 135.5t153 89t205.5 32q18 0 38.5 -1.5t40.5 -4t38 -6t32 -8.5l-21 -108 q-5 -22 -28.5 -23.5t-59.5 -1.5q-87 0 -149 -17t-103 -51.5t-64 -87.5t-32 -124zM879 -252q0 -27 -11 -51t-29 -42t-41.5 -28.5t-48.5 -10.5t-47.5 10.5t-40 28.5t-28 42t-10.5 51t10.5 51t28 42.5t40.5 29t48 10.5t48.5 -10.5t41.5 -28.5t28.5 -42.5t10.5 -51.5z" />
<glyph unicode="f&#x1e2d;" horiz-adv-x="1097" d="M434 1006h579l-123 -1006h-210l105 851h-363l-99 -814l-48 -197q-14 -43 -39.5 -66t-71.5 -23h-85l135 1098l-87 14q-24 5 -36.5 17t-10.5 35l9 91h144l6 43q11 94 48.5 172.5t101 135.5t153 89t205.5 32q18 0 38.5 -1.5t40.5 -4t38 -6t32 -8.5l-21 -108 q-5 -22 -28.5 -23.5t-59.5 -1.5q-87 0 -149 -17t-103 -51.5t-64 -87.5t-32 -124zM881 -165q30 0 49 18.5t24 61.5h121q-6 -52 -24 -94.5t-44.5 -73t-61 -47t-73.5 -16.5q-33 0 -59.5 13.5t-50 29.5t-44 29.5t-39.5 13.5q-30 0 -48.5 -19.5t-23.5 -62.5h-122q6 52 24 95 t45 73.5t61.5 47.5t73.5 17q33 0 60 -13.5t50 -29.5t43 -29.5t39 -13.5z" />
<glyph unicode="f&#x268;" horiz-adv-x="1154" d="M750 568l35 283h-363l-99 -814l-48 -197q-14 -43 -39.5 -66t-71.5 -23h-85l135 1098l-87 14q-24 5 -36.5 17t-10.5 35l9 91h144l6 43q11 94 48.5 172.5t101 135.5t153 89t205.5 32q18 0 38.5 -1.5t40.5 -4t38 -6t32 -8.5l-21 -108q-5 -22 -28.5 -23.5t-59.5 -1.5 q-87 0 -149 -17t-103 -51.5t-64 -87.5t-32 -124l-5 -39h579l-54 -438h151l-18 -150h-151l-51 -418h-210l51 418h-111l18 150h112z" />
<glyph unicode="f&#xed;" horiz-adv-x="1097" d="M435 1006h578l-123 -1006h-210l105 851h-363l-99 -813l-45 -196q-14 -43 -39.5 -66.5t-71.5 -23.5h-85l134 1097l-89 14q-24 5 -37 17t-10 35l9 91h146l15 118q20 165 101.5 255.5t215.5 90.5q23 0 45 -2t39 -8l-13 -114q-2 -17 -17 -22.5t-38 -5.5q-57 0 -89.5 -46.5 t-43.5 -146.5zM1242 1456l-252 -259q-17 -18 -31.5 -25t-37.5 -7h-118l160 242q16 25 34.5 37t52.5 12h192z" />
<glyph unicode="f&#x1ec9;" horiz-adv-x="1097" d="M435 1006h578l-123 -1006h-210l105 851h-363l-99 -813l-45 -196q-14 -43 -39.5 -66.5t-71.5 -23.5h-85l134 1097l-89 14q-24 5 -37 17t-10 35l9 91h146l15 118q20 165 101.5 255.5t215.5 90.5q23 0 45 -2t39 -8l-13 -114q-2 -17 -17 -22.5t-38 -5.5q-57 0 -89.5 -46.5 t-43.5 -146.5zM784 1433q31 23 81 37.5t105 14.5q45 0 76.5 -10t51.5 -28t27.5 -42t4.5 -52q-6 -51 -41.5 -89.5t-85.5 -59.5l-27 -84h-95l17 142q49 7 68.5 25.5t22.5 41.5q2 22 -10.5 37.5t-45.5 15.5q-18 0 -32 -4t-25.5 -9.5t-21 -9.5t-16.5 -4q-10 0 -14.5 5.5 t-9.5 14.5z" />
<glyph unicode="ff&#x1ecb;" horiz-adv-x="1686" d="M1583 856l-104 -856h-207l104 856h-363l-100 -819l-49 -197q-14 -43 -39 -66t-71 -23h-85l136 1105h-381l-99 -818l-49 -196q-14 -43 -39 -66.5t-71 -23.5h-86l135 1103l-88 13q-23 5 -36.5 17.5t-10.5 35.5l10 85h143l9 69q11 88 44.5 157t84.5 117t117 73t143 25 q61 0 116 -19l-20 -113q-5 -21 -27.5 -23.5t-54.5 -2.5q-41 0 -74.5 -9.5t-59 -33t-42.5 -63.5t-24 -101l-10 -76h388l6 43q11 94 48.5 172.5t101 135.5t153 89t205.5 32q18 0 38.5 -1.5t40.5 -4t38 -6t32 -8.5l-21 -108q-5 -22 -28.5 -23.5t-59.5 -1.5q-87 0 -149 -17 t-103.5 -51.5t-64.5 -87.5t-32 -124l-4 -39h578l-18 -150h-1zM1470 -252q0 -27 -11 -51t-29 -42t-41.5 -28.5t-48.5 -10.5t-47.5 10.5t-40 28.5t-28 42t-10.5 51t10.5 51t28 42.5t40.5 29t48 10.5t48.5 -10.5t41.5 -28.5t28.5 -42.5t10.5 -51.5z" />
<glyph unicode="ff&#x1e2d;" horiz-adv-x="1686" d="M1583 856l-104 -856h-207l104 856h-363l-100 -819l-49 -197q-14 -43 -39 -66t-71 -23h-85l136 1105h-381l-99 -818l-49 -196q-14 -43 -39 -66.5t-71 -23.5h-86l135 1103l-88 13q-23 5 -36.5 17.5t-10.5 35.5l10 85h143l9 69q11 88 44.5 157t84.5 117t117 73t143 25 q61 0 116 -19l-20 -113q-5 -21 -27.5 -23.5t-54.5 -2.5q-41 0 -74.5 -9.5t-59 -33t-42.5 -63.5t-24 -101l-10 -76h388l6 43q11 94 48.5 172.5t101 135.5t153 89t205.5 32q18 0 38.5 -1.5t40.5 -4t38 -6t32 -8.5l-21 -108q-5 -22 -28.5 -23.5t-59.5 -1.5q-87 0 -149 -17 t-103.5 -51.5t-64.5 -87.5t-32 -124l-4 -39h578l-18 -150h-1zM1453 -165q30 0 49 18.5t24 61.5h121q-6 -52 -24 -94.5t-44.5 -73t-61 -47t-73.5 -16.5q-33 0 -59.5 13.5t-50 29.5t-44 29.5t-39.5 13.5q-30 0 -48.5 -19.5t-23.5 -62.5h-122q6 52 24 95t45 73.5t61.5 47.5 t73.5 17q33 0 60 -13.5t50 -29.5t43 -29.5t39 -13.5z" />
<glyph unicode="ff&#x268;" horiz-adv-x="1715" d="M1341 568l35 288h-363l-100 -819l-49 -197q-14 -43 -39 -66t-71 -23h-85l136 1105h-381l-99 -818l-49 -196q-14 -43 -39 -66.5t-71 -23.5h-86l135 1103l-88 13q-23 5 -36.5 17.5t-10.5 35.5l10 85h143l9 69q11 88 44.5 157t84.5 117t117 73t143 25q61 0 116 -19l-20 -113 q-5 -21 -27.5 -23.5t-54.5 -2.5q-41 0 -74.5 -9.5t-59 -33t-42.5 -63.5t-24 -101l-10 -76h388l6 43q11 94 48.5 172.5t101 135.5t153 89t205.5 32q18 0 38.5 -1.5t40.5 -4t38 -6t32 -8.5l-21 -108q-5 -22 -28.5 -23.5t-59.5 -1.5q-87 0 -149 -17t-103.5 -51.5t-64.5 -87.5 t-32 -124l-4 -39h578l-18 -150h-1l-35 -288h133l-18 -150h-133l-51 -418h-207l51 418h-132l18 150h132z" />
<glyph unicode="ff&#xed;" horiz-adv-x="1685" d="M1583 856l-104 -856h-207l104 856h-364l-100 -818l-45 -196q-14 -43 -39 -66.5t-71 -23.5h-86l135 1104h-382l-99 -818l-49 -196q-14 -43 -39 -66.5t-71 -23.5h-86l135 1103l-88 13q-23 5 -36.5 17.5t-10.5 35.5l10 85h143l9 69q11 88 44.5 157t84.5 117t117 73t143 25 q61 0 116 -19l-20 -113q-5 -21 -27.5 -23.5t-54.5 -2.5q-41 0 -74.5 -9.5t-59 -33t-42.5 -63.5t-24 -101l-10 -76h389l15 118q20 165 102 255.5t216 90.5q23 0 45 -2t39 -8l-14 -114q-2 -17 -16.5 -22.5t-37.5 -5.5q-58 0 -90 -46.5t-44 -146.5l-15 -119h578l-18 -150h-1z M1841 1456l-252 -259q-17 -18 -31.5 -25t-37.5 -7h-118l160 242q16 25 34.5 37t52.5 12h192z" />
<glyph unicode="ff&#x1ec9;" horiz-adv-x="1676" d="M1583 856l-104 -856h-207l104 856h-364l-100 -818l-45 -196q-14 -43 -39 -66.5t-71 -23.5h-86l135 1104h-382l-99 -818l-49 -196q-14 -43 -39 -66.5t-71 -23.5h-86l135 1103l-88 13q-23 5 -36.5 17.5t-10.5 35.5l10 85h143l9 69q11 88 44.5 157t84.5 117t117 73t143 25 q61 0 116 -19l-20 -113q-5 -21 -27.5 -23.5t-54.5 -2.5q-41 0 -74.5 -9.5t-59 -33t-42.5 -63.5t-24 -101l-10 -76h389l15 118q20 165 102 255.5t216 90.5q23 0 45 -2t39 -8l-14 -114q-2 -17 -16.5 -22.5t-37.5 -5.5q-58 0 -90 -46.5t-44 -146.5l-15 -119h578l-18 -150h-1z M1374 1433q31 23 81 37.5t105 14.5q45 0 76.5 -10t51.5 -28t27.5 -42t4.5 -52q-6 -51 -41.5 -89.5t-85.5 -59.5l-27 -84h-95l17 142q49 7 68.5 25.5t22.5 41.5q2 22 -10.5 37.5t-45.5 15.5q-18 0 -32 -4t-25.5 -9.5t-21 -9.5t-16.5 -4q-10 0 -14.5 5.5t-9.5 14.5z" />
<glyph unicode="f&#x13a;" horiz-adv-x="1122" d="M424 852l-101 -815l-48 -197q-14 -43 -39.5 -66t-71.5 -23h-85l135 1098l-87 14q-24 5 -37 17t-10 35l10 91h143l6 50q10 83 43 157.5t88.5 131t133 90t177.5 33.5q75 0 143 -6t134 -7h140l-178 -1455h-208l158 1299q-45 5 -89.5 10t-85.5 5q-108 0 -174 -66.5 t-80 -191.5l-5 -50h226l-18 -154h-220zM1452 1857l-330 -286q-19 -16 -34 -20t-38 -4h-141l233 273q10 13 19 20t19 11t22.5 5t29.5 1h220z" />
<glyph unicode="ti" horiz-adv-x="1176" d="M1073 854l-105 -854h-207l105 854h-448l-59 -472q-5 -41 -8 -65.5t-4.5 -39t-2 -20t-0.5 -8.5q0 -44 21 -67t59 -23q23 0 40.5 6.5t30 14t22 14t17.5 6.5q10 0 15 -4.5t10 -15.5l46 -105q-52 -44 -116.5 -67.5t-130.5 -23.5q-104 0 -163.5 56.5t-62.5 160.5v16.5 t1.5 27.5t5 48t9.5 77l60 484h-101q-17 0 -27.5 11.5t-8.5 33.5l10 83l154 24l79 297q6 17 18.5 27.5t31.5 10.5h114l-42 -337h655zM1177 1328q0 -29 -12 -55t-32 -45.5t-45 -31t-52 -11.5t-51.5 11.5t-43 31t-30 45.5t-11.5 55t11.5 55.5t30.5 46t44 31t51 11.5 q27 0 52.5 -11.5t45 -31t31 -45.5t11.5 -56z" />
<glyph unicode="t&#xec;" horiz-adv-x="1176" d="M1073 854l-105 -854h-207l105 854h-448l-59 -472q-5 -41 -8 -65.5t-4.5 -39t-2 -20t-0.5 -8.5q0 -44 21 -67t59 -23q23 0 40.5 6.5t30 14t22 14t17.5 6.5q10 0 15 -4.5t10 -15.5l46 -105q-52 -44 -116.5 -67.5t-130.5 -23.5q-104 0 -163.5 56.5t-62.5 160.5v16.5 t1.5 27.5t5 48t9.5 77l60 484h-101q-17 0 -27.5 11.5t-8.5 33.5l10 83l154 24l79 297q6 17 18.5 27.5t31.5 10.5h114l-42 -337h655zM938 1456q33 0 48.5 -12t26.5 -37l106 -242h-113q-22 0 -35.5 7t-26.5 25l-192 259h186z" />
<glyph unicode="t&#xed;" horiz-adv-x="1176" d="M1073 854l-105 -854h-207l105 854h-448l-59 -472q-5 -41 -8 -65.5t-4.5 -39t-2 -20t-0.5 -8.5q0 -44 21 -67t59 -23q23 0 40.5 6.5t30 14t22 14t17.5 6.5q10 0 15 -4.5t10 -15.5l46 -105q-52 -44 -116.5 -67.5t-130.5 -23.5q-104 0 -163.5 56.5t-62.5 160.5v16.5 t1.5 27.5t5 48t9.5 77l60 484h-101q-17 0 -27.5 11.5t-8.5 33.5l10 83l154 24l79 297q6 17 18.5 27.5t31.5 10.5h114l-42 -337h655zM1339 1456l-252 -259q-17 -18 -31.5 -25t-37.5 -7h-118l160 242q16 25 34.5 37t52.5 12h192z" />
<glyph unicode="t&#xee;" horiz-adv-x="1175" d="M1073 854l-105 -854h-207l105 854h-448l-59 -472q-5 -41 -8 -65.5t-4.5 -39t-2 -20t-0.5 -8.5q0 -44 21 -67t59 -23q23 0 40.5 6.5t30 14t22 14t17.5 6.5q10 0 15 -4.5t10 -15.5l46 -105q-52 -44 -116.5 -67.5t-130.5 -23.5q-104 0 -163.5 56.5t-62.5 160.5v16.5 t1.5 27.5t5 48t9.5 77l60 484h-101q-17 0 -27.5 11.5t-8.5 33.5l10 83l154 24l79 297q6 17 18.5 27.5t31.5 10.5h114l-42 -337h655zM1322 1169h-132q-11 0 -22.5 4t-22.5 18l-88 116q-9 10 -14 21q-5 -6 -10 -11l-10 -10l-116 -116q-11 -11 -24 -16.5t-25 -5.5h-137l239 271 h184z" />
<glyph unicode="t&#xef;" horiz-adv-x="1175" d="M1073 854l-105 -854h-207l105 854h-448l-59 -472q-5 -41 -8 -65.5t-4.5 -39t-2 -20t-0.5 -8.5q0 -44 21 -67t59 -23q23 0 40.5 6.5t30 14t22 14t17.5 6.5q10 0 15 -4.5t10 -15.5l46 -105q-52 -44 -116.5 -67.5t-130.5 -23.5q-104 0 -163.5 56.5t-62.5 160.5v16.5 t1.5 27.5t5 48t9.5 77l60 484h-101q-17 0 -27.5 11.5t-8.5 33.5l10 83l154 24l79 297q6 17 18.5 27.5t31.5 10.5h114l-42 -337h655zM1024 1291q0 -26 -10 -48.5t-27.5 -39t-41 -26.5t-49.5 -10q-25 0 -47.5 10t-39.5 26.5t-27 39t-10 48.5t10 49.5t27 41t39.5 27.5t47.5 10 q26 0 49.5 -10t41 -27.5t27.5 -41t10 -49.5zM1331 1291q0 -26 -10 -48.5t-27.5 -39t-40.5 -26.5t-49 -10t-48.5 10t-39.5 26.5t-27 39t-10 48.5t10 49.5t27 41t39.5 27.5t48.5 10t49 -10t40.5 -27.5t27.5 -41t10 -49.5z" />
<glyph unicode="t&#x12b;" horiz-adv-x="1175" d="M1073 854l-105 -854h-207l105 854h-448l-59 -472q-5 -41 -8 -65.5t-4.5 -39t-2 -20t-0.5 -8.5q0 -44 21 -67t59 -23q23 0 40.5 6.5t30 14t22 14t17.5 6.5q10 0 15 -4.5t10 -15.5l46 -105q-52 -44 -116.5 -67.5t-130.5 -23.5q-104 0 -163.5 56.5t-62.5 160.5v16.5 t1.5 27.5t5 48t9.5 77l60 484h-101q-17 0 -27.5 11.5t-8.5 33.5l10 83l154 24l79 297q6 17 18.5 27.5t31.5 10.5h114l-42 -337h655zM766 1361h541l-17 -139h-539z" />
<glyph unicode="t&#x129;" horiz-adv-x="1176" d="M1073 854l-105 -854h-207l105 854h-448l-59 -472q-5 -41 -8 -65.5t-4.5 -39t-2 -20t-0.5 -8.5q0 -44 21 -67t59 -23q23 0 40.5 6.5t30 14t22 14t17.5 6.5q10 0 15 -4.5t10 -15.5l46 -105q-52 -44 -116.5 -67.5t-130.5 -23.5q-104 0 -163.5 56.5t-62.5 160.5v16.5 t1.5 27.5t5 48t9.5 77l60 484h-101q-17 0 -27.5 11.5t-8.5 33.5l10 83l154 24l79 297q6 17 18.5 27.5t31.5 10.5h114l-42 -337h655zM1137 1344q30 0 49 18.5t24 61.5h121q-6 -52 -24 -94.5t-44.5 -73t-61 -47t-73.5 -16.5q-33 0 -59.5 13.5t-50 29.5t-44 29.5t-39.5 13.5 q-30 0 -48.5 -19.5t-23.5 -62.5h-122q6 52 24 95t45 73.5t61.5 47.5t73.5 17q33 0 60 -13.5t50 -29.5t43 -29.5t39 -13.5z" />
<glyph unicode="t&#x12d;" horiz-adv-x="1176" d="M1073 854l-105 -854h-207l105 854h-448l-59 -472q-5 -41 -8 -65.5t-4.5 -39t-2 -20t-0.5 -8.5q0 -44 21 -67t59 -23q23 0 40.5 6.5t30 14t22 14t17.5 6.5q10 0 15 -4.5t10 -15.5l46 -105q-52 -44 -116.5 -67.5t-130.5 -23.5q-104 0 -163.5 56.5t-62.5 160.5v16.5 t1.5 27.5t5 48t9.5 77l60 484h-101q-17 0 -27.5 11.5t-8.5 33.5l10 83l154 24l79 297q6 17 18.5 27.5t31.5 10.5h114l-42 -337h655zM1017 1163q-75 0 -123 22t-75 60t-34.5 88t-1.5 107h139q-4 -32 -1 -57.5t15.5 -43.5t35.5 -28t61 -10q37 0 62.5 10t42 28t25 43.5 t12.5 57.5h139q-6 -57 -25.5 -107t-54.5 -88t-88.5 -60t-128.5 -22z" />
<glyph unicode="t&#x1d0;" horiz-adv-x="1175" d="M1073 854l-105 -854h-207l105 854h-448l-59 -472q-5 -41 -8 -65.5t-4.5 -39t-2 -20t-0.5 -8.5q0 -44 21 -67t59 -23q23 0 40.5 6.5t30 14t22 14t17.5 6.5q10 0 15 -4.5t10 -15.5l46 -105q-52 -44 -116.5 -67.5t-130.5 -23.5q-104 0 -163.5 56.5t-62.5 160.5v16.5 t1.5 27.5t5 48t9.5 77l60 484h-101q-17 0 -27.5 11.5t-8.5 33.5l10 83l154 24l79 297q6 17 18.5 27.5t31.5 10.5h114l-42 -337h655zM1336 1440l-239 -271h-185l-177 271h136q13 0 24 -5t16 -11l93 -122q4 -5 7.5 -10.5t8.5 -12.5q9 12 20 23l120 122q8 5 20 10.5t24 5.5h132 z" />
<glyph unicode="t&#x1e2d;" horiz-adv-x="1176" d="M1073 854l-105 -854h-207l105 854h-448l-59 -472q-5 -41 -8 -65.5t-4.5 -39t-2 -20t-0.5 -8.5q0 -44 21 -67t59 -23q23 0 40.5 6.5t30 14t22 14t17.5 6.5q10 0 15 -4.5t10 -15.5l46 -105q-52 -44 -116.5 -67.5t-130.5 -23.5q-104 0 -163.5 56.5t-62.5 160.5v16.5 t1.5 27.5t5 48t9.5 77l60 484h-101q-17 0 -27.5 11.5t-8.5 33.5l10 83l154 24l79 297q6 17 18.5 27.5t31.5 10.5h114l-42 -337h655zM1161 1328q0 -29 -12 -55t-32 -45.5t-45 -31t-52 -11.5t-51.5 11.5t-43 31t-30 45.5t-11.5 55t11.5 55.5t30.5 46t44 31t51 11.5 q27 0 52.5 -11.5t45 -31t31 -45.5t11.5 -56zM919 -165q30 0 49 18.5t24 61.5h121q-6 -52 -24 -94.5t-44.5 -73t-61 -47t-73.5 -16.5q-33 0 -59.5 13.5t-50 29.5t-44 29.5t-39.5 13.5q-30 0 -48.5 -19.5t-23.5 -62.5h-122q6 52 24 95t45 73.5t61.5 47.5t73.5 17 q33 0 60 -13.5t50 -29.5t43 -29.5t39 -13.5z" />
<glyph unicode="t&#x1e2f;" horiz-adv-x="1175" d="M1073 854l-105 -854h-207l105 854h-448l-59 -472q-5 -41 -8 -65.5t-4.5 -39t-2 -20t-0.5 -8.5q0 -44 21 -67t59 -23q23 0 40.5 6.5t30 14t22 14t17.5 6.5q10 0 15 -4.5t10 -15.5l46 -105q-52 -44 -116.5 -67.5t-130.5 -23.5q-104 0 -163.5 56.5t-62.5 160.5v16.5 t1.5 27.5t5 48t9.5 77l60 484h-101q-17 0 -27.5 11.5t-8.5 33.5l10 83l154 24l79 297q6 17 18.5 27.5t31.5 10.5h114l-42 -337h655zM1391 1774l-252 -259q-17 -18 -31.5 -25t-37.5 -7h-118l160 242q16 25 34.5 37t52.5 12h192zM967 1291q0 -26 -10.5 -48.5t-28 -39 t-40.5 -26.5t-49 -10q-25 0 -47.5 10t-39.5 26.5t-27 39t-10 48.5t10 49.5t27 41t39.5 27.5t47.5 10q26 0 49 -10t40.5 -27.5t28 -41t10.5 -49.5zM1340 1291q0 -26 -10 -48.5t-27.5 -39t-40.5 -26.5t-49 -10t-48.5 10t-39.5 26.5t-27 39t-10 48.5t10 49.5t27 41t39.5 27.5 t48.5 10t49 -10t40.5 -27.5t27.5 -41t10 -49.5z" />
<glyph unicode="t&#x268;" horiz-adv-x="1211" d="M1020 1185q-27 0 -51.5 11.5t-43 31t-30 45.5t-11.5 55t11.5 55.5t30.5 46t44 31t51 11.5q27 0 52.5 -11.5t45 -31t31 -45.5t11.5 -56q0 -29 -12 -55t-32 -45.5t-45 -31t-52 -11.5zM1157 418h-138l-51 -418h-207l51 418h-127l18 150h128l35 286h-448l-59 -472 q-5 -41 -8 -65.5t-4.5 -39t-2 -20t-0.5 -8.5q0 -44 21 -67t59 -23q23 0 40.5 6.5t30 14t22 14t17.5 6.5q10 0 15 -4.5t10 -15.5l46 -105q-52 -44 -116.5 -67.5t-130.5 -23.5q-104 0 -163.5 56.5t-62.5 160.5v16.5t1.5 27.5t5 48t9.5 77l60 484h-101q-17 0 -27.5 11.5 t-8.5 33.5l10 83l154 24l79 297q6 17 18.5 27.5t31.5 10.5h114l-42 -337h655l-18 -150l-35 -286h137z" />
<glyph unicode="t&#x20b;" horiz-adv-x="1176" d="M1073 854l-105 -854h-207l105 854h-448l-59 -472q-5 -41 -8 -65.5t-4.5 -39t-2 -20t-0.5 -8.5q0 -44 21 -67t59 -23q23 0 40.5 6.5t30 14t22 14t17.5 6.5q10 0 15 -4.5t10 -15.5l46 -105q-52 -44 -116.5 -67.5t-130.5 -23.5q-104 0 -163.5 56.5t-62.5 160.5v16.5 t1.5 27.5t5 48t9.5 77l60 484h-101q-17 0 -27.5 11.5t-8.5 33.5l10 83l154 24l79 297q6 17 18.5 27.5t31.5 10.5h114l-42 -337h655zM1037 1455q75 0 123.5 -22t75 -60t34 -88.5t1.5 -106.5h-138q3 31 0 56.5t-15.5 44t-36 28.5t-60.5 10t-62.5 -10t-42 -28.5t-25.5 -44 t-12 -56.5h-139q6 56 25.5 106.5t55 88.5t88.5 60t128 22z" />
<glyph unicode="t&#x209;" horiz-adv-x="1176" d="M1073 854l-105 -854h-207l105 854h-448l-59 -472q-5 -41 -8 -65.5t-4.5 -39t-2 -20t-0.5 -8.5q0 -44 21 -67t59 -23q23 0 40.5 6.5t30 14t22 14t17.5 6.5q10 0 15 -4.5t10 -15.5l46 -105q-52 -44 -116.5 -67.5t-130.5 -23.5q-104 0 -163.5 56.5t-62.5 160.5v16.5 t1.5 27.5t5 48t9.5 77l60 484h-101q-17 0 -27.5 11.5t-8.5 33.5l10 83l154 24l79 297q6 17 18.5 27.5t31.5 10.5h114l-42 -337h655zM1052 1456q34 0 50 -12t25 -37l94 -242h-81q-23 0 -37.5 6.5t-25.5 25.5l-154 259h129zM760 1456q34 0 48.5 -12.5t26.5 -36.5l137 -242h-93 q-23 0 -37 7t-27 25l-197 259h142z" />
<glyph unicode="tti" horiz-adv-x="1763" d="M1555 0h-206l105 854h-431l-58 -472q-5 -41 -8 -65.5t-4.5 -39t-2 -20t-0.5 -8.5q0 -44 21 -67t59 -23q23 0 40.5 6.5t30 14t22 14t17.5 6.5q10 0 15 -4.5t10 -15.5l46 -105q-52 -44 -116.5 -67.5t-130.5 -23.5q-104 0 -163.5 56.5t-62.5 160.5v16.5t1.5 27.5t5 48 t9.5 77l60 484h-396l-59 -472q-5 -41 -8 -65.5t-4.5 -39t-2 -20t-0.5 -8.5q0 -44 21 -67t59 -23q23 0 40.5 6.5t30 14t22 14t17.5 6.5q10 0 15 -4.5t10 -15.5l46 -105q-52 -44 -116.5 -67.5t-130.5 -23.5q-104 0 -163.5 56.5t-62.5 160.5v16.5t1.5 27.5t5 48t9.5 77l60 484 h-101q-17 0 -27.5 11.5t-8.5 33.5l10 83l154 24l79 297q6 17 18.5 27.5t31.5 10.5h114l-42 -337h404l80 299q6 17 18.5 27.5t31.5 10.5h113l-41 -337h637zM1756 1328q0 -29 -12 -55t-32 -45.5t-45 -31t-52 -11.5t-51.5 11.5t-43 31t-30 45.5t-11.5 55t11.5 55.5t30.5 46 t44 31t51 11.5q27 0 52.5 -11.5t45 -31t31 -45.5t11.5 -56z" />
<glyph unicode="tt&#xec;" horiz-adv-x="1762" d="M1555 0h-206l105 854h-431l-58 -472q-5 -41 -8 -65.5t-4.5 -39t-2 -20t-0.5 -8.5q0 -44 21 -67t59 -23q23 0 40.5 6.5t30 14t22 14t17.5 6.5q10 0 15 -4.5t10 -15.5l46 -105q-52 -44 -116.5 -67.5t-130.5 -23.5q-104 0 -163.5 56.5t-62.5 160.5v16.5t1.5 27.5t5 48 t9.5 77l60 484h-396l-59 -472q-5 -41 -8 -65.5t-4.5 -39t-2 -20t-0.5 -8.5q0 -44 21 -67t59 -23q23 0 40.5 6.5t30 14t22 14t17.5 6.5q10 0 15 -4.5t10 -15.5l46 -105q-52 -44 -116.5 -67.5t-130.5 -23.5q-104 0 -163.5 56.5t-62.5 160.5v16.5t1.5 27.5t5 48t9.5 77l60 484 h-101q-17 0 -27.5 11.5t-8.5 33.5l10 83l154 24l79 297q6 17 18.5 27.5t31.5 10.5h114l-42 -337h404l80 299q6 17 18.5 27.5t31.5 10.5h113l-41 -337h637zM1520 1456q33 0 48.5 -12t26.5 -37l106 -242h-113q-22 0 -35.5 7t-26.5 25l-192 259h186z" />
<glyph unicode="tt&#xed;" horiz-adv-x="1762" d="M1555 0h-206l105 854h-431l-58 -472q-5 -41 -8 -65.5t-4.5 -39t-2 -20t-0.5 -8.5q0 -44 21 -67t59 -23q23 0 40.5 6.5t30 14t22 14t17.5 6.5q10 0 15 -4.5t10 -15.5l46 -105q-52 -44 -116.5 -67.5t-130.5 -23.5q-104 0 -163.5 56.5t-62.5 160.5v16.5t1.5 27.5t5 48 t9.5 77l60 484h-396l-59 -472q-5 -41 -8 -65.5t-4.5 -39t-2 -20t-0.5 -8.5q0 -44 21 -67t59 -23q23 0 40.5 6.5t30 14t22 14t17.5 6.5q10 0 15 -4.5t10 -15.5l46 -105q-52 -44 -116.5 -67.5t-130.5 -23.5q-104 0 -163.5 56.5t-62.5 160.5v16.5t1.5 27.5t5 48t9.5 77l60 484 h-101q-17 0 -27.5 11.5t-8.5 33.5l10 83l154 24l79 297q6 17 18.5 27.5t31.5 10.5h114l-42 -337h404l80 299q6 17 18.5 27.5t31.5 10.5h113l-41 -337h637zM1927 1456l-252 -259q-17 -18 -31.5 -25t-37.5 -7h-118l160 242q16 25 34.5 37t52.5 12h192z" />
<glyph unicode="tt&#xee;" horiz-adv-x="1762" d="M1555 0h-206l105 854h-431l-58 -472q-5 -41 -8 -65.5t-4.5 -39t-2 -20t-0.5 -8.5q0 -44 21 -67t59 -23q23 0 40.5 6.5t30 14t22 14t17.5 6.5q10 0 15 -4.5t10 -15.5l46 -105q-52 -44 -116.5 -67.5t-130.5 -23.5q-104 0 -163.5 56.5t-62.5 160.5v16.5t1.5 27.5t5 48 t9.5 77l60 484h-396l-59 -472q-5 -41 -8 -65.5t-4.5 -39t-2 -20t-0.5 -8.5q0 -44 21 -67t59 -23q23 0 40.5 6.5t30 14t22 14t17.5 6.5q10 0 15 -4.5t10 -15.5l46 -105q-52 -44 -116.5 -67.5t-130.5 -23.5q-104 0 -163.5 56.5t-62.5 160.5v16.5t1.5 27.5t5 48t9.5 77l60 484 h-101q-17 0 -27.5 11.5t-8.5 33.5l10 83l154 24l79 297q6 17 18.5 27.5t31.5 10.5h114l-42 -337h404l80 299q6 17 18.5 27.5t31.5 10.5h113l-41 -337h637zM1897 1169h-132q-11 0 -22.5 4t-22.5 18l-88 116q-9 10 -14 21q-5 -6 -10 -11l-10 -10l-116 -116q-11 -11 -24 -16.5 t-25 -5.5h-137l239 271h184z" />
<glyph unicode="tt&#xef;" horiz-adv-x="1762" d="M1555 0h-206l105 854h-431l-58 -472q-5 -41 -8 -65.5t-4.5 -39t-2 -20t-0.5 -8.5q0 -44 21 -67t59 -23q23 0 40.5 6.5t30 14t22 14t17.5 6.5q10 0 15 -4.5t10 -15.5l46 -105q-52 -44 -116.5 -67.5t-130.5 -23.5q-104 0 -163.5 56.5t-62.5 160.5v16.5t1.5 27.5t5 48 t9.5 77l60 484h-396l-59 -472q-5 -41 -8 -65.5t-4.5 -39t-2 -20t-0.5 -8.5q0 -44 21 -67t59 -23q23 0 40.5 6.5t30 14t22 14t17.5 6.5q10 0 15 -4.5t10 -15.5l46 -105q-52 -44 -116.5 -67.5t-130.5 -23.5q-104 0 -163.5 56.5t-62.5 160.5v16.5t1.5 27.5t5 48t9.5 77l60 484 h-101q-17 0 -27.5 11.5t-8.5 33.5l10 83l154 24l79 297q6 17 18.5 27.5t31.5 10.5h114l-42 -337h404l80 299q6 17 18.5 27.5t31.5 10.5h113l-41 -337h637zM1603 1291q0 -26 -10 -48.5t-27.5 -39t-41 -26.5t-49.5 -10q-25 0 -47.5 10t-39.5 26.5t-27 39t-10 48.5t10 49.5 t27 41t39.5 27.5t47.5 10q26 0 49.5 -10t41 -27.5t27.5 -41t10 -49.5zM1910 1291q0 -26 -10 -48.5t-27.5 -39t-40.5 -26.5t-49 -10t-48.5 10t-39.5 26.5t-27 39t-10 48.5t10 49.5t27 41t39.5 27.5t48.5 10t49 -10t40.5 -27.5t27.5 -41t10 -49.5z" />
<glyph unicode="tt&#x12b;" horiz-adv-x="1762" d="M1555 0h-206l105 854h-431l-58 -472q-5 -41 -8 -65.5t-4.5 -39t-2 -20t-0.5 -8.5q0 -44 21 -67t59 -23q23 0 40.5 6.5t30 14t22 14t17.5 6.5q10 0 15 -4.5t10 -15.5l46 -105q-52 -44 -116.5 -67.5t-130.5 -23.5q-104 0 -163.5 56.5t-62.5 160.5v16.5t1.5 27.5t5 48 t9.5 77l60 484h-396l-59 -472q-5 -41 -8 -65.5t-4.5 -39t-2 -20t-0.5 -8.5q0 -44 21 -67t59 -23q23 0 40.5 6.5t30 14t22 14t17.5 6.5q10 0 15 -4.5t10 -15.5l46 -105q-52 -44 -116.5 -67.5t-130.5 -23.5q-104 0 -163.5 56.5t-62.5 160.5v16.5t1.5 27.5t5 48t9.5 77l60 484 h-101q-17 0 -27.5 11.5t-8.5 33.5l10 83l154 24l79 297q6 17 18.5 27.5t31.5 10.5h114l-42 -337h404l80 299q6 17 18.5 27.5t31.5 10.5h113l-41 -337h637zM1351 1361h541l-17 -139h-539z" />
<glyph unicode="tt&#x129;" horiz-adv-x="1762" d="M1555 0h-206l105 854h-431l-58 -472q-5 -41 -8 -65.5t-4.5 -39t-2 -20t-0.5 -8.5q0 -44 21 -67t59 -23q23 0 40.5 6.5t30 14t22 14t17.5 6.5q10 0 15 -4.5t10 -15.5l46 -105q-52 -44 -116.5 -67.5t-130.5 -23.5q-104 0 -163.5 56.5t-62.5 160.5v16.5t1.5 27.5t5 48 t9.5 77l60 484h-396l-59 -472q-5 -41 -8 -65.5t-4.5 -39t-2 -20t-0.5 -8.5q0 -44 21 -67t59 -23q23 0 40.5 6.5t30 14t22 14t17.5 6.5q10 0 15 -4.5t10 -15.5l46 -105q-52 -44 -116.5 -67.5t-130.5 -23.5q-104 0 -163.5 56.5t-62.5 160.5v16.5t1.5 27.5t5 48t9.5 77l60 484 h-101q-17 0 -27.5 11.5t-8.5 33.5l10 83l154 24l79 297q6 17 18.5 27.5t31.5 10.5h114l-42 -337h404l80 299q6 17 18.5 27.5t31.5 10.5h113l-41 -337h637zM1716 1344q30 0 49 18.5t24 61.5h121q-6 -52 -24 -94.5t-44.5 -73t-61 -47t-73.5 -16.5q-33 0 -59.5 13.5t-50 29.5 t-44 29.5t-39.5 13.5q-30 0 -48.5 -19.5t-23.5 -62.5h-122q6 52 24 95t45 73.5t61.5 47.5t73.5 17q33 0 60 -13.5t50 -29.5t43 -29.5t39 -13.5z" />
<glyph unicode="tt&#x12d;" horiz-adv-x="1763" d="M1555 0h-206l105 854h-431l-58 -472q-5 -41 -8 -65.5t-4.5 -39t-2 -20t-0.5 -8.5q0 -44 21 -67t59 -23q23 0 40.5 6.5t30 14t22 14t17.5 6.5q10 0 15 -4.5t10 -15.5l46 -105q-52 -44 -116.5 -67.5t-130.5 -23.5q-104 0 -163.5 56.5t-62.5 160.5v16.5t1.5 27.5t5 48 t9.5 77l60 484h-396l-59 -472q-5 -41 -8 -65.5t-4.5 -39t-2 -20t-0.5 -8.5q0 -44 21 -67t59 -23q23 0 40.5 6.5t30 14t22 14t17.5 6.5q10 0 15 -4.5t10 -15.5l46 -105q-52 -44 -116.5 -67.5t-130.5 -23.5q-104 0 -163.5 56.5t-62.5 160.5v16.5t1.5 27.5t5 48t9.5 77l60 484 h-101q-17 0 -27.5 11.5t-8.5 33.5l10 83l154 24l79 297q6 17 18.5 27.5t31.5 10.5h114l-42 -337h404l80 299q6 17 18.5 27.5t31.5 10.5h113l-41 -337h637zM1613 1163q-75 0 -123 22t-75 60t-34.5 88t-1.5 107h139q-4 -32 -1 -57.5t15.5 -43.5t35.5 -28t61 -10q37 0 62.5 10 t42 28t25 43.5t12.5 57.5h139q-6 -57 -25.5 -107t-54.5 -88t-88.5 -60t-128.5 -22z" />
<glyph unicode="tt&#x1d0;" horiz-adv-x="1762" d="M1555 0h-206l105 854h-431l-58 -472q-5 -41 -8 -65.5t-4.5 -39t-2 -20t-0.5 -8.5q0 -44 21 -67t59 -23q23 0 40.5 6.5t30 14t22 14t17.5 6.5q10 0 15 -4.5t10 -15.5l46 -105q-52 -44 -116.5 -67.5t-130.5 -23.5q-104 0 -163.5 56.5t-62.5 160.5v16.5t1.5 27.5t5 48 t9.5 77l60 484h-396l-59 -472q-5 -41 -8 -65.5t-4.5 -39t-2 -20t-0.5 -8.5q0 -44 21 -67t59 -23q23 0 40.5 6.5t30 14t22 14t17.5 6.5q10 0 15 -4.5t10 -15.5l46 -105q-52 -44 -116.5 -67.5t-130.5 -23.5q-104 0 -163.5 56.5t-62.5 160.5v16.5t1.5 27.5t5 48t9.5 77l60 484 h-101q-17 0 -27.5 11.5t-8.5 33.5l10 83l154 24l79 297q6 17 18.5 27.5t31.5 10.5h114l-42 -337h404l80 299q6 17 18.5 27.5t31.5 10.5h113l-41 -337h637zM1931 1440l-239 -271h-185l-177 271h136q13 0 24 -5t16 -11l93 -122q4 -5 7.5 -10.5t8.5 -12.5q9 12 20 23l120 122 q8 5 20 10.5t24 5.5h132z" />
<glyph unicode="tt&#x1e2d;" horiz-adv-x="1763" d="M1555 0h-206l105 854h-431l-58 -472q-5 -41 -8 -65.5t-4.5 -39t-2 -20t-0.5 -8.5q0 -44 21 -67t59 -23q23 0 40.5 6.5t30 14t22 14t17.5 6.5q10 0 15 -4.5t10 -15.5l46 -105q-52 -44 -116.5 -67.5t-130.5 -23.5q-104 0 -163.5 56.5t-62.5 160.5v16.5t1.5 27.5t5 48 t9.5 77l60 484h-396l-59 -472q-5 -41 -8 -65.5t-4.5 -39t-2 -20t-0.5 -8.5q0 -44 21 -67t59 -23q23 0 40.5 6.5t30 14t22 14t17.5 6.5q10 0 15 -4.5t10 -15.5l46 -105q-52 -44 -116.5 -67.5t-130.5 -23.5q-104 0 -163.5 56.5t-62.5 160.5v16.5t1.5 27.5t5 48t9.5 77l60 484 h-101q-17 0 -27.5 11.5t-8.5 33.5l10 83l154 24l79 297q6 17 18.5 27.5t31.5 10.5h114l-42 -337h404l80 299q6 17 18.5 27.5t31.5 10.5h113l-41 -337h637zM1503 -165q30 0 49 18.5t24 61.5h121q-6 -52 -24 -94.5t-44.5 -73t-61 -47t-73.5 -16.5q-33 0 -59.5 13.5t-50 29.5 t-44 29.5t-39.5 13.5q-30 0 -48.5 -19.5t-23.5 -62.5h-122q6 52 24 95t45 73.5t61.5 47.5t73.5 17q33 0 60 -13.5t50 -29.5t43 -29.5t39 -13.5zM1743 1328q0 -29 -12 -55t-32 -45.5t-45 -31t-52 -11.5t-51.5 11.5t-43 31t-30 45.5t-11.5 55t11.5 55.5t30.5 46t44 31t51 11.5 q27 0 52.5 -11.5t45 -31t31 -45.5t11.5 -56z" />
<glyph unicode="tt&#x1e2f;" horiz-adv-x="1762" d="M1555 0h-206l105 854h-431l-58 -472q-5 -41 -8 -65.5t-4.5 -39t-2 -20t-0.5 -8.5q0 -44 21 -67t59 -23q23 0 40.5 6.5t30 14t22 14t17.5 6.5q10 0 15 -4.5t10 -15.5l46 -105q-52 -44 -116.5 -67.5t-130.5 -23.5q-104 0 -163.5 56.5t-62.5 160.5v16.5t1.5 27.5t5 48 t9.5 77l60 484h-396l-59 -472q-5 -41 -8 -65.5t-4.5 -39t-2 -20t-0.5 -8.5q0 -44 21 -67t59 -23q23 0 40.5 6.5t30 14t22 14t17.5 6.5q10 0 15 -4.5t10 -15.5l46 -105q-52 -44 -116.5 -67.5t-130.5 -23.5q-104 0 -163.5 56.5t-62.5 160.5v16.5t1.5 27.5t5 48t9.5 77l60 484 h-101q-17 0 -27.5 11.5t-8.5 33.5l10 83l154 24l79 297q6 17 18.5 27.5t31.5 10.5h114l-42 -337h404l80 299q6 17 18.5 27.5t31.5 10.5h113l-41 -337h637zM1983 1774l-252 -259q-17 -18 -31.5 -25t-37.5 -7h-118l160 242q16 25 34.5 37t52.5 12h192zM1560 1291 q0 -26 -10.5 -48.5t-28 -39t-40.5 -26.5t-49 -10q-25 0 -47.5 10t-39.5 26.5t-27 39t-10 48.5t10 49.5t27 41t39.5 27.5t47.5 10q26 0 49 -10t40.5 -27.5t28 -41t10.5 -49.5zM1933 1291q0 -26 -10 -48.5t-27.5 -39t-40.5 -26.5t-49 -10t-48.5 10t-39.5 26.5t-27 39t-10 48.5 t10 49.5t27 41t39.5 27.5t48.5 10t49 -10t40.5 -27.5t27.5 -41t10 -49.5z" />
<glyph unicode="tt&#x268;" horiz-adv-x="1799" d="M1605 1185q-27 0 -51.5 11.5t-43 31t-30 45.5t-11.5 55t11.5 55.5t30.5 46t44 31t51 11.5q27 0 52.5 -11.5t45 -31t31 -45.5t11.5 -56q0 -29 -12 -55t-32 -45.5t-45 -31t-52 -11.5zM1744 418h-137l-52 -418h-206l51 418h-128l18 150h129l35 286h-431l-58 -472 q-5 -41 -8 -65.5t-4.5 -39t-2 -20t-0.5 -8.5q0 -44 21 -67t59 -23q23 0 40.5 6.5t30 14t22 14t17.5 6.5q10 0 15 -4.5t10 -15.5l46 -105q-52 -44 -116.5 -67.5t-130.5 -23.5q-104 0 -163.5 56.5t-62.5 160.5v16.5t1.5 27.5t5 48t9.5 77l60 484h-396l-59 -472 q-5 -41 -8 -65.5t-4.5 -39t-2 -20t-0.5 -8.5q0 -44 21 -67t59 -23q23 0 40.5 6.5t30 14t22 14t17.5 6.5q10 0 15 -4.5t10 -15.5l46 -105q-52 -44 -116.5 -67.5t-130.5 -23.5q-104 0 -163.5 56.5t-62.5 160.5v16.5t1.5 27.5t5 48t9.5 77l60 484h-101q-17 0 -27.5 11.5 t-8.5 33.5l10 83l154 24l79 297q6 17 18.5 27.5t31.5 10.5h114l-42 -337h404l80 299q6 17 18.5 27.5t31.5 10.5h113l-41 -337h637l-54 -436h137z" />
<glyph unicode="tt&#x20b;" horiz-adv-x="1762" d="M1555 0h-206l105 854h-431l-58 -472q-5 -41 -8 -65.5t-4.5 -39t-2 -20t-0.5 -8.5q0 -44 21 -67t59 -23q23 0 40.5 6.5t30 14t22 14t17.5 6.5q10 0 15 -4.5t10 -15.5l46 -105q-52 -44 -116.5 -67.5t-130.5 -23.5q-104 0 -163.5 56.5t-62.5 160.5v16.5t1.5 27.5t5 48 t9.5 77l60 484h-396l-59 -472q-5 -41 -8 -65.5t-4.5 -39t-2 -20t-0.5 -8.5q0 -44 21 -67t59 -23q23 0 40.5 6.5t30 14t22 14t17.5 6.5q10 0 15 -4.5t10 -15.5l46 -105q-52 -44 -116.5 -67.5t-130.5 -23.5q-104 0 -163.5 56.5t-62.5 160.5v16.5t1.5 27.5t5 48t9.5 77l60 484 h-101q-17 0 -27.5 11.5t-8.5 33.5l10 83l154 24l79 297q6 17 18.5 27.5t31.5 10.5h114l-42 -337h404l80 299q6 17 18.5 27.5t31.5 10.5h113l-41 -337h637zM1632 1455q75 0 123.5 -22t75 -60t34 -88.5t1.5 -106.5h-138q3 31 0 56.5t-15.5 44t-36 28.5t-60.5 10t-62.5 -10 t-42 -28.5t-25.5 -44t-12 -56.5h-139q6 56 25.5 106.5t55 88.5t88.5 60t128 22z" />
<glyph unicode="tt&#x209;" horiz-adv-x="1763" d="M1555 0h-206l105 854h-431l-58 -472q-5 -41 -8 -65.5t-4.5 -39t-2 -20t-0.5 -8.5q0 -44 21 -67t59 -23q23 0 40.5 6.5t30 14t22 14t17.5 6.5q10 0 15 -4.5t10 -15.5l46 -105q-52 -44 -116.5 -67.5t-130.5 -23.5q-104 0 -163.5 56.5t-62.5 160.5v16.5t1.5 27.5t5 48 t9.5 77l60 484h-396l-59 -472q-5 -41 -8 -65.5t-4.5 -39t-2 -20t-0.5 -8.5q0 -44 21 -67t59 -23q23 0 40.5 6.5t30 14t22 14t17.5 6.5q10 0 15 -4.5t10 -15.5l46 -105q-52 -44 -116.5 -67.5t-130.5 -23.5q-104 0 -163.5 56.5t-62.5 160.5v16.5t1.5 27.5t5 48t9.5 77l60 484 h-101q-17 0 -27.5 11.5t-8.5 33.5l10 83l154 24l79 297q6 17 18.5 27.5t31.5 10.5h114l-42 -337h404l80 299q6 17 18.5 27.5t31.5 10.5h113l-41 -337h637zM1634 1456q34 0 50 -12t25 -37l94 -242h-81q-23 0 -37.5 6.5t-25.5 25.5l-154 259h129zM1342 1456q34 0 48.5 -12.5 t26.5 -36.5l137 -242h-93q-23 0 -37 7t-27 25l-197 259h142z" />
<glyph />
<glyph />
<glyph unicode=" "  horiz-adv-x="452" />
<glyph unicode="&#x09;" horiz-adv-x="452" />
<glyph unicode="&#xa0;" horiz-adv-x="452" />
<glyph unicode="!" horiz-adv-x="518" d="M452 1440l-70 -573q-5 -45 -12.5 -88.5t-16.5 -87.5t-20 -90t-23 -97h-140q0 51 0.5 97t2.5 90t5.5 87.5t9.5 88.5l70 573h194zM68 124q0 29 10.5 54.5t29.5 44.5t44 30t55 11q29 0 54.5 -11t44 -30t29.5 -44.5t11 -54.5q0 -30 -11 -55t-29.5 -44t-44 -29.5t-54.5 -10.5 q-30 0 -55 10.5t-44 29.5t-29.5 44t-10.5 55z" />
<glyph unicode="&#x22;" horiz-adv-x="720" d="M389 1439l-36 -289l-38 -156q-10 -37 -28 -57t-53 -20q-31 0 -44.5 20t-16.5 57v156l36 289h180zM712 1439l-36 -289l-38 -156q-10 -37 -28 -57t-53 -20q-31 0 -44.5 20t-16.5 57v156l36 289h180z" />
<glyph unicode="#" horiz-adv-x="1160" d="M750 872h-229l-97 -304h230zM1170 1023l-28 -86q-9 -34 -31.5 -49.5t-67.5 -15.5h-123l-96 -304h163q32 0 44.5 -19t0.5 -67l-20 -66h-229l-131 -416h-95q-15 0 -26.5 7t-18.5 19t-8.5 28t4.5 34l105 328h-230l-106 -338q-12 -43 -41 -60.5t-62 -17.5h-93l132 416h-132 q-32 0 -44.5 19.5t0.5 65.5l19 67h198l96 304h-224l26 87q10 33 33 48.5t68 15.5h138l109 344q11 34 38 53t61 19h95l-133 -416h229l132 416h93q32 0 49 -21.5t6 -53.5l-109 -341h209z" />
<glyph unicode="$" horiz-adv-x="1160" d="M654 1275q-68 -7 -116.5 -27.5t-80.5 -51t-47 -68.5t-15 -80q0 -38 13.5 -66.5t37 -51t56 -39.5t70.5 -32zM563 161q67 7 119.5 29.5t88 58t54 82t18.5 102.5q0 39 -14.5 68t-40 50.5t-60 38t-74.5 30.5zM1056 1214q-14 -18 -27 -26t-30 -8q-14 0 -33 11.5t-45 26.5 t-60 30.5t-78 23.5l-90 -454q64 -21 127 -45.5t113.5 -62t81.5 -92t31 -134.5q0 -97 -36 -184t-103 -154.5t-163 -110.5t-216 -50l-32 -163q-3 -20 -21 -36.5t-42 -16.5h-77l44 220q-117 14 -212 62.5t-158 121.5l74 95q11 13 25.5 21t31.5 8q20 0 42 -17.5t53 -40t73.5 -45 t104.5 -31.5l98 495q-62 19 -122.5 44t-108 63t-76.5 95t-29 141q0 85 34 165t98 142t155.5 101t206.5 44l26 134q4 22 22 38.5t42 16.5h76l-39 -195q104 -15 175.5 -57t121.5 -99z" />
<glyph unicode="%" horiz-adv-x="1506" d="M747 1147q0 -97 -30 -173.5t-79.5 -130t-112.5 -81.5t-129 -28q-59 0 -107 21t-82.5 60.5t-53.5 95.5t-19 126q0 97 27.5 174t75.5 131t111.5 83t135.5 29q58 0 106.5 -21.5t83.5 -61t54 -96.5t19 -128zM586 1146q0 91 -33.5 131.5t-84.5 40.5q-37 0 -68.5 -15.5 t-55 -49.5t-37 -87.5t-13.5 -128.5q0 -89 33.5 -127.5t84.5 -38.5q36 0 67.5 14.5t55.5 47.5t37.5 85.5t13.5 127.5zM1231 1405q13 13 29.5 23.5t43.5 10.5h149l-1153 -1407q-12 -14 -28.5 -23t-39.5 -9h-153zM1399 396q0 -98 -30 -174.5t-79.5 -129.5t-112.5 -81t-129 -28 q-59 0 -107 21t-82.5 60t-53.5 95t-19 125q0 97 27.5 174.5t75.5 131.5t111.5 83t135.5 29q58 0 106.5 -21t83.5 -61t54 -96.5t19 -127.5zM1238 395q0 91 -33.5 130.5t-84.5 39.5q-37 0 -68.5 -15.5t-55 -49.5t-37 -87.5t-13.5 -128.5q0 -44 9 -75.5t24.5 -51.5t37 -29 t47.5 -9q36 0 67.5 15t55.5 48t37.5 85.5t13.5 127.5z" />
<glyph unicode="&#x26;" horiz-adv-x="1326" d="M458 688q-102 -60 -149 -142t-47 -176q0 -51 15 -92t43 -69t67.5 -43t87.5 -15q83 0 158 35t139 95zM1248 0h-178q-26 0 -44 3t-32.5 10.5t-26.5 19t-25 28.5l-72 93q-94 -79 -205 -124.5t-234 -45.5q-87 0 -158 25t-121 71.5t-77 113t-27 149.5q0 78 25.5 147.5 t70.5 127t105.5 103.5t131.5 78q-36 64 -52.5 127t-16.5 123q0 84 29 157.5t83 129t130.5 87.5t171.5 32q78 0 138.5 -25t102 -68t62.5 -100t20 -121l-123 -24q-26 -5 -40 2t-21 33q-6 27 -18 53t-31 45.5t-46 31.5t-63 12q-46 0 -83 -18t-63.5 -49t-40.5 -73.5t-14 -90.5 q0 -103 87 -221l308 -396q37 63 62.5 131t38.5 137q4 20 14.5 33t32.5 13h145q-17 -125 -64 -241t-119 -214z" />
<glyph unicode="'" horiz-adv-x="397" d="M389 1439l-36 -289l-38 -156q-10 -37 -28 -57t-53 -20q-31 0 -44.5 20t-16.5 57v156l36 289h180z" />
<glyph unicode="(" horiz-adv-x="525" d="M257 437q0 -71 6.5 -149.5t19 -157t31.5 -153.5t44 -140q7 -18 7 -31t-5 -23t-13 -17t-18 -13l-98 -56q-41 85 -70.5 177t-48 185t-27.5 184.5t-9 175.5q0 145 17 282t60.5 275t117.5 281.5t188 301.5l86 -56q7 -6 13.5 -13t8.5 -17t-1 -23t-14 -31q-69 -112 -124 -225 t-93 -233t-58 -250t-20 -274z" />
<glyph unicode=")" horiz-adv-x="525" d="M272 819q0 71 -6.5 149.5t-19.5 157t-32 153.5t-43 140q-13 35 -2 54t31 30l98 56q41 -86 70.5 -177.5t48 -184t27.5 -184t9 -176.5q0 -146 -17 -282.5t-60.5 -274.5t-117.5 -281.5t-188 -301.5l-85 56q-8 6 -14 13t-8.5 17t1 23t14.5 31q69 112 123.5 227t92.5 236.5 t58 250.5t20 268z" />
<glyph unicode="*" horiz-adv-x="791" d="M606 1207q-19 -10 -37 -17t-35 -9q17 -2 33.5 -8.5t32.5 -18.5l138 -97l-59 -85l-139 96q-15 10 -27 20t-21 24q9 -30 4 -69l-24 -192h-100l24 190q2 20 6.5 37.5t12.5 33.5q-23 -24 -58 -44l-161 -96l-39 86l161 96q38 23 74 27q-18 2 -34.5 8.5t-32.5 17.5l-139 97 l60 87l139 -98q32 -21 49 -46q-5 17 -6 34t1 37l24 192h100l-24 -190q-4 -40 -21 -73q23 26 60 46l162 96l38 -86z" />
<glyph unicode="+" horiz-adv-x="1160" d="M1061 593h-399l-52 -421h-169l52 421h-398l20 157h397l52 419h168l-51 -419h400z" />
<glyph unicode="," horiz-adv-x="460" d="M167 1q-29 0 -53 10.5t-41 29t-26.5 43.5t-9.5 55q0 53 36 89t96 36q34 0 60 -12.5t43.5 -34t26 -50t8.5 -60.5q0 -46 -13.5 -97t-40 -101.5t-65 -98.5t-87.5 -88l-38 35q-15 14 -15 32q0 13 16.5 32t37.5 45.5t41.5 59.5t28.5 75h-5z" />
<glyph unicode="-" horiz-adv-x="698" d="M123 689h470l-22 -175h-469z" />
<glyph unicode="&#xad;" horiz-adv-x="698" d="M123 689h470l-22 -175h-469z" />
<glyph unicode="." horiz-adv-x="472" d="M41 124q0 29 10.5 54.5t29.5 44.5t44 30t55 11q29 0 54.5 -11t44 -30t29.5 -44.5t11 -54.5q0 -30 -11 -55t-29.5 -44t-44 -29.5t-54.5 -10.5q-30 0 -55 10.5t-44 29.5t-29.5 44t-10.5 55z" />
<glyph unicode="/" horiz-adv-x="848" d="M182 -15q-20 -39 -54 -59t-66 -20h-88l713 1472q18 35 48 55t68 20h87z" />
<glyph unicode="0" horiz-adv-x="1160" d="M1090 877q0 -227 -47 -394.5t-127.5 -278t-187.5 -165t-226 -54.5q-89 0 -163.5 36t-128.5 108t-84 180.5t-30 252.5q0 226 46.5 394t126.5 279t186.5 166t226.5 55q89 0 164 -36t129 -108.5t84.5 -181t30.5 -253.5zM877 888q0 108 -17.5 183t-47 121.5t-68.5 67.5 t-83 21q-66 0 -129.5 -37.5t-113 -124t-80 -226.5t-30.5 -344q0 -108 17 -182t46 -120.5t68 -67t83 -20.5q66 0 129.5 37t114 122.5t81 225t30.5 344.5z" />
<glyph unicode="1" horiz-adv-x="1160" d="M943 157l-20 -157h-727l20 157h273l114 919q3 23 6.5 46t7.5 47l-230 -197q-16 -12 -31 -15t-28 -0.5t-22.5 9t-13.5 14.5l-54 90l447 372h170l-158 -1285h246z" />
<glyph unicode="2" horiz-adv-x="1160" d="M902 196q33 0 50.5 -19.5t13.5 -51.5l-15 -125h-902l9 70q2 21 13.5 45t33.5 43l465 452q67 65 118.5 122.5t86.5 113.5t53 114t18 125q0 96 -50 144.5t-132 48.5q-44 0 -82.5 -14.5t-70 -40t-55.5 -61t-38 -77.5q-19 -39 -43.5 -53t-66.5 -6l-107 19q26 101 74.5 178 t113 128.5t143.5 78t166 26.5q81 0 148 -25t114.5 -70.5t73.5 -110.5t26 -146q0 -92 -27 -167.5t-73 -143t-107 -131t-129 -129.5l-374 -366q46 13 92 21t86 8h374z" />
<glyph unicode="3" horiz-adv-x="1160" d="M205 1045q26 101 74.5 178t113 128.5t143.5 78t166 26.5q82 0 147.5 -24t111 -67.5t70 -103.5t24.5 -131q0 -80 -18 -141t-52 -106t-83.5 -76t-111.5 -50q106 -36 158.5 -109.5t52.5 -179.5q0 -114 -42 -203.5t-112 -152t-161.5 -95.5t-190.5 -33q-102 0 -173 27 t-119 76.5t-76.5 119t-43.5 154.5l95 39q38 15 68.5 8t41.5 -36q12 -31 26.5 -68t39 -68.5t62.5 -53t97 -21.5q67 0 119.5 26t88.5 68.5t55 97.5t19 113q0 42 -13.5 78t-46.5 62.5t-89.5 41t-141.5 14.5l18 150q87 1 149 20t101.5 54.5t58 87t18.5 116.5q0 93 -49 140.5 t-131 47.5q-44 0 -83 -14.5t-71 -40t-56 -61t-38 -77.5q-19 -39 -43.5 -53t-66.5 -6z" />
<glyph unicode="4" horiz-adv-x="1160" d="M698 530l66 539q6 51 20 115l-517 -654h431zM1056 530l-14 -121q-2 -17 -15 -30t-34 -13h-135l-45 -366h-180l45 366h-570q-21 0 -35.5 13.5t-16.5 33.5l-8 106l747 921h195l-112 -910h178z" />
<glyph unicode="5" horiz-adv-x="1160" d="M1061 1440l-11 -90q-5 -45 -36.5 -73t-97.5 -28h-379l-97 -342q49 11 92.5 15.5t83.5 4.5q94 0 164.5 -29t118 -80t71 -119.5t23.5 -147.5q0 -128 -44 -232.5t-119.5 -178.5t-176.5 -115t-215 -41q-61 0 -114.5 13t-99 35t-83 51t-66.5 61l74 89q25 28 58 28 q21 0 43 -15.5t51 -34.5t70 -34.5t101 -15.5q74 0 132 28t97.5 77.5t60.5 115.5t21 143q0 105 -58.5 167.5t-173.5 62.5q-48 0 -99.5 -9t-105.5 -28l-124 37l193 685h646z" />
<glyph unicode="6" horiz-adv-x="1067" d="M523 156q64 0 119 25t95.5 69.5t63.5 105t23 132.5q0 56 -15.5 101.5t-45 77t-71 48.5t-92.5 17q-63 0 -116.5 -26t-93 -71t-61.5 -105.5t-22 -130.5q0 -53 14 -98t41 -77t67.5 -50t93.5 -18zM550 908q-15 -18 -29.5 -35t-28.5 -34q44 24 93.5 37.5t104.5 13.5 q70 0 132.5 -24.5t109 -71.5t74 -115.5t27.5 -157.5q0 -113 -40 -210.5t-110.5 -170.5t-167 -114.5t-209.5 -41.5q-93 0 -166.5 30.5t-124.5 86.5t-78 134t-27 173q0 64 13 125.5t40 123t67.5 124.5t95.5 131l382 477q17 21 48.5 36t67.5 15h184z" />
<glyph unicode="7" horiz-adv-x="1160" d="M1145 1440l-11 -92q-5 -40 -17 -65.5t-22 -43.5l-661 -1167q-18 -30 -46.5 -51t-73.5 -21h-149l668 1148q20 30 38.5 54.5t40.5 46.5h-654q-19 0 -31.5 14.5t-10.5 34.5l17 142h912z" />
<glyph unicode="8" horiz-adv-x="1160" d="M522 148q66 0 118 22.5t88 63t54.5 96.5t18.5 123q0 54 -16.5 93.5t-45 65.5t-68 38.5t-85.5 12.5q-55 0 -105.5 -16.5t-88.5 -52.5t-61 -93t-23 -138q0 -47 13.5 -86t40.5 -68t67 -45t93 -16zM664 1296q-60 0 -105 -21.5t-75.5 -58.5t-45.5 -86.5t-15 -104.5 q0 -38 9.5 -73.5t31.5 -63t57 -44t85 -16.5q61 0 106.5 22t75.5 59.5t45 87.5t15 107q0 39 -11 74t-33.5 61t-57.5 41.5t-82 15.5zM804 750q106 -37 158 -113t52 -186q0 -107 -38.5 -193.5t-107 -147.5t-162 -93.5t-203.5 -32.5q-94 0 -169.5 26t-129 73.5t-82.5 114.5 t-29 150q0 155 74 258t224 147q-85 38 -127 108.5t-42 165.5q0 91 35 169t97 136t146 91t183 33q84 0 152 -26.5t116 -72.5t74 -108t26 -133q0 -131 -62.5 -226t-184.5 -140z" />
<glyph unicode="9" horiz-adv-x="1160" d="M382 964q0 -105 52.5 -163t150.5 -58q65 0 117 24.5t88.5 66.5t56 98t19.5 119q0 53 -15 96t-42 73t-65.5 46.5t-85.5 16.5q-60 0 -111 -23.5t-87.5 -65.5t-57 -101t-20.5 -129zM658 567q20 24 38 46t34 44q-51 -36 -111.5 -54.5t-124.5 -18.5q-65 0 -123 23.5 t-102.5 68.5t-70.5 111t-26 152q0 107 39 201.5t107 164.5t161.5 110.5t201.5 40.5q90 0 161 -30t120 -83.5t75 -128t26 -162.5q0 -75 -14.5 -140.5t-41.5 -126.5t-66.5 -121t-88.5 -125l-370 -491q-17 -20 -47 -34t-65 -14h-191z" />
<glyph unicode=":" horiz-adv-x="508" d="M59 124q0 29 10.5 54.5t29.5 44.5t44 30t55 11q29 0 54.5 -11t44 -30t29.5 -44.5t11 -54.5q0 -30 -11 -55t-29.5 -44t-44 -29.5t-54.5 -10.5q-30 0 -55 10.5t-44 29.5t-29.5 44t-10.5 55zM141 853q0 29 10.5 54.5t29.5 44.5t44 30t55 11q29 0 54.5 -11t44 -30t29.5 -44.5 t11 -54.5q0 -30 -11 -55t-29.5 -44t-44 -29.5t-54.5 -10.5q-30 0 -55 10.5t-44 29.5t-29.5 44t-10.5 55z" />
<glyph unicode=";" horiz-adv-x="531" d="M205 1q-29 0 -53 10.5t-41 29t-26.5 43.5t-9.5 55q0 53 36 89t96 36q34 0 60 -12.5t43.5 -34t26 -50t8.5 -60.5q0 -46 -13.5 -97t-40 -101.5t-65 -98.5t-87.5 -88l-38 35q-15 14 -15 32q0 13 16.5 32t37.5 45.5t41.5 59.5t28.5 75h-5zM152 853q0 29 10.5 54.5t29.5 44.5 t44 30t55 11q29 0 54.5 -11t44 -30t29.5 -44.5t11 -54.5q0 -30 -11 -55t-29.5 -44t-44 -29.5t-54.5 -10.5q-30 0 -55 10.5t-44 29.5t-29.5 44t-10.5 55z" />
<glyph unicode="&#x3c;" horiz-adv-x="1160" d="M1005 1126l-19 -155q-2 -18 -13 -33t-34 -26l-429 -205q-45 -20 -101 -34q52 -12 92 -34l380 -204q37 -21 32 -60l-19 -154l-733 408l8 66l3 23z" />
<glyph unicode="=" horiz-adv-x="1160" d="M139 580h870l-19 -156h-871zM181 922h870l-18 -156h-871z" />
<glyph unicode="&#x3e;" horiz-adv-x="1160" d="M1006 651l-3 -22l-834 -408l20 154q2 19 13 34t34 26l428 204q45 22 101 34q-52 13 -92 34l-379 205q-20 11 -27 26t-5 33l18 155l734 -408z" />
<glyph unicode="?" horiz-adv-x="850" d="M153 1309q34 30 74 56.5t85 46.5t96 31.5t109 11.5q74 0 132.5 -22t99 -60t61.5 -89.5t21 -111.5q0 -84 -23 -143t-58 -101.5t-77.5 -74t-81.5 -61t-70 -61.5t-43 -76l-39 -151h-142l7 165q2 49 27.5 87t62.5 70.5t80 63.5t79.5 66t61 77.5t24.5 99.5q0 70 -42 111 t-118 41q-54 0 -93 -14t-67.5 -30.5t-47.5 -30.5t-34 -14t-23 6t-16 21zM206 124q0 29 10.5 54.5t29.5 44.5t44 30t55 11q29 0 54.5 -11t44 -30t29.5 -44.5t11 -54.5q0 -30 -11 -55t-29.5 -44t-44 -29.5t-54.5 -10.5q-30 0 -55 10.5t-44 29.5t-29.5 44t-10.5 55z" />
<glyph unicode="@" horiz-adv-x="1540" d="M976 814q-29 7 -67 7q-66 0 -126 -33t-105 -86.5t-72 -122t-27 -138.5q0 -54 22.5 -86t67.5 -32q25 0 51.5 9t53 32t51.5 62t46 99zM1032 545q-24 -71 -29.5 -115.5t3.5 -70t29 -34.5t47 -9q48 0 92.5 34.5t79 96t55 146t20.5 184.5q0 112 -32 197t-90.5 143t-141 87.5 t-182.5 29.5q-89 0 -172 -26t-155 -74.5t-131.5 -117.5t-102 -154.5t-66 -185.5t-23.5 -210q0 -138 38.5 -244.5t108.5 -178.5t166.5 -109t213.5 -37q71 0 133 8.5t114.5 22.5t95 32t74.5 38q19 11 33.5 12.5t24.5 -3t16.5 -13.5t9.5 -20l15 -60q-106 -70 -237 -112 t-294 -42q-149 0 -271 48.5t-209 139t-135 220t-48 290.5q0 126 30 242.5t84 217.5t129.5 184t166 142.5t194 92t214.5 32.5q119 0 224 -41t183.5 -117.5t124 -186t45.5 -247.5q0 -126 -35 -234.5t-95 -188t-140 -124.5t-170 -45q-66 0 -109.5 34t-51.5 107 q-63 -75 -128.5 -107t-137.5 -32q-50 0 -86.5 17.5t-60.5 48.5t-35.5 73.5t-11.5 91.5q0 61 16 124t47.5 122.5t77.5 111.5t106 91.5t134 62t161 22.5q68 0 116 -10.5t91 -31.5z" />
<glyph unicode="A" horiz-adv-x="1282" d="M859 538l-114 539q-5 31 -12.5 71t-14.5 88q-17 -48 -34 -88.5t-31 -72.5l-246 -537h452zM1205 0h-174q-30 0 -46.5 14.5t-23.5 38.5l-68 323h-561l-148 -323q-10 -21 -31.5 -37t-49.5 -16h-176l701 1440h229z" />
<glyph unicode="B" horiz-adv-x="1217" d="M596 178q74 0 129 20t91 56.5t53.5 87.5t17.5 114q0 87 -56.5 138t-177.5 51h-262l-57 -467h262zM467 1263l-56 -460h210q148 0 224 71t76 202q0 97 -57 142t-175 45h-222zM709 1440q116 0 199.5 -23t137 -65.5t78.5 -102.5t25 -134q0 -63 -17.5 -120t-53 -105.5 t-89.5 -86.5t-128 -62q125 -30 186.5 -101t61.5 -180q0 -100 -36.5 -184t-105 -145.5t-167 -96t-222.5 -34.5h-491l177 1440h445z" />
<glyph unicode="C" horiz-adv-x="1245" d="M681 178q63 0 111.5 10t84.5 25.5t61.5 33.5t44.5 33.5t33 25.5t27 10q11 0 18 -4.5t11 -9.5l79 -99q-93 -104 -219 -161.5t-289 -57.5q-131 0 -234 47t-174 130t-108.5 198t-37.5 251q0 187 59 342.5t162 267.5t241.5 174t297.5 62q78 0 141.5 -14t115 -39.5t93.5 -61.5 t77 -80l-77 -94q-9 -11 -21 -19t-30 -8q-13 0 -26 9t-29 22.5t-37.5 29t-51.5 29t-70.5 22.5t-95.5 9q-110 0 -205 -44.5t-164.5 -126.5t-109.5 -199t-40 -262q0 -105 27 -189t75 -142t114.5 -89t145.5 -31z" />
<glyph unicode="D" horiz-adv-x="1416" d="M1352 819q0 -121 -26 -228.5t-74 -198.5t-116.5 -164t-153 -123.5t-184 -77.5t-209.5 -27h-502l177 1440h503q135 0 243.5 -46t184 -128.5t116.5 -196.5t41 -250zM1121 813q0 102 -25.5 184.5t-74 140.5t-118.5 89t-158 31h-276l-134 -1076h276q114 0 208 43.5t161 125 t104 198.5t37 264z" />
<glyph unicode="E" horiz-adv-x="1074" d="M468 1257l-54 -443h481l-23 -176h-480l-56 -455h605l-23 -183h-831l177 1440h830l-23 -183h-603z" />
<glyph unicode="F" horiz-adv-x="1061" d="M468 1257l-58 -471h513l-24 -182h-511l-75 -604h-226l177 1440h830l-23 -183h-603z" />
<glyph unicode="G" horiz-adv-x="1358" d="M833 705h431l-70 -566q-55 -39 -113 -68t-122 -48.5t-135.5 -29t-153.5 -9.5q-131 0 -238.5 47.5t-183.5 132t-117.5 201.5t-41.5 255q0 184 58.5 337.5t161 264.5t243.5 172.5t306 61.5q86 0 156 -15t126.5 -41t101.5 -61t82 -75l-72 -94q-18 -26 -43 -31.5t-51 11.5 q-26 16 -53.5 35.5t-64 36.5t-84.5 28t-114 11q-116 0 -212 -45t-165 -128t-107 -200t-38 -260q0 -108 27.5 -193.5t78.5 -145t122.5 -91.5t159.5 -32q93 0 162 19t133 52l36 297h-179q-21 0 -32.5 12t-9.5 30z" />
<glyph unicode="H" horiz-adv-x="1428" d="M1369 1440l-178 -1440h-226l79 644h-651l-80 -644h-226l177 1440h227l-78 -634h651l78 634h227z" />
<glyph unicode="I" horiz-adv-x="549" d="M313 0h-226l176 1440h226z" />
<glyph unicode="J" horiz-adv-x="810" d="M646 490q-15 -120 -53.5 -214t-99.5 -159t-144 -99t-187 -34q-54 0 -101.5 6.5t-96.5 20.5l17 134q2 18 13 30.5t34 12.5q22 0 53 -7.5t82 -7.5q49 0 91.5 16.5t76 53.5t56.5 96.5t34 144.5l116 956h226z" />
<glyph unicode="K" horiz-adv-x="1261" d="M411 820h61q35 0 58.5 10.5t43.5 33.5l455 525q23 30 49.5 40.5t61.5 10.5h192l-540 -612q-41 -50 -83 -70q27 -11 47 -29.5t36 -50.5l398 -678h-197q-42 0 -59.5 12t-29.5 34l-335 554q-14 26 -35 37t-64 11h-80l-79 -648h-224l176 1441h225z" />
<glyph unicode="L" horiz-adv-x="959" d="M880 189l-23 -189h-770l177 1440h225l-154 -1251h545z" />
<glyph unicode="M" horiz-adv-x="1743" d="M1683 1440l-177 -1440h-197l122 994q3 23 8.5 52t12.5 58l-527 -861q-30 -50 -86 -50h-31q-26 0 -46 12.5t-29 37.5l-320 861q-1 -29 -2.5 -56t-3.5 -50l-122 -998h-198l177 1440h168q15 0 25 -1.5t18 -5.5t15 -11t15 -19l322 -860q15 -47 26 -96q11 25 23 49t26 47 l531 860q21 23 36.5 30t44.5 7h169z" />
<glyph unicode="N" horiz-adv-x="1428" d="M1369 1440l-178 -1440h-114q-27 0 -44 9.5t-32 31.5l-587 1036q-2 -23 -3.5 -43.5t-3.5 -38.5l-122 -995h-198l177 1440h117q30 0 43.5 -6t27.5 -31l589 -1036q3 55 9 98l120 975h199z" />
<glyph unicode="O" horiz-adv-x="1499" d="M1438 819q0 -120 -26 -229t-74.5 -201.5t-117.5 -167t-154 -127t-184 -81t-209 -28.5q-135 0 -243.5 48t-184 132.5t-116 200.5t-40.5 253q0 121 26.5 230t74.5 202t117 168t154 127.5t184 81t209 28.5q135 0 243 -48t184 -133.5t116.5 -202t40.5 -253.5zM1206 814 q0 103 -26 186.5t-75 143t-119.5 91.5t-158.5 32q-113 0 -206.5 -45.5t-160 -129.5t-103.5 -202.5t-37 -263.5q0 -103 26 -186.5t74.5 -143t118.5 -91.5t159 -32q114 0 207.5 45.5t160.5 129t103.5 202t36.5 264.5z" />
<glyph unicode="P" horiz-adv-x="1144" d="M591 702q80 0 140.5 24.5t100.5 68t60 104t20 132.5q0 106 -62 169t-191 63h-193l-69 -561h194zM681 1440q118 0 204.5 -28.5t143 -80t83.5 -123t27 -157.5q0 -115 -36.5 -211.5t-108.5 -166.5t-178.5 -109.5t-246.5 -39.5h-194l-64 -524h-224l176 1440h418z" />
<glyph unicode="Q" horiz-adv-x="1499" d="M320 626q0 -103 26 -186.5t74.5 -143t118.5 -91.5t159 -32q114 0 207.5 45.5t160.5 129t103.5 202t36.5 264.5q0 103 -26 186.5t-75 143t-119.5 91.5t-158.5 32q-113 0 -206.5 -45.5t-160 -129.5t-103.5 -202.5t-37 -263.5zM884 14q-102 -29 -211 -29q-135 0 -243.5 48 t-184 132.5t-116 200.5t-40.5 253q0 121 26.5 230t74.5 202t117 168t154 127.5t184 81t209 28.5q135 0 243 -48t184 -133.5t116.5 -202t40.5 -253.5q0 -118 -25 -224t-71 -197.5t-112 -165.5t-147 -127l289 -395h-184q-41 0 -71.5 11.5t-53.5 40.5z" />
<glyph unicode="R" horiz-adv-x="1184" d="M568 747q81 0 142 23.5t101 64.5t60 97t20 121q0 101 -63 155.5t-191 54.5h-171l-63 -516h165zM657 1440q120 0 206.5 -25.5t142.5 -71.5t82.5 -110.5t26.5 -143.5q0 -85 -24.5 -159.5t-70.5 -134.5t-112.5 -103.5t-149.5 -66.5q39 -25 63 -71l282 -554h-201 q-60 0 -80 47l-239 490q-13 25 -30.5 36t-53.5 11h-116l-72 -584h-224l176 1440h394z" />
<glyph unicode="S" horiz-adv-x="1024" d="M935 1197q-13 -17 -25 -25.5t-29 -8.5q-18 0 -38.5 16.5t-49.5 36.5t-70 36.5t-100 16.5t-105 -18t-77.5 -48.5t-47.5 -72t-16 -89.5q0 -49 23.5 -81.5t62.5 -56.5t88 -43t101 -39t101 -45.5t88 -63t62.5 -90.5t23.5 -128q0 -104 -36 -197t-102.5 -162.5t-162 -110 t-214.5 -40.5q-63 0 -122.5 13.5t-111.5 38t-96 59.5t-77 78l79 108q10 12 24.5 20.5t30.5 8.5q22 0 45 -21.5t56.5 -48t81.5 -48t119 -21.5q62 0 112 19t84.5 53.5t53 84t18.5 109.5q0 52 -23.5 86t-62 58t-87.5 41t-100 36t-100 43.5t-87.5 62t-62 93t-23.5 135.5 q0 91 33 174.5t95.5 147.5t151.5 102.5t201 38.5q57 0 109 -11.5t98 -33t83.5 -51.5t66.5 -66z" />
<glyph unicode="T" horiz-adv-x="1103" d="M1151 1252h-408l-154 -1252h-224l153 1252h-410l22 188h1045z" />
<glyph unicode="U" horiz-adv-x="1377" d="M635 181q75 0 137.5 28.5t110 80t77.5 123t41 157.5l107 870h225l-106 -870q-16 -126 -67 -233.5t-131 -186t-186 -123t-232 -44.5t-221 44.5t-155.5 123t-85 186t-8.5 233.5l105 870h225l-106 -870q-11 -86 2 -157.5t47.5 -123t90 -80t130.5 -28.5z" />
<glyph unicode="V" horiz-adv-x="1280" d="M1380 1440l-713 -1440h-204l-361 1440h181q29 0 46.5 -15t21.5 -38l216 -955q10 -38 18 -82.5t14 -92.5q16 48 33.5 92.5t36.5 82.5l448 955q8 20 30.5 36.5t51.5 16.5h181z" />
<glyph unicode="W" horiz-adv-x="1924" d="M2004 1440l-589 -1440h-204l-178 1047q-3 18 -5.5 39t-4.5 44q-8 -23 -15.5 -44t-15.5 -39l-435 -1047h-203l-236 1440h177q29 0 47 -14.5t21 -38.5l140 -943q3 -30 5.5 -64t4.5 -71q11 38 23.5 72t24.5 63l392 943q9 20 30.5 36.5t50.5 16.5h52q29 0 46.5 -15t23.5 -38 l161 -943q5 -29 9 -62t6 -69q11 36 21 69t20 62l371 943q7 21 30.5 37t52.5 16h177z" />
<glyph unicode="X" horiz-adv-x="1240" d="M798 779l370 -779h-202q-23 0 -36 13t-20 28l-269 601q-8 -16 -20 -33l-401 -568q-15 -23 -33 -32t-39 -9h-225l563 769l-330 671h204q23 0 33.5 -7t18.5 -24l237 -518q5 10 11 20t13 21l334 475q11 17 23.5 25t29.5 8h234z" />
<glyph unicode="Y" horiz-adv-x="1191" d="M703 567l-71 -567h-225l71 567l-377 873h200q29 0 45.5 -14.5t24.5 -37.5l211 -533q22 -64 34 -125q14 30 30.5 60.5t36.5 64.5l344 533q12 20 31.5 36t48.5 16h187z" />
<glyph unicode="Z" horiz-adv-x="1117" d="M1154 1369q-2 -16 -9 -29.5t-17 -27.5l-833 -1129h700l-23 -183h-1004l9 70q2 16 9 29t16 27l836 1131h-675l23 183h978z" />
<glyph unicode="[" horiz-adv-x="589" d="M637 1457q-2 -22 -20 -37.5t-42 -15.5h-135l-193 -1565h137q24 0 37.5 -16t10.5 -39l-10 -81h-364l225 1837h364z" />
<glyph unicode="\" horiz-adv-x="841" d="M161 1453h87q38 0 63.5 -20t34.5 -55l351 -1472h-87q-33 0 -62 20t-39 59z" />
<glyph unicode="]" horiz-adv-x="590" d="M308 -297h-365l11 81q2 23 19.5 39t41.5 16h137l192 1565h-136q-25 0 -38.5 15.5t-10.5 37.5l10 83h365z" />
<glyph unicode="^" horiz-adv-x="1160" d="M1065 781h-156q-20 0 -33.5 11t-22.5 27l-176 317q-14 26 -25 50t-19 47q-8 -23 -18 -47t-24 -50l-173 -317q-8 -15 -22 -26.5t-37 -11.5h-164l366 659h138z" />
<glyph unicode="_" horiz-adv-x="889" d="M715 -152l-17 -137h-726l17 137h726z" />
<glyph unicode="`" horiz-adv-x="736" d="M446 1456q33 0 48.5 -12t26.5 -37l106 -242h-113q-22 0 -35.5 7t-26.5 25l-192 259h186z" />
<glyph unicode="a" horiz-adv-x="1033" d="M735 876q-17 2 -33.5 3t-33.5 1q-86 0 -161.5 -40t-131 -108t-87.5 -157.5t-32 -188.5q0 -114 36.5 -168.5t103.5 -54.5q45 0 88 29.5t81.5 81t71.5 121.5t57 152zM667 238q-35 -58 -74.5 -104.5t-83.5 -79.5t-93 -51t-102 -18q-59 0 -109 23t-86 69t-56.5 113.5 t-20.5 156.5q0 91 23 177.5t65 163t101 140.5t132 110t157.5 71.5t177.5 25.5q67 0 133 -10.5t129 -36.5l-122 -988h-113q-41 0 -56 21t-15 52z" />
<glyph unicode="b" horiz-adv-x="1068" d="M285 233q36 -45 84.5 -63.5t96.5 -18.5t90 20t77.5 55t63 82.5t47 101.5t29.5 112.5t10 115.5q0 113 -39 169.5t-109 56.5q-44 0 -90 -29t-88 -80t-78.5 -121t-62.5 -151zM354 793q37 55 79 100t88 77t95.5 49t101.5 17q64 0 115.5 -23.5t87.5 -71t55.5 -118t19.5 -164.5 q0 -85 -17.5 -168t-49.5 -157.5t-77.5 -138.5t-100.5 -110.5t-119 -73t-133 -26.5q-79 0 -142.5 33t-105.5 90l-11 -47q-10 -32 -25 -46.5t-51 -14.5h-115l179 1480h210z" />
<glyph unicode="c" horiz-adv-x="908" d="M825 182q-51 -57 -98 -94.5t-94.5 -60.5t-99 -32.5t-112.5 -9.5q-89 0 -158 30.5t-116 86t-72 133.5t-25 173q0 82 18 161t51 148.5t80.5 128t106.5 100.5t128 65.5t146 23.5q102 0 171.5 -36t122.5 -106l-68 -82q-8 -8 -18 -14.5t-22 -6.5q-15 0 -29 11t-34 24.5t-50 25 t-77 11.5q-63 0 -119.5 -34t-99 -94.5t-67.5 -144.5t-25 -183q0 -118 52.5 -185t148.5 -67q62 0 103 18t69.5 39t49.5 39t44 18q21 0 39 -20l54 -66v0z" />
<glyph unicode="d" horiz-adv-x="1069" d="M758 790q-36 44 -84.5 61.5t-96.5 17.5q-72 0 -130.5 -43.5t-100 -113t-64 -156t-22.5 -172.5q0 -113 39 -170t109 -57q44 0 90 29t88 80t78.5 121t62.5 152zM1054 1480l-183 -1480h-113q-41 0 -55.5 21t-14.5 52l13 174q-38 -60 -81 -108t-90.5 -82.5t-98.5 -53 t-105 -18.5q-129 0 -203.5 94.5t-74.5 282.5q0 85 17.5 168t49.5 158t77.5 138.5t100.5 110t118.5 73t132.5 26.5q72 0 131 -27t101 -76l68 547h210z" />
<glyph unicode="e" horiz-adv-x="966" d="M574 882q-56 0 -103.5 -23t-85 -63.5t-65 -96.5t-42.5 -122q138 18 222 40t129 48t60 55.5t15 62.5q0 16 -7 34t-22.5 32t-40.5 23.5t-60 9.5zM873 189q-52 -53 -102 -91.5t-102 -63.5t-109 -37t-124 -12q-89 0 -160 30t-121.5 84.5t-77.5 132t-27 173.5q0 80 17 157.5 t49.5 147.5t79 129.5t106 102.5t131 67.5t153.5 24.5q79 0 137 -22.5t96.5 -58t57.5 -78.5t19 -84q0 -67 -27.5 -123t-98.5 -101t-194.5 -78t-316.5 -53q-1 -6 -1 -12.5v-13.5q0 -127 55 -191.5t165 -64.5q69 0 115 19t78.5 41.5t57 41.5t51.5 19q21 0 39 -20z" />
<glyph unicode="f" horiz-adv-x="652" d="M422 852l-98 -814l-49 -196q-14 -43 -39 -66.5t-71 -23.5h-86l133 1098l-89 14q-21 5 -33.5 17.5t-9.5 37.5l11 87h140l11 86q11 87 45 156t86 117t119.5 73.5t145.5 25.5q62 0 116 -20l-20 -112q-2 -11 -9 -16.5t-18.5 -7.5t-25.5 -2h-29q-42 0 -76.5 -12t-61.5 -38 t-45 -68t-25 -103l-10 -79h241l-20 -154h-233z" />
<glyph unicode="g" horiz-adv-x="987" d="M628 -13q0 37 -9 69q-126 21 -215.5 17.5t-147.5 -24.5t-85 -54.5t-27 -72.5q0 -65 54 -99t159 -34q61 0 111 15.5t85.5 42.5t55 63t19.5 77zM449 470q49 0 86.5 22t63 58t39 81.5t14.5 91.5q0 81 -40 123t-112 42q-49 0 -86 -20.5t-62.5 -55t-38.5 -79t-13 -92.5 q0 -82 38.5 -126.5t110.5 -44.5zM1002 984l-9 -71q-6 -44 -45 -57l-113 -25q6 -23 9.5 -47.5t3.5 -52.5q0 -48 -11 -86t-27 -70.5t-34.5 -61.5t-34 -58t-26 -60.5t-10.5 -68.5q0 -41 18.5 -75.5t41 -71t41 -78.5t18.5 -97q-1 -74 -34.5 -140t-96 -116t-152 -79.5 t-202.5 -29.5q-91 0 -165 19t-126 53t-80 81t-28 104q0 67 28.5 117.5t76.5 86t111 57.5t132.5 32t140.5 8.5t135 -11.5q-6 17 -10 35t-4 38q0 30 8.5 62.5t27.5 70.5q-38 -26 -85.5 -40t-111.5 -14q-58 0 -110 19t-91 57t-61.5 95t-22.5 134q0 73 27 144t80.5 126t132 89 t180.5 34q56 0 105.5 -13t90.5 -39h282z" />
<glyph unicode="h" horiz-adv-x="1071" d="M363 823q77 106 168 159.5t187 53.5q65 0 115.5 -25.5t82.5 -75t44 -121.5t0 -165l-76 -649h-214l76 649q14 109 -12 159.5t-96 50.5q-42 0 -86.5 -23.5t-85.5 -66t-77.5 -103t-61.5 -134.5l-64 -532h-214l179 1480h214z" />
<glyph unicode="i" horiz-adv-x="476" d="M393 1020l-123 -1020h-211l122 1020h212zM457 1328q0 -29 -12 -55t-32 -45.5t-45 -31t-52 -11.5t-51.5 11.5t-43 31t-30 45.5t-11.5 55t11.5 55.5t30.5 46t44 31t51 11.5q27 0 52.5 -11.5t45 -31t31 -45.5t11.5 -56z" />
<glyph unicode="j" horiz-adv-x="474" d="M392 1020l-131 -1073q-8 -64 -32 -120.5t-64.5 -98.5t-97.5 -66t-130 -24q-38 0 -64.5 5t-52.5 14l21 117q6 20 19.5 23t47.5 3t58.5 8t41.5 25.5t27.5 45.5t15.5 68l131 1073h210zM451 1328q0 -29 -12 -55t-32 -45.5t-45.5 -31t-52.5 -11.5q-26 0 -50.5 11.5t-43.5 31 t-30.5 45.5t-11.5 55t11.5 55.5t31 46t44 31t51.5 11.5t52 -11.5t44.5 -31t31.5 -45.5t12 -56z" />
<glyph unicode="k" horiz-adv-x="976" d="M440 1480l-105 -858h28q22 0 35.5 6.5t29.5 24.5l302 327q16 20 33.5 30t43.5 10h191l-364 -388q-31 -38 -69 -61q17 -14 29.5 -32t23.5 -40l277 -499h-185q-25 0 -41 8.5t-26 31.5l-227 400q-11 23 -24 29.5t-41 6.5h-34l-58 -476h-212l182 1480h211z" />
<glyph unicode="l" horiz-adv-x="465" d="M53 0l179 1480h212l-180 -1480h-211z" />
<glyph unicode="m" horiz-adv-x="1581" d="M49 0l123 1022h108q35 0 53.5 -17.5t18.5 -54.5l-9 -144q72 115 156.5 172.5t178.5 57.5q98 0 150 -66.5t56 -191.5q74 133 165 195.5t195 62.5q130 0 189 -101t37 -286l-77 -649h-211l76 649q7 54 5.5 93.5t-12 65t-31 37.5t-53.5 12q-40 0 -79.5 -21t-75.5 -61t-67 -98 t-55 -132l-64 -545h-211l77 649q7 54 6 93.5t-11 65t-30 37.5t-53 12q-44 0 -84 -22.5t-76 -64.5t-67 -102.5t-55 -136.5l-63 -531h-210z" />
<glyph unicode="n" horiz-adv-x="1072" d="M342 789q79 124 177 185.5t202 61.5q64 0 114 -25.5t82 -75t44 -121.5t1 -165l-77 -649h-214l77 649q14 109 -12.5 158.5t-95.5 49.5q-44 0 -90.5 -25t-89 -70.5t-79.5 -110t-61 -143.5l-56 -508h-214l122 1022h108q35 0 53.5 -17.5t18.5 -54.5z" />
<glyph unicode="o" horiz-adv-x="1042" d="M457 153q67 0 122 37.5t93.5 100.5t59.5 145.5t21 172.5q0 132 -48.5 195.5t-143.5 63.5q-68 0 -122.5 -37t-92.5 -99t-59 -145t-21 -174q0 -260 191 -260zM438 -15q-84 0 -155 28.5t-122.5 83t-80.5 134t-29 180.5q0 131 41.5 245t113.5 198.5t168.5 133t206.5 48.5 q84 0 155 -28.5t122 -83t80 -134t29 -180.5q0 -86 -19 -166t-53 -149.5t-82.5 -126.5t-107 -97.5t-126.5 -63t-141 -22.5z" />
<glyph unicode="p" horiz-adv-x="1068" d="M286 232q36 -45 84.5 -63t96.5 -18t90 20t77 55t63 82.5t47 101.5t29 112.5t10 115.5q0 113 -38.5 169.5t-109.5 56.5q-44 0 -89 -28.5t-87 -79.5t-79 -120t-63 -150zM342 774q37 60 80.5 108t91 82.5t99 53t105.5 18.5q64 0 115.5 -23.5t87.5 -71t55.5 -118t19.5 -164.5 q0 -85 -17.5 -168t-49.5 -157.5t-77.5 -138.5t-100.5 -110.5t-119 -73t-133 -26.5q-72 0 -130.5 27t-100.5 75l-52 -426h-209l166 1361h108q35 0 53.5 -17.5t18.5 -54.5z" />
<glyph unicode="q" horiz-adv-x="1034" d="M736 876q-17 2 -33.5 3t-33.5 1q-87 0 -162 -40t-130.5 -108t-87.5 -157.5t-32 -188.5q0 -114 36.5 -168.5t103.5 -54.5q45 0 87.5 29t81 80.5t71.5 121.5t57 151zM651 211q-68 -105 -152.5 -165.5t-184.5 -60.5q-59 0 -109 23t-86 69t-56.5 113.5t-20.5 156.5 q0 137 50.5 261.5t139 219.5t208 151t258.5 56q68 0 133.5 -10.5t128.5 -36.5l-164 -1327h-138q-21 0 -34.5 7.5t-21 20t-10 27.5t-0.5 30z" />
<glyph unicode="r" horiz-adv-x="696" d="M341 757q39 81 84.5 139t95 91t102 39t105.5 -17l-39 -206q-127 51 -222.5 -32.5t-153.5 -315.5l-54 -455h-210l123 1022h108q35 0 53.5 -17.5t18.5 -54.5z" />
<glyph unicode="s" horiz-adv-x="806" d="M718 841q-9 -14 -18.5 -20t-23.5 -6q-16 0 -33 10.5t-40.5 23.5t-55.5 23.5t-77 10.5q-42 0 -75.5 -11t-57.5 -30t-36.5 -45t-12.5 -55q0 -33 17.5 -55.5t46.5 -39.5t66 -31t75.5 -29t75.5 -34.5t66 -47t46.5 -66.5t17.5 -93q0 -72 -28.5 -138t-82 -115.5t-129 -79 t-168.5 -29.5q-97 0 -175.5 35.5t-125.5 89.5l53 82q10 15 23 23.5t32 8.5q18 0 35 -13.5t40.5 -30t57.5 -30t88 -13.5q45 0 80 12.5t59 34.5t37 51t13 61q0 36 -17.5 60t-46.5 41.5t-65.5 30.5t-75 27t-75 32t-65.5 45t-46.5 65.5t-17.5 94.5q0 66 26 128.5t75 110.5 t120 77t162 29q95 0 167.5 -32t123.5 -85z" />
<glyph unicode="t" horiz-adv-x="721" d="M132 201q0 7 0.5 16.5t2 27.5t4.5 48t9 77l59 481h-103q-17 0 -27 11.5t-7 34.5l10 87l155 24l80 295q6 17 18.5 27.5t30.5 10.5h114l-42 -335h257l-18 -155h-258l-57 -469q-5 -41 -8 -65.5t-4.5 -39t-2 -20t-0.5 -8.5q0 -44 21 -67t58 -23q24 0 41 6.5t30 14t22 14 t17 6.5q11 0 16 -4.5t10 -15.5l46 -105q-53 -44 -117.5 -67.5t-130.5 -23.5q-103 0 -163 56.5t-63 160.5z" />
<glyph unicode="u" horiz-adv-x="1071" d="M997 1020l-123 -1020h-107q-78 0 -78 76l10 147q-78 -119 -174.5 -178.5t-198.5 -59.5q-64 0 -114 25.5t-82 75t-44 121.5t-1 165l77 648h214l-77 -648q-14 -109 12.5 -159t95.5 -50q42 0 87 23.5t87 66.5t78 104t61 136l63 527h214z" />
<glyph unicode="v" horiz-adv-x="971" d="M1009 1020l-506 -1020h-180l-259 1020h175q23 0 37 -12.5t17 -29.5l128 -594q8 -45 12 -88t7 -87q14 43 29 86t34 89l277 594q8 18 24.5 30t36.5 12h168z" />
<glyph unicode="w" horiz-adv-x="1462" d="M1486 1020l-424 -1020h-165q-28 0 -34 39l-110 635q-2 18 -4 35.5t-4 35.5l-12 -36t-14 -36l-267 -634q-15 -39 -47 -39h-158l-176 1020h162q23 0 37 -11.5t17 -30.5l76 -594q3 -40 5 -77.5t3 -75.5q14 38 28 75.5t30 77.5l249 597q7 18 23 29.5t36 11.5h90 q23 0 36.5 -11.5t15.5 -29.5l99 -597q6 -40 10.5 -78t8.5 -76q11 37 22.5 75t25.5 79l226 594q6 18 22.5 30t36.5 12h156z" />
<glyph unicode="x" horiz-adv-x="953" d="M606 550l266 -550h-193q-23 0 -36 12t-20 29l-173 382q-5 -12 -10.5 -22.5t-12.5 -20.5l-251 -340q-11 -16 -25 -28t-35 -12h-188l408 551l-240 469h193q23 0 33 -6t17 -22l154 -326q6 11 13 23t15 24l203 275q19 32 49 32h193z" />
<glyph unicode="y" horiz-adv-x="972" d="M1013 1020l-681 -1312q-24 -47 -71 -47h-159l224 410l-260 949h178q25 0 37 -12.5t16 -29.5l144 -579q5 -23 8.5 -47t5.5 -47q10 24 20.5 47.5t21.5 47.5l285 579q9 18 25.5 29.5t34.5 11.5h171z" />
<glyph unicode="z" horiz-adv-x="858" d="M848 1020l-12 -90q-2 -23 -12 -44t-24 -38l-546 -681h474l-19 -167h-731l11 90q1 15 11 36.5t25 39.5l550 687h-465l20 167h718z" />
<glyph unicode="{" horiz-adv-x="575" d="M628 1540l-10 -94q-3 -23 -20.5 -32.5t-29.5 -9.5h-12q-70 0 -113 -52.5t-49 -148.5q-5 -49 -5.5 -95t0 -89.5t0 -86t-3.5 -83.5q-7 -89 -54 -149t-116 -80q56 -18 87.5 -66t31.5 -111q0 -59 -14 -115t-31 -112t-31 -114t-14 -119q0 -65 30.5 -104.5t88.5 -39.5h13 q12 0 27 -10.5t12 -33.5l-11 -92h-50q-74 0 -128.5 20.5t-90.5 57t-53.5 87.5t-17.5 111q0 66 15 125.5t33 116t33 112t15 113.5q0 50 -25 82t-76 32l15 123q74 0 107 61t33 186q0 18 -1.5 41.5t-3 48.5t-2.5 48.5t-1 42.5q0 204 93.5 316.5t280.5 112.5h48z" />
<glyph unicode="|" horiz-adv-x="528" d="M180 1541h166v-1880h-166v1880z" />
<glyph unicode="}" horiz-adv-x="575" d="M224 1540q73 0 127.5 -20.5t90.5 -57.5t53.5 -88t17.5 -112q0 -65 -15 -124.5t-32.5 -116.5t-32.5 -112.5t-15 -112.5q0 -50 24.5 -81.5t75.5 -31.5l-14 -123q-74 0 -107 -61t-33 -187q0 -18 1 -41.5t2 -48t2 -48t1 -42.5q0 -204 -93 -316.5t-279 -112.5h-50l13 92 q1 12 6.5 20t13 13.5t15.5 8t14 2.5h12q70 0 113 52t49 148q4 49 5 95t1 89.5v86t4 83.5q3 44 16.5 81.5t36 66.5t52 49.5t64.5 30.5q-57 17 -88.5 65.5t-31.5 112.5q0 58 14 114.5t31.5 113t31.5 114t14 119.5q0 65 -30.5 104.5t-88.5 39.5h-12q-6 0 -14 2.5t-14 7.5 t-9.5 13t-1.5 19l10 94h50z" />
<glyph unicode="~" horiz-adv-x="1160" d="M751 633q60 0 93.5 38.5t34.5 106.5h173q0 -73 -19.5 -132.5t-56.5 -102t-90.5 -66t-121.5 -23.5q-53 0 -102.5 15t-94.5 33t-85.5 33t-74.5 15q-60 0 -93.5 -39t-34.5 -106h-173q0 73 19.5 132.5t56.5 102t90.5 65.5t121.5 23q52 0 102 -15t95 -32.5t85.5 -32.5 t74.5 -15z" />
<glyph unicode="&#xa1;" horiz-adv-x="487" d="M38 -340l67 538q5 45 12 88.5t16 87.5t19 90t21 97h132q-1 -51 -2 -97t-3.5 -90t-6.5 -87.5t-10 -88.5l-65 -538h-180zM138 896q0 29 10.5 54.5t29.5 44.5t44 30t55 11q29 0 54.5 -11t44 -30t29.5 -44.5t11 -54.5t-11 -54.5t-29.5 -44.5t-44 -29.5t-54.5 -10.5 q-30 0 -55 10.5t-44 29.5t-29.5 44.5t-10.5 54.5z" />
<glyph unicode="&#xa2;" horiz-adv-x="1160" d="M649 873q-83 -7 -145 -40t-104 -88.5t-63 -131t-21 -168.5q0 -118 49.5 -192.5t140.5 -98.5zM808 1026q80 -13 141.5 -46t108.5 -82l-62 -73q-10 -13 -19.5 -18.5t-26.5 -5.5q-13 0 -27.5 8t-34.5 18.5t-47 22t-64 18.5l-144 -724q60 4 101.5 19.5t71.5 31.5t50.5 29 t37.5 13q26 0 37 -18l48 -74q-74 -75 -172 -112.5t-205 -45.5l-32 -161q-5 -22 -22 -38.5t-41 -16.5h-77l43 219q-80 11 -146.5 46t-114 92t-74 134.5t-26.5 172.5q0 125 39 232.5t112 187.5t178.5 127t239.5 52l33 168q5 20 22.5 37.5t41.5 17.5h76z" />
<glyph unicode="&#xa3;" horiz-adv-x="1160" d="M885 661q-2 -20 -20.5 -36.5t-44.5 -16.5h-402l-27 -228q-9 -71 -33 -123t-68 -94q34 8 67.5 12t68.5 4h639l-10 -88q-2 -16 -10.5 -32t-22 -29t-30.5 -21.5t-37 -8.5h-963l17 133q35 9 62.5 23.5t48 37t33.5 54.5t18 76l35 284h-159l11 84q2 20 20 37t45 17h100l31 251 q12 94 52.5 177.5t106.5 146t157 98.5t203 36q84 0 147 -19.5t108 -53.5t75 -80.5t49 -100.5l-90 -55q-30 -14 -56.5 -12t-46.5 28q-17 26 -34 47.5t-40 36.5t-55 23.5t-78 8.5q-59 0 -108 -19.5t-86 -56t-60.5 -88t-31.5 -115.5l-31 -253h460l-10 -85v0z" />
<glyph unicode="&#xa4;" horiz-adv-x="1160" d="M379 673q0 -42 16 -79t44 -64.5t65.5 -44t79.5 -16.5q43 0 81 16.5t66 44t44 64.5t16 79q0 43 -16 80.5t-44 65.5t-66 44t-81 16q-42 0 -79.5 -16t-65.5 -44t-44 -65.5t-16 -80.5zM935 217l-151 151q-44 -28 -94 -43.5t-106 -15.5q-54 0 -103.5 15t-91.5 41l-153 -152 l-107 109l151 151q-28 44 -43.5 94t-15.5 106q0 54 14.5 103.5t41.5 91.5l-152 152l108 108l151 -150q43 28 93.5 43.5t106.5 15.5q54 0 103.5 -15t92.5 -42l152 152l107 -109l-150 -150q28 -44 43.5 -94t15.5 -106q0 -54 -15 -103.5t-41 -91.5l151 -152z" />
<glyph unicode="&#xa5;" horiz-adv-x="1160" d="M719 628h294l-14 -118h-331l-13 -100h331l-14 -117h-331l-37 -293h-206l36 293h-333l15 117h332l12 100h-332l14 118h294l-304 811h173q29 0 46 -14.5t23 -37.5l188 -532q11 -39 18 -72.5t11 -65.5q11 33 25.5 66.5t34.5 71.5l317 532q11 20 31.5 36t49.5 16h175z" />
<glyph unicode="&#xa6;" horiz-adv-x="527" d="M179 1541h167v-802h-167v802zM179 464h167v-803h-167v803z" />
<glyph unicode="&#xa7;" horiz-adv-x="933" d="M287 712q0 -42 26 -72.5t67.5 -56t92 -49t99.5 -51.5q51 26 72.5 64t21.5 84q0 44 -25 75.5t-64.5 56.5t-88 47.5t-96.5 48.5q-58 -29 -81.5 -64.5t-23.5 -82.5zM836 1256q-19 -26 -45 -26q-17 0 -34 11t-40.5 24t-54.5 24t-76 11q-44 0 -78.5 -12t-58.5 -33t-36.5 -48.5 t-12.5 -57.5q0 -42 33.5 -72.5t84 -57.5t109 -54.5t109 -64.5t84 -87t33.5 -121q0 -89 -43.5 -163t-137.5 -116q34 -32 55 -74t21 -99q0 -76 -27.5 -142.5t-80.5 -115.5t-129.5 -77t-174.5 -28q-49 0 -94 9t-84.5 25.5t-72 39.5t-56.5 50l58 79q19 31 57 31q20 0 37 -13.5 t41 -29.5t58.5 -29.5t90.5 -13.5q45 0 80 12.5t60 34.5t38 52.5t13 66.5q0 38 -20 66.5t-52.5 51t-74.5 41.5t-85.5 39t-85 44t-74 55.5t-52.5 73t-20 98.5q0 90 47.5 160.5t146.5 110.5q-35 33 -56.5 77.5t-21.5 106.5q0 67 26 128.5t75.5 108.5t122 74.5t164.5 27.5 q95 0 168.5 -33.5t119.5 -88.5z" />
<glyph unicode="&#xa8;" horiz-adv-x="736" d="M453 1291q0 -26 -10.5 -48.5t-28 -39t-40.5 -26.5t-49 -10q-25 0 -47.5 10t-39.5 26.5t-27 39t-10 48.5t10 49.5t27 41t39.5 27.5t47.5 10q26 0 49 -10t40.5 -27.5t28 -41t10.5 -49.5zM826 1291q0 -26 -10 -48.5t-27.5 -39t-40.5 -26.5t-49 -10t-48.5 10t-39.5 26.5 t-27 39t-10 48.5t10 49.5t27 41t39.5 27.5t48.5 10t49 -10t40.5 -27.5t27.5 -41t10 -49.5z" />
<glyph unicode="&#xa9;" horiz-adv-x="1655" d="M1081 495q9 1 17.5 -3.5t13.5 -10.5l72 -77q-57 -69 -141 -106t-199 -37q-99 0 -180 35t-138 96.5t-88.5 146.5t-31.5 184q0 101 35 186t96 146t144.5 95t181.5 34q111 0 188.5 -36t133.5 -93l-56 -79q-6 -7 -15 -14t-23 -7q-16 0 -31 10.5t-38.5 23.5t-58 23.5 t-89.5 10.5q-65 0 -116.5 -21t-87 -60t-54.5 -94.5t-19 -124.5q0 -72 19 -128t53.5 -94.5t82 -58t103.5 -19.5q50 0 83 8t57 19.5t43.5 23.5t42.5 21zM107 720q0 101 26 195t74 176t115 149t148.5 115t175.5 74.5t195 26.5t195 -26.5t176 -74.5t149 -115t115 -149t74 -176 t26 -195t-26.5 -195t-74 -175.5t-114.5 -148.5t-149 -115t-176 -74t-195 -26t-195 26t-175.5 74t-148.5 115t-115 148.5t-74 175.5t-26 195zM225 720q0 -132 47.5 -246.5t131 -199t196 -133.5t241.5 -49q86 0 166 22t148.5 62.5t125 97.5t96.5 127t62 150.5t22 168.5 t-22 169.5t-62 151.5t-96.5 127.5t-125 98.5t-148.5 63.5t-166 22.5t-165.5 -22.5t-147.5 -63.5t-124 -98.5t-96 -127.5t-61.5 -151.5t-21.5 -169.5z" />
<glyph unicode="&#xaa;" horiz-adv-x="686" d="M486 1097q-60 -2 -100.5 -10t-65 -21.5t-35.5 -32.5t-11 -41q0 -30 18 -43t48 -13q39 0 70.5 16.5t63.5 47.5zM204 1361q57 51 119.5 74t132.5 23q49 0 87 -19t63 -51.5t35.5 -75t4.5 -89.5l-47 -382h-69q-21 0 -30 6t-17 25l-6 43q-24 -21 -46.5 -36.5t-46 -26 t-49 -15.5t-55.5 -5q-68 0 -109 36t-41 105q0 38 17 76t59 69t112.5 51t177.5 23l4 31q2 24 -0.5 45t-11 36t-24.5 23.5t-41 8.5q-32 0 -54 -8t-39.5 -18t-32 -18t-32.5 -8q-16 0 -25.5 8.5t-14.5 19.5z" />
<glyph unicode="&#xab;" horiz-adv-x="813" d="M270 572q-8 -13 -17 -22.5t-17 -16.5q13 -13 24 -38l102 -250q12 -27 4.5 -49.5t-34.5 -36.5l-72 -32l-186 393l4 27l282 391l63 -32q25 -12 27 -35t-17 -49zM558 572q-8 -13 -17 -22.5t-17 -16.5q13 -13 24 -38l102 -250q12 -27 4.5 -49.5t-34.5 -36.5l-72 -32l-186 393 l4 27l282 391l63 -32q25 -12 27 -35t-17 -49z" />
<glyph unicode="&#xac;" horiz-adv-x="1160" d="M1011 593h-1l-35 -285h-175l35 285h-694l18 157h871z" />
<glyph unicode="&#xae;" horiz-adv-x="1656" d="M815 748q54 0 89.5 9.5t56.5 27.5t29.5 45t8.5 62q0 34 -7.5 59t-26.5 41.5t-51 25t-81 8.5h-119v-278h101zM833 1169q180 0 265 -64t85 -189q0 -91 -49 -157.5t-150 -94.5q20 -12 33.5 -29.5t25.5 -40.5l204 -319h-179q-40 0 -56 29l-171 280q-8 15 -21 22t-39 7h-67 v-338h-187v894h306zM841 92q86 0 166 22t148.5 62.5t125 97.5t96.5 127t62 150.5t22 168.5t-22 169.5t-62 151.5t-96.5 127.5t-125 98.5t-148.5 63.5t-166 22.5t-165.5 -22.5t-147.5 -63.5t-124 -98.5t-96 -127.5t-61.5 -151.5t-21.5 -169.5q0 -132 47.5 -246.5t131 -199 t196 -133.5t241.5 -49zM841 1456q101 0 195 -26.5t176 -74.5t149 -115t115 -149t74 -176t26 -195t-26.5 -195t-74 -175.5t-114.5 -148.5t-149 -115t-176 -74t-195 -26t-195 26t-175.5 74t-148.5 115t-115 148.5t-74 175.5t-26 195t26 195t74 176t115 149t148.5 115 t175.5 74.5t195 26.5z" />
<glyph unicode="&#xaf;" horiz-adv-x="736" d="M251 1361h541l-17 -139h-539z" />
<glyph unicode="&#xb0;" horiz-adv-x="823" d="M136 1125q0 69 26 130t71.5 106t106.5 71t131 26q71 0 132.5 -26t107 -71t71.5 -106t26 -130q0 -68 -26 -128t-71.5 -105t-107 -71.5t-132.5 -26.5q-70 0 -131 26.5t-106.5 71.5t-71.5 105t-26 128zM285 1124q0 -39 14 -73t39 -59t59 -39.5t74 -14.5t73.5 14.5t58.5 39.5 t39 59t14 73q0 40 -14 74.5t-39 60t-58.5 40t-73.5 14.5t-74 -14.5t-59 -40t-39 -60t-14 -74.5z" />
<glyph unicode="&#xb1;" horiz-adv-x="1160" d="M54 237h966l-20 -157h-964zM1096 853l-20 -157h-399l-44 -355h-168l44 355h-397l18 157h398l45 367h168l-45 -367h400z" />
<glyph unicode="&#xb2;" horiz-adv-x="668" d="M595 1037q23 0 35 -13t9 -34l-10 -90h-525l7 50q2 14 9.5 30t22.5 30l243 213q29 25 54.5 52t44.5 54.5t30 55t11 54.5q0 38 -22.5 59.5t-59.5 21.5q-40 0 -68 -20.5t-45 -57.5q-14 -20 -29.5 -28t-45.5 -3l-80 14q15 55 42.5 95.5t65 67.5t84 40.5t99.5 13.5 q51 0 90 -14t66 -38.5t41 -59t14 -75.5q0 -46 -15.5 -84t-41 -71.5t-58.5 -65t-69 -63.5l-166 -150q26 8 51.5 12t47.5 4h168z" />
<glyph unicode="&#xb3;" horiz-adv-x="668" d="M184 1425q15 55 42.5 95.5t64.5 67.5t81.5 40.5t94.5 13.5q49 0 88 -14t66 -37.5t41 -55t14 -66.5q0 -69 -31 -114t-99 -68q52 -18 78 -51.5t26 -86.5q0 -64 -25 -112t-65.5 -80.5t-91.5 -48.5t-103 -16q-110 0 -166 47t-77 149l69 28q26 10 47.5 5.5t28.5 -24.5 q3 -11 9.5 -24.5t18 -26t30 -21t47.5 -8.5q30 0 53.5 9.5t40 26t25 37.5t8.5 45q0 46 -33 67t-114 21l13 105q88 2 125.5 28.5t37.5 83.5q0 37 -22 57.5t-62 20.5q-43 0 -70 -20.5t-43 -54.5q-14 -23 -28 -30t-43 -2z" />
<glyph unicode="&#xb4;" horiz-adv-x="736" d="M827 1456l-252 -259q-17 -18 -31.5 -25t-37.5 -7h-118l160 242q16 25 34.5 37t52.5 12h192z" />
<glyph unicode="&#xb5;" horiz-adv-x="1225" d="M1107 150l-11 -86q-4 -29 -42.5 -51.5t-102.5 -22.5q-39 0 -73.5 12t-61.5 36t-44.5 61t-22.5 88q-61 -84 -131.5 -130t-152.5 -46q-57 0 -99.5 17t-71.5 49q2 -40 -0.5 -81.5t-6.5 -76.5l-32 -258h-107q-45 0 -66.5 23.5t-16.5 67.5l156 1268h214l-77 -629 q-8 -94 27.5 -148.5t114.5 -54.5q75 0 134.5 45.5t103.5 126.5l82 660h214l-89 -730q-9 -72 17.5 -106t80.5 -34h64z" />
<glyph unicode="&#xb6;" horiz-adv-x="1430" d="M1442 1257h-217l-180 -1462h-188l180 1462h-255l-180 -1462h-187l104 849q-93 0 -168.5 25.5t-128.5 72t-82 111.5t-29 143q0 92 36.5 173t103 141t160 95t206.5 35h847z" />
<glyph unicode="&#xb7;" horiz-adv-x="532" d="M93 594q0 36 13.5 67.5t36 54.5t53 36.5t65.5 13.5q36 0 67.5 -13.5t54.5 -36.5t36.5 -54.5t13.5 -67.5q0 -35 -13.5 -65.5t-36.5 -53.5t-54.5 -36.5t-67.5 -13.5q-35 0 -65.5 13.5t-53 36.5t-36 53.5t-13.5 65.5z" />
<glyph unicode="&#xb8;" horiz-adv-x="736" d="M401 -68q76 -19 108.5 -51.5t32.5 -77.5q0 -38 -17.5 -67.5t-49 -50t-75 -31.5t-95.5 -11q-38 0 -70.5 7t-61.5 20l28 67q8 21 28 21q6 0 12.5 -3t15 -6.5t19.5 -6.5t27 -3q35 0 52.5 16.5t17.5 39.5q0 30 -32 43t-97 23l75 170h120z" />
<glyph unicode="&#xb9;" horiz-adv-x="668" d="M610 1010l-13 -110h-404l14 110h143l48 392l11 46l-104 -76q-23 -15 -41 -9t-25 16l-38 65l250 191h125l-77 -625h111z" />
<glyph unicode="&#xba;" horiz-adv-x="750" d="M478 1456q60 0 108 -19t81.5 -53.5t51.5 -84t18 -110.5q0 -83 -25 -149.5t-69 -113t-106 -72t-135 -25.5q-60 0 -108.5 19t-82.5 53.5t-52.5 84t-18.5 111.5q0 82 25 148.5t70 113.5t107 72t136 25zM418 952q81 0 119.5 63t38.5 174q0 69 -28 106.5t-84 37.5 q-46 0 -77 -17.5t-50 -49t-27 -75t-8 -96.5q0 -69 28 -106t88 -37z" />
<glyph unicode="&#xbb;" horiz-adv-x="812" d="M431 547l-3 -27l-281 -393l-63 32q-26 14 -27.5 36.5t15.5 49.5l165 250q17 25 33 38q-14 13 -24 39l-104 250q-11 26 -3 49t36 35l71 32zM719 547l-3 -27l-281 -393l-63 32q-26 14 -27.5 36.5t15.5 49.5l165 250q17 25 33 38q-14 13 -24 39l-104 250q-11 26 -3 49t36 35 l71 32z" />
<glyph unicode="&#xbc;" horiz-adv-x="1405" d="M340 63q-26 -37 -53 -50t-61 -13h-85l931 1367q25 34 54 53t67 19h86zM562 815l-13 -110h-404l14 110h143l48 392l11 46l-104 -76q-23 -15 -41 -9t-25 16l-38 65l250 191h125l-77 -625h111zM1069 286l24 197q3 22 7.5 48t12.5 54l-254 -299h210zM1296 286l-9 -87 q-3 -12 -11.5 -21t-22.5 -9h-73l-21 -169h-126l21 169h-298q-20 0 -30.5 9.5t-12.5 23.5l-5 74l398 458h143l-55 -448h102z" />
<glyph unicode="&#xbd;" horiz-adv-x="1386" d="M304 63q-26 -37 -53 -50t-61 -13h-85l931 1367q25 34 54 53t67 19h86zM564 815l-13 -110h-404l14 110h143l48 392l11 46l-104 -76q-23 -15 -41 -9t-25 16l-38 65l250 191h125l-77 -625h111zM1201 137q23 0 35 -13t9 -34l-10 -90h-525l7 50q2 14 9.5 30t22.5 30l243 213 q29 25 54.5 52t44.5 54.5t30 55t11 54.5q0 38 -22.5 59.5t-59.5 21.5q-40 0 -68 -20.5t-45 -57.5q-14 -20 -29.5 -28t-45.5 -3l-80 14q15 55 42.5 95.5t65 67.5t84 40.5t99.5 13.5q51 0 90 -14t66 -38.5t41 -59t14 -75.5q0 -46 -15.5 -84t-41 -71.5t-58.5 -65t-69 -63.5 l-166 -150q26 8 51.5 12t47.5 4h168z" />
<glyph unicode="&#xbe;" horiz-adv-x="1422" d="M364 63q-26 -37 -53 -50t-61 -13h-85l931 1367q25 34 54 53t67 19h86zM173 1230q15 55 42.5 95.5t64.5 67.5t81.5 40.5t94.5 13.5q49 0 88 -14t66 -37.5t41 -55t14 -66.5q0 -69 -31 -114t-99 -68q52 -18 78 -51.5t26 -86.5q0 -64 -25 -112t-65.5 -80.5t-91.5 -48.5 t-103 -16q-110 0 -166 47t-77 149l69 28q26 10 47.5 5.5t28.5 -24.5q3 -11 9.5 -24.5t18 -26t30 -21t47.5 -8.5q30 0 53.5 9.5t40 26t25 37.5t8.5 45q0 46 -33 67t-114 21l13 105q88 2 125.5 28.5t37.5 83.5q0 37 -22 57.5t-62 20.5q-43 0 -70 -20.5t-43 -54.5 q-14 -23 -28 -30t-43 -2zM1088 286l24 197q3 22 7.5 48t12.5 54l-254 -299h210zM1315 286l-9 -87q-3 -12 -11.5 -21t-22.5 -9h-73l-21 -169h-126l21 169h-298q-20 0 -30.5 9.5t-12.5 23.5l-5 74l398 458h143l-55 -448h102z" />
<glyph unicode="&#xbf;" horiz-adv-x="830" d="M667 -209q-35 -29 -74 -55t-84 -46t-96 -32t-109 -12q-71 0 -129 20t-99 57t-63.5 90t-22.5 119q0 80 23.5 137t59 98.5t78 71.5t81 56.5t68 53t38.5 61.5l39 151h141l-7 -166q-2 -46 -26 -80t-58.5 -63t-75 -56.5t-74.5 -59.5t-57 -72t-23 -94q0 -38 11.5 -66.5 t31.5 -48t46.5 -29.5t55.5 -10q53 0 92.5 14t68 30.5t48 30.5t32.5 14q29 0 39 -25zM365 896q0 29 10.5 54.5t29.5 44.5t44 30t55 11q29 0 54.5 -11t44 -30t29.5 -44.5t11 -54.5q0 -30 -11 -55t-29.5 -44t-44 -29.5t-54.5 -10.5q-30 0 -55 10.5t-44 29.5t-29.5 44t-10.5 55z " />
<glyph unicode="&#xc0;" horiz-adv-x="1282" d="M859 538l-114 539q-5 31 -12.5 71t-14.5 88q-17 -48 -34 -88.5t-31 -72.5l-246 -537h452zM1205 0h-174q-30 0 -46.5 14.5t-23.5 38.5l-68 323h-561l-148 -323q-10 -21 -31.5 -37t-49.5 -16h-176l701 1440h229zM605 1857q17 0 29 -1t21.5 -5t17 -11.5t15.5 -19.5l173 -273 h-142q-23 0 -36.5 3t-27.5 19l-258 288h208z" />
<glyph unicode="&#xc1;" horiz-adv-x="1282" d="M859 538l-114 539q-5 31 -12.5 71t-14.5 88q-17 -48 -34 -88.5t-31 -72.5l-246 -537h452zM1205 0h-174q-30 0 -46.5 14.5t-23.5 38.5l-68 323h-561l-148 -323q-10 -21 -31.5 -37t-49.5 -16h-176l701 1440h229zM1164 1857l-330 -286q-19 -16 -34 -20t-38 -4h-141l233 273 q10 13 19 20t19 11t22.5 5t29.5 1h220z" />
<glyph unicode="&#xc2;" horiz-adv-x="1282" d="M859 538l-114 539q-5 31 -12.5 71t-14.5 88q-17 -48 -34 -88.5t-31 -72.5l-246 -537h452zM1205 0h-174q-30 0 -46.5 14.5t-23.5 38.5l-68 323h-561l-148 -323q-10 -21 -31.5 -37t-49.5 -16h-176l701 1440h229zM1076 1547h-143q-13 0 -30 5t-33 30l-77 121q-3 5 -5.5 9.5 t-4.5 9.5q-3 -5 -6.5 -9.5t-7.5 -9.5l-105 -121q-21 -25 -39.5 -30t-30.5 -5h-138l252 274h178z" />
<glyph unicode="&#xc3;" horiz-adv-x="1282" d="M859 538l-114 539q-5 31 -12.5 71t-14.5 88q-17 -48 -34 -88.5t-31 -72.5l-246 -537h452zM1205 0h-174q-30 0 -46.5 14.5t-23.5 38.5l-68 323h-561l-148 -323q-10 -21 -31.5 -37t-49.5 -16h-176l701 1440h229zM894 1683q21 0 37.5 9t28 23t18.5 31t9 34h121 q-5 -47 -21.5 -90t-43 -76t-62.5 -53t-80 -20t-76 16t-57.5 35.5t-48 35.5t-47.5 16q-21 0 -37.5 -9t-28 -23t-18.5 -31.5t-9 -34.5h-122q5 46 22 89.5t43.5 77t62.5 53.5t79 20q45 0 77 -16t58 -35.5t48 -35.5t47 -16z" />
<glyph unicode="&#xc4;" horiz-adv-x="1282" d="M859 538l-114 539q-5 31 -12.5 71t-14.5 88q-17 -48 -34 -88.5t-31 -72.5l-246 -537h452zM1205 0h-174q-30 0 -46.5 14.5t-23.5 38.5l-68 323h-561l-148 -323q-10 -21 -31.5 -37t-49.5 -16h-176l701 1440h229zM694 1664q0 -26 -10.5 -48.5t-28 -39t-40.5 -26.5t-49 -10 q-25 0 -47.5 10t-39.5 26.5t-27 39t-10 48.5t10 49.5t27 41t39.5 27.5t47.5 10q26 0 49 -10t40.5 -27.5t28 -41t10.5 -49.5zM1084 1664q0 -26 -10 -48.5t-27.5 -39t-40.5 -26.5t-49 -10t-48.5 10t-39.5 26.5t-27 39t-10 48.5t10 49.5t27 41t39.5 27.5t48.5 10t49 -10 t40.5 -27.5t27.5 -41t10 -49.5z" />
<glyph unicode="&#xc5;" horiz-adv-x="1282" d="M859 538l-114 539q-5 31 -12.5 71t-14.5 88q-17 -48 -34 -88.5t-31 -72.5l-246 -537h452zM1205 0h-174q-30 0 -46.5 14.5t-23.5 38.5l-68 323h-561l-148 -323q-10 -21 -31.5 -37t-49.5 -16h-176l701 1440h229zM592 1702q5 41 23.5 75.5t46.5 59t62 38t70 13.5 q38 0 70 -13.5t54.5 -38t33.5 -59t7 -75.5q-5 -40 -23.5 -73.5t-46.5 -57.5t-63 -37t-73 -13q-36 0 -67 13t-53.5 37t-34 57.5t-6.5 73.5zM689 1702q-5 -41 15 -67.5t62 -26.5q39 0 65.5 26.5t31.5 67.5q5 43 -16 69t-60 26q-42 0 -67.5 -26t-30.5 -69z" />
<glyph unicode="&#xc6;" horiz-adv-x="1739" d="M858 538v717q-16 -42 -33 -77.5t-35 -67.5l-325 -572h393zM1070 1257v-444h488l-21 -176h-467v-454h534l-23 -183h-723v376h-485l-184 -323q-12 -21 -34.5 -37t-51.5 -16h-175l848 1440h982l-22 -183h-666z" />
<glyph unicode="&#xc7;" horiz-adv-x="1245" d="M584 -13q-117 10 -209 60.5t-155.5 133t-97 192t-33.5 237.5q0 187 59 342.5t162 267.5t241.5 174t297.5 62q78 0 141.5 -14t115 -39.5t93.5 -61.5t77 -80l-77 -94q-9 -11 -21 -19t-30 -8q-13 0 -26 9t-29 22.5t-37.5 29t-51.5 29t-70.5 22.5t-95.5 9q-110 0 -205 -44.5 t-164.5 -126.5t-109.5 -199t-40 -262q0 -105 27 -189t75 -142t114.5 -89t145.5 -31q63 0 111.5 10t84.5 25.5t61.5 33.5t44.5 33.5t33 25.5t27 10q11 0 18 -4.5t11 -9.5l79 -99q-85 -94 -194 -150t-250 -67l-21 -54q76 -19 108.5 -51.5t32.5 -77.5q0 -38 -17.5 -67.5 t-49 -50t-75 -31.5t-95.5 -11q-38 0 -70.5 7t-61.5 20l28 67q8 21 28 21q6 0 12.5 -3t15 -6.5t19.5 -6.5t27 -3q35 0 52.5 16.5t17.5 39.5q0 30 -32 43t-97 23z" />
<glyph unicode="&#xc8;" horiz-adv-x="1074" d="M468 1257l-54 -443h481l-23 -176h-480l-56 -455h605l-23 -183h-831l177 1440h830l-23 -183h-603zM589 1857q17 0 29 -1t21.5 -5t17 -11.5t15.5 -19.5l173 -273h-142q-23 0 -36.5 3t-27.5 19l-258 288h208z" />
<glyph unicode="&#xc9;" horiz-adv-x="1074" d="M468 1257l-54 -443h481l-23 -176h-480l-56 -455h605l-23 -183h-831l177 1440h830l-23 -183h-603zM1122 1857l-330 -286q-19 -16 -34 -20t-38 -4h-141l233 273q10 13 19 20t19 11t22.5 5t29.5 1h220z" />
<glyph unicode="&#xca;" horiz-adv-x="1074" d="M468 1257l-54 -443h481l-23 -176h-480l-56 -455h605l-23 -183h-831l177 1440h830l-23 -183h-603zM1008 1547h-143q-13 0 -30 5t-33 30l-77 121q-3 5 -5.5 9.5t-4.5 9.5q-3 -5 -6.5 -9.5t-7.5 -9.5l-105 -121q-21 -25 -39.5 -30t-30.5 -5h-138l252 274h178z" />
<glyph unicode="&#xcb;" horiz-adv-x="1074" d="M468 1257l-54 -443h481l-23 -176h-480l-56 -455h605l-23 -183h-831l177 1440h830l-23 -183h-603zM640 1664q0 -26 -10.5 -48.5t-28 -39t-40.5 -26.5t-49 -10q-25 0 -47.5 10t-39.5 26.5t-27 39t-10 48.5t10 49.5t27 41t39.5 27.5t47.5 10q26 0 49 -10t40.5 -27.5t28 -41 t10.5 -49.5zM1030 1664q0 -26 -10 -48.5t-27.5 -39t-40.5 -26.5t-49 -10t-48.5 10t-39.5 26.5t-27 39t-10 48.5t10 49.5t27 41t39.5 27.5t48.5 10t49 -10t40.5 -27.5t27.5 -41t10 -49.5z" />
<glyph unicode="&#xcc;" horiz-adv-x="549" d="M313 0h-226l176 1440h226zM251 1857q17 0 29 -1t21.5 -5t17 -11.5t15.5 -19.5l173 -273h-142q-23 0 -36.5 3t-27.5 19l-258 288h208z" />
<glyph unicode="&#xcd;" horiz-adv-x="549" d="M313 0h-226l176 1440h226zM808 1857l-330 -286q-19 -16 -34 -20t-38 -4h-141l233 273q10 13 19 20t19 11t22.5 5t29.5 1h220z" />
<glyph unicode="&#xce;" horiz-adv-x="549" d="M313 0h-226l176 1440h226zM702 1547h-143q-13 0 -30 5t-33 30l-77 121q-3 5 -5.5 9.5t-4.5 9.5q-3 -5 -6.5 -9.5t-7.5 -9.5l-105 -121q-21 -25 -39.5 -30t-30.5 -5h-138l252 274h178z" />
<glyph unicode="&#xcf;" horiz-adv-x="549" d="M313 0h-226l176 1440h226zM335 1664q0 -26 -10.5 -48.5t-28 -39t-40.5 -26.5t-49 -10q-25 0 -47.5 10t-39.5 26.5t-27 39t-10 48.5t10 49.5t27 41t39.5 27.5t47.5 10q26 0 49 -10t40.5 -27.5t28 -41t10.5 -49.5zM725 1664q0 -26 -10 -48.5t-27.5 -39t-40.5 -26.5t-49 -10 t-48.5 10t-39.5 26.5t-27 39t-10 48.5t10 49.5t27 41t39.5 27.5t48.5 10t49 -10t40.5 -27.5t27.5 -41t10 -49.5z" />
<glyph unicode="&#xd0;" horiz-adv-x="1428" d="M626 182q114 0 207.5 43.5t160 125t103 198.5t36.5 264q0 102 -25.5 184.5t-73.5 140.5t-118 89t-158 31h-277l-57 -468h338l-15 -131h-339l-58 -477h276zM780 1440q135 0 243.5 -46t184.5 -128.5t116.5 -196.5t40.5 -250q0 -121 -26 -228.5t-74 -198.5t-116 -164 t-152.5 -123.5t-183.5 -77.5t-209 -27h-503l81 659h-171l16 131h171l79 650h503z" />
<glyph unicode="&#xd1;" horiz-adv-x="1428" d="M1369 1440l-178 -1440h-114q-27 0 -44 9.5t-32 31.5l-587 1036q-2 -23 -3.5 -43.5t-3.5 -38.5l-122 -995h-198l177 1440h117q30 0 43.5 -6t27.5 -31l589 -1036q3 55 9 98l120 975h199zM960 1682q21 0 37.5 9t28 23t18.5 31t9 34h121q-5 -47 -21.5 -90t-43 -76t-62.5 -53 t-80 -20t-76 16t-57.5 35.5t-48 35.5t-47.5 16q-21 0 -37.5 -9t-28 -23t-18.5 -31.5t-9 -34.5h-122q5 46 22 89.5t43.5 77t62.5 53.5t79 20q45 0 77 -16t58 -35.5t48 -35.5t47 -16z" />
<glyph unicode="&#xd2;" horiz-adv-x="1499" d="M1438 819q0 -120 -26 -229t-74.5 -201.5t-117.5 -167t-154 -127t-184 -81t-209 -28.5q-135 0 -243.5 48t-184 132.5t-116 200.5t-40.5 253q0 121 26.5 230t74.5 202t117 168t154 127.5t184 81t209 28.5q135 0 243 -48t184 -133.5t116.5 -202t40.5 -253.5zM1206 814 q0 103 -26 186.5t-75 143t-119.5 91.5t-158.5 32q-113 0 -206.5 -45.5t-160 -129.5t-103.5 -202.5t-37 -263.5q0 -103 26 -186.5t74.5 -143t118.5 -91.5t159 -32q114 0 207.5 45.5t160.5 129t103.5 202t36.5 264.5zM745 1857q17 0 29 -1t21.5 -5t17 -11.5t15.5 -19.5 l173 -273h-142q-23 0 -36.5 3t-27.5 19l-258 288h208z" />
<glyph unicode="&#xd3;" horiz-adv-x="1499" d="M1438 819q0 -120 -26 -229t-74.5 -201.5t-117.5 -167t-154 -127t-184 -81t-209 -28.5q-135 0 -243.5 48t-184 132.5t-116 200.5t-40.5 253q0 121 26.5 230t74.5 202t117 168t154 127.5t184 81t209 28.5q135 0 243 -48t184 -133.5t116.5 -202t40.5 -253.5zM1206 814 q0 103 -26 186.5t-75 143t-119.5 91.5t-158.5 32q-113 0 -206.5 -45.5t-160 -129.5t-103.5 -202.5t-37 -263.5q0 -103 26 -186.5t74.5 -143t118.5 -91.5t159 -32q114 0 207.5 45.5t160.5 129t103.5 202t36.5 264.5zM1269 1857l-330 -286q-19 -16 -34 -20t-38 -4h-141 l233 273q10 13 19 20t19 11t22.5 5t29.5 1h220z" />
<glyph unicode="&#xd4;" horiz-adv-x="1499" d="M1438 819q0 -120 -26 -229t-74.5 -201.5t-117.5 -167t-154 -127t-184 -81t-209 -28.5q-135 0 -243.5 48t-184 132.5t-116 200.5t-40.5 253q0 121 26.5 230t74.5 202t117 168t154 127.5t184 81t209 28.5q135 0 243 -48t184 -133.5t116.5 -202t40.5 -253.5zM1206 814 q0 103 -26 186.5t-75 143t-119.5 91.5t-158.5 32q-113 0 -206.5 -45.5t-160 -129.5t-103.5 -202.5t-37 -263.5q0 -103 26 -186.5t74.5 -143t118.5 -91.5t159 -32q114 0 207.5 45.5t160.5 129t103.5 202t36.5 264.5zM1174 1547h-143q-13 0 -30 5t-33 30l-77 121 q-3 5 -5.5 9.5t-4.5 9.5q-3 -5 -6.5 -9.5t-7.5 -9.5l-105 -121q-21 -25 -39.5 -30t-30.5 -5h-138l252 274h178z" />
<glyph unicode="&#xd5;" horiz-adv-x="1499" d="M1438 819q0 -120 -26 -229t-74.5 -201.5t-117.5 -167t-154 -127t-184 -81t-209 -28.5q-135 0 -243.5 48t-184 132.5t-116 200.5t-40.5 253q0 121 26.5 230t74.5 202t117 168t154 127.5t184 81t209 28.5q135 0 243 -48t184 -133.5t116.5 -202t40.5 -253.5zM1206 814 q0 103 -26 186.5t-75 143t-119.5 91.5t-158.5 32q-113 0 -206.5 -45.5t-160 -129.5t-103.5 -202.5t-37 -263.5q0 -103 26 -186.5t74.5 -143t118.5 -91.5t159 -32q114 0 207.5 45.5t160.5 129t103.5 202t36.5 264.5zM992 1683q21 0 37.5 9t28 23t18.5 31t9 34h121 q-5 -47 -21.5 -90t-43 -76t-62.5 -53t-80 -20t-76 16t-57.5 35.5t-48 35.5t-47.5 16q-21 0 -37.5 -9t-28 -23t-18.5 -31.5t-9 -34.5h-122q5 46 22 89.5t43.5 77t62.5 53.5t79 20q45 0 77 -16t58 -35.5t48 -35.5t47 -16z" />
<glyph unicode="&#xd6;" horiz-adv-x="1499" d="M1438 819q0 -120 -26 -229t-74.5 -201.5t-117.5 -167t-154 -127t-184 -81t-209 -28.5q-135 0 -243.5 48t-184 132.5t-116 200.5t-40.5 253q0 121 26.5 230t74.5 202t117 168t154 127.5t184 81t209 28.5q135 0 243 -48t184 -133.5t116.5 -202t40.5 -253.5zM1206 814 q0 103 -26 186.5t-75 143t-119.5 91.5t-158.5 32q-113 0 -206.5 -45.5t-160 -129.5t-103.5 -202.5t-37 -263.5q0 -103 26 -186.5t74.5 -143t118.5 -91.5t159 -32q114 0 207.5 45.5t160.5 129t103.5 202t36.5 264.5zM830 1664q0 -26 -10.5 -48.5t-28 -39t-40.5 -26.5t-49 -10 q-25 0 -47.5 10t-39.5 26.5t-27 39t-10 48.5t10 49.5t27 41t39.5 27.5t47.5 10q26 0 49 -10t40.5 -27.5t28 -41t10.5 -49.5zM1220 1664q0 -26 -10 -48.5t-27.5 -39t-40.5 -26.5t-49 -10t-48.5 10t-39.5 26.5t-27 39t-10 48.5t10 49.5t27 41t39.5 27.5t48.5 10t49 -10 t40.5 -27.5t27.5 -41t10 -49.5z" />
<glyph unicode="&#xd7;" horiz-adv-x="1160" d="M699 671l304 -347l-122 -111l-306 348l-394 -350l-96 111l393 350l-296 336l123 112l296 -338l377 336l97 -112z" />
<glyph unicode="&#xd8;" horiz-adv-x="1499" d="M484 237q44 -31 97.5 -47.5t116.5 -16.5q114 0 207.5 45.5t160.5 129t103.5 202t36.5 264.5q0 77 -14.5 142.5t-41.5 119.5zM1064 1185q-46 40 -105.5 61t-131.5 21q-113 0 -206.5 -45.5t-160 -129.5t-103.5 -202.5t-37 -263.5q0 -87 18.5 -159.5t53.5 -129.5zM1295 1258 q69 -85 106 -196.5t37 -242.5q0 -120 -26 -229t-74.5 -201.5t-117.5 -167t-154 -127t-184 -81t-209 -28.5q-94 0 -173.5 23t-145.5 65l-96 -120q-29 -35 -64.5 -49t-67.5 -14h-89l214 270q-78 85 -120 202t-42 257q0 121 26.5 230t74.5 202t117 168t154 127.5t184 81 t209 28.5q102 0 187.5 -27t154.5 -78l76 96q13 15 24 26t22 18t24 10t32 3h116z" />
<glyph unicode="&#xd9;" horiz-adv-x="1377" d="M635 181q75 0 137.5 28.5t110 80t77.5 123t41 157.5l107 870h225l-106 -870q-16 -126 -67 -233.5t-131 -186t-186 -123t-232 -44.5t-221 44.5t-155.5 123t-85 186t-8.5 233.5l105 870h225l-106 -870q-11 -86 2 -157.5t47.5 -123t90 -80t130.5 -28.5zM672 1857q17 0 29 -1 t21.5 -5t17 -11.5t15.5 -19.5l173 -273h-142q-23 0 -36.5 3t-27.5 19l-258 288h208z" />
<glyph unicode="&#xda;" horiz-adv-x="1377" d="M635 181q75 0 137.5 28.5t110 80t77.5 123t41 157.5l107 870h225l-106 -870q-16 -126 -67 -233.5t-131 -186t-186 -123t-232 -44.5t-221 44.5t-155.5 123t-85 186t-8.5 233.5l105 870h225l-106 -870q-11 -86 2 -157.5t47.5 -123t90 -80t130.5 -28.5zM1206 1857l-330 -286 q-19 -16 -34 -20t-38 -4h-141l233 273q10 13 19 20t19 11t22.5 5t29.5 1h220z" />
<glyph unicode="&#xdb;" horiz-adv-x="1377" d="M635 181q75 0 137.5 28.5t110 80t77.5 123t41 157.5l107 870h225l-106 -870q-16 -126 -67 -233.5t-131 -186t-186 -123t-232 -44.5t-221 44.5t-155.5 123t-85 186t-8.5 233.5l105 870h225l-106 -870q-11 -86 2 -157.5t47.5 -123t90 -80t130.5 -28.5zM1114 1547h-143 q-13 0 -30 5t-33 30l-77 121q-3 5 -5.5 9.5t-4.5 9.5q-3 -5 -6.5 -9.5t-7.5 -9.5l-105 -121q-21 -25 -39.5 -30t-30.5 -5h-138l252 274h178z" />
<glyph unicode="&#xdc;" horiz-adv-x="1377" d="M635 181q75 0 137.5 28.5t110 80t77.5 123t41 157.5l107 870h225l-106 -870q-16 -126 -67 -233.5t-131 -186t-186 -123t-232 -44.5t-221 44.5t-155.5 123t-85 186t-8.5 233.5l105 870h225l-106 -870q-11 -86 2 -157.5t47.5 -123t90 -80t130.5 -28.5zM756 1664 q0 -26 -10.5 -48.5t-28 -39t-40.5 -26.5t-49 -10q-25 0 -47.5 10t-39.5 26.5t-27 39t-10 48.5t10 49.5t27 41t39.5 27.5t47.5 10q26 0 49 -10t40.5 -27.5t28 -41t10.5 -49.5zM1146 1664q0 -26 -10 -48.5t-27.5 -39t-40.5 -26.5t-49 -10t-48.5 10t-39.5 26.5t-27 39t-10 48.5 t10 49.5t27 41t39.5 27.5t48.5 10t49 -10t40.5 -27.5t27.5 -41t10 -49.5z" />
<glyph unicode="&#xdd;" horiz-adv-x="1191" d="M703 567l-71 -567h-225l71 567l-377 873h200q29 0 45.5 -14.5t24.5 -37.5l211 -533q22 -64 34 -125q14 30 30.5 60.5t36.5 64.5l344 533q12 20 31.5 36t48.5 16h187zM1111 1857l-330 -286q-19 -16 -34 -20t-38 -4h-141l233 273q10 13 19 20t19 11t22.5 5t29.5 1h220z" />
<glyph unicode="&#xde;" horiz-adv-x="1140" d="M560 445q81 0 141 24.5t100 68t60 104t20 132.5q0 53 -15.5 95.5t-46.5 72.5t-79 46t-112 16h-194l-68 -559h194zM651 1181q118 0 204 -28.5t142 -79.5t83.5 -122t27.5 -157q0 -115 -37 -212t-109 -167t-178.5 -109t-245.5 -39h-194l-33 -267h-224l176 1440h225l-32 -259 h195z" />
<glyph unicode="&#xdf;" horiz-adv-x="1188" d="M248 1004q25 91 74 174t116.5 146t151.5 100.5t180 37.5q95 0 161.5 -28.5t108.5 -72.5t61 -96.5t19 -100.5q0 -67 -22 -114t-55.5 -82t-72.5 -60.5t-72.5 -50t-55.5 -50.5t-22 -61q0 -32 20.5 -55t52 -43.5t67.5 -43.5t67.5 -54.5t52 -76t20.5 -109.5q0 -91 -32.5 -162 t-87.5 -119.5t-127.5 -73.5t-151.5 -25q-87 0 -158.5 35.5t-121.5 89.5l58 79q10 14 23.5 22.5t33.5 8.5q19 0 36.5 -14t39.5 -30.5t51.5 -30t73.5 -13.5q35 0 65.5 13.5t52.5 37.5t34.5 56t12.5 69q0 45 -22.5 74.5t-56 53t-73 44t-73 47.5t-56 64.5t-22.5 94.5 q0 65 24 110.5t59.5 80t77.5 63t77.5 59.5t59.5 68.5t24 90.5q0 28 -10 55.5t-31.5 49.5t-55.5 35t-82 13q-61 0 -112.5 -34t-91 -91t-65.5 -131.5t-36 -155.5l-105 -860l-49 -196q-14 -43 -39 -66.5t-71 -23.5h-86l134 1099l-100 15q-24 5 -37.5 17t-9.5 35l9 86h165z" />
<glyph unicode="&#xe0;" horiz-adv-x="1033" d="M735 876q-17 2 -33.5 3t-33.5 1q-86 0 -161.5 -40t-131 -108t-87.5 -157.5t-32 -188.5q0 -114 36.5 -168.5t103.5 -54.5q45 0 88 29.5t81.5 81t71.5 121.5t57 152zM667 238q-35 -58 -74.5 -104.5t-83.5 -79.5t-93 -51t-102 -18q-59 0 -109 23t-86 69t-56.5 113.5 t-20.5 156.5q0 91 23 177.5t65 163t101 140.5t132 110t157.5 71.5t177.5 25.5q67 0 133 -10.5t129 -36.5l-122 -988h-113q-41 0 -56 21t-15 52zM630 1456q33 0 48.5 -12t26.5 -37l106 -242h-113q-22 0 -35.5 7t-26.5 25l-192 259h186z" />
<glyph unicode="&#xe1;" horiz-adv-x="1033" d="M735 876q-17 2 -33.5 3t-33.5 1q-86 0 -161.5 -40t-131 -108t-87.5 -157.5t-32 -188.5q0 -114 36.5 -168.5t103.5 -54.5q45 0 88 29.5t81.5 81t71.5 121.5t57 152zM667 238q-35 -58 -74.5 -104.5t-83.5 -79.5t-93 -51t-102 -18q-59 0 -109 23t-86 69t-56.5 113.5 t-20.5 156.5q0 91 23 177.5t65 163t101 140.5t132 110t157.5 71.5t177.5 25.5q67 0 133 -10.5t129 -36.5l-122 -988h-113q-41 0 -56 21t-15 52zM1042 1456l-252 -259q-17 -18 -31.5 -25t-37.5 -7h-118l160 242q16 25 34.5 37t52.5 12h192z" />
<glyph unicode="&#xe2;" horiz-adv-x="1033" d="M735 876q-17 2 -33.5 3t-33.5 1q-86 0 -161.5 -40t-131 -108t-87.5 -157.5t-32 -188.5q0 -114 36.5 -168.5t103.5 -54.5q45 0 88 29.5t81.5 81t71.5 121.5t57 152zM667 238q-35 -58 -74.5 -104.5t-83.5 -79.5t-93 -51t-102 -18q-59 0 -109 23t-86 69t-56.5 113.5 t-20.5 156.5q0 91 23 177.5t65 163t101 140.5t132 110t157.5 71.5t177.5 25.5q67 0 133 -10.5t129 -36.5l-122 -988h-113q-41 0 -56 21t-15 52zM970 1169h-132q-11 0 -22.5 4t-22.5 18l-88 116q-9 10 -14 21q-5 -6 -10 -11l-10 -10l-116 -116q-11 -11 -24 -16.5t-25 -5.5 h-137l239 271h184z" />
<glyph unicode="&#xe3;" horiz-adv-x="1033" d="M735 876q-17 2 -33.5 3t-33.5 1q-86 0 -161.5 -40t-131 -108t-87.5 -157.5t-32 -188.5q0 -114 36.5 -168.5t103.5 -54.5q45 0 88 29.5t81.5 81t71.5 121.5t57 152zM667 238q-35 -58 -74.5 -104.5t-83.5 -79.5t-93 -51t-102 -18q-59 0 -109 23t-86 69t-56.5 113.5 t-20.5 156.5q0 91 23 177.5t65 163t101 140.5t132 110t157.5 71.5t177.5 25.5q67 0 133 -10.5t129 -36.5l-122 -988h-113q-41 0 -56 21t-15 52zM800 1344q30 0 49 18.5t24 61.5h121q-6 -52 -24 -94.5t-44.5 -73t-61 -47t-73.5 -16.5q-33 0 -59.5 13.5t-50 29.5t-44 29.5 t-39.5 13.5q-30 0 -48.5 -19.5t-23.5 -62.5h-122q6 52 24 95t45 73.5t61.5 47.5t73.5 17q33 0 60 -13.5t50 -29.5t43 -29.5t39 -13.5z" />
<glyph unicode="&#xe4;" horiz-adv-x="1033" d="M735 876q-17 2 -33.5 3t-33.5 1q-86 0 -161.5 -40t-131 -108t-87.5 -157.5t-32 -188.5q0 -114 36.5 -168.5t103.5 -54.5q45 0 88 29.5t81.5 81t71.5 121.5t57 152zM667 238q-35 -58 -74.5 -104.5t-83.5 -79.5t-93 -51t-102 -18q-59 0 -109 23t-86 69t-56.5 113.5 t-20.5 156.5q0 91 23 177.5t65 163t101 140.5t132 110t157.5 71.5t177.5 25.5q67 0 133 -10.5t129 -36.5l-122 -988h-113q-41 0 -56 21t-15 52zM649 1291q0 -26 -10.5 -48.5t-28 -39t-40.5 -26.5t-49 -10q-25 0 -47.5 10t-39.5 26.5t-27 39t-10 48.5t10 49.5t27 41 t39.5 27.5t47.5 10q26 0 49 -10t40.5 -27.5t28 -41t10.5 -49.5zM1022 1291q0 -26 -10 -48.5t-27.5 -39t-40.5 -26.5t-49 -10t-48.5 10t-39.5 26.5t-27 39t-10 48.5t10 49.5t27 41t39.5 27.5t48.5 10t49 -10t40.5 -27.5t27.5 -41t10 -49.5z" />
<glyph unicode="&#xe5;" horiz-adv-x="1033" d="M735 876q-17 2 -33.5 3t-33.5 1q-86 0 -161.5 -40t-131 -108t-87.5 -157.5t-32 -188.5q0 -114 36.5 -168.5t103.5 -54.5q45 0 88 29.5t81.5 81t71.5 121.5t57 152zM667 238q-35 -58 -74.5 -104.5t-83.5 -79.5t-93 -51t-102 -18q-59 0 -109 23t-86 69t-56.5 113.5 t-20.5 156.5q0 91 23 177.5t65 163t101 140.5t132 110t157.5 71.5t177.5 25.5q67 0 133 -10.5t129 -36.5l-122 -988h-113q-41 0 -56 21t-15 52zM528 1321q5 44 24.5 80.5t49 62.5t66.5 40t76 14q40 0 74 -14t58 -40t36 -62.5t7 -80.5t-25 -79.5t-50 -61t-67 -39.5t-77 -14 q-39 0 -72.5 14t-57.5 39.5t-35.5 61t-6.5 79.5zM636 1321q-5 -42 15.5 -68t62.5 -26q38 0 64.5 26t31.5 68q5 43 -16 69t-60 26q-42 0 -67.5 -26t-30.5 -69z" />
<glyph unicode="&#xe6;" horiz-adv-x="1490" d="M605 469q-112 -5 -187.5 -22.5t-121.5 -45.5t-65.5 -65t-19.5 -82q0 -64 34 -94.5t93 -30.5q48 0 91 16.5t77.5 51t58 87.5t32.5 125zM1080 883q-56 0 -100.5 -21t-78 -59t-56 -92t-33.5 -121q120 8 197.5 25t122 40.5t61.5 53t17 61.5q0 50 -33 81.5t-97 31.5zM1412 189 q-52 -53 -101.5 -91.5t-102 -63.5t-109.5 -37t-124 -12q-101 0 -181 53t-122 160q-33 -57 -77 -98t-93.5 -66.5t-101.5 -37.5t-101 -12q-141 0 -214.5 61.5t-73.5 181.5q0 69 30.5 133.5t101.5 116t188 84t290 37.5l6 50q14 112 -21.5 166.5t-116.5 54.5q-57 0 -96.5 -15.5 t-70 -33.5t-55 -33.5t-49.5 -15.5q-21 0 -35 11t-22 27l-28 67q89 81 181 121.5t199 40.5q106 0 167.5 -44.5t87.5 -122.5q61 78 146 121t193 43q62 0 115 -20t92 -54.5t61 -80.5t22 -99q0 -56 -26 -110.5t-93 -99t-182.5 -73t-295.5 -32.5v-22q0 -147 57.5 -218.5 t159.5 -71.5q69 0 115 19t78.5 41.5t57 41.5t51.5 19q21 0 39 -20z" />
<glyph unicode="&#xe7;" horiz-adv-x="908" d="M806 811q-8 -8 -18 -14.5t-22 -6.5q-15 0 -29 11t-34 24.5t-50 25t-77 11.5q-63 0 -119.5 -34t-99 -94.5t-67.5 -144.5t-25 -183q0 -118 52.5 -185t148.5 -67q62 0 103 18t69.5 39t49.5 39t44 18q21 0 39 -20l54 -66q-46 -51 -88 -86.5t-84.5 -58.5t-87 -35t-95.5 -15 l-21 -55q76 -19 108.5 -51.5t32.5 -77.5q0 -38 -17.5 -67.5t-49 -50t-75 -31.5t-95.5 -11q-38 0 -70.5 7t-61.5 20l28 67q8 21 28 21q6 0 12.5 -3t15 -6.5t19.5 -6.5t27 -3q35 0 52.5 16.5t17.5 39.5q0 30 -32 43t-97 23l57 130q-72 12 -127.5 46.5t-93.5 88.5t-58 125.5 t-20 156.5q0 82 18 161t51 148.5t80.5 128t106.5 100.5t128 65.5t146 23.5q102 0 171.5 -36t122.5 -106z" />
<glyph unicode="&#xe8;" horiz-adv-x="966" d="M574 882q-56 0 -103.5 -23t-85 -63.5t-65 -96.5t-42.5 -122q138 18 222 40t129 48t60 55.5t15 62.5q0 16 -7 34t-22.5 32t-40.5 23.5t-60 9.5zM873 189q-52 -53 -102 -91.5t-102 -63.5t-109 -37t-124 -12q-89 0 -160 30t-121.5 84.5t-77.5 132t-27 173.5q0 80 17 157.5 t49.5 147.5t79 129.5t106 102.5t131 67.5t153.5 24.5q79 0 137 -22.5t96.5 -58t57.5 -78.5t19 -84q0 -67 -27.5 -123t-98.5 -101t-194.5 -78t-316.5 -53q-1 -6 -1 -12.5v-13.5q0 -127 55 -191.5t165 -64.5q69 0 115 19t78.5 41.5t57 41.5t51.5 19q21 0 39 -20zM507 1456 q33 0 48.5 -12t26.5 -37l106 -242h-113q-22 0 -35.5 7t-26.5 25l-192 259h186z" />
<glyph unicode="&#xe9;" horiz-adv-x="966" d="M574 882q-56 0 -103.5 -23t-85 -63.5t-65 -96.5t-42.5 -122q138 18 222 40t129 48t60 55.5t15 62.5q0 16 -7 34t-22.5 32t-40.5 23.5t-60 9.5zM873 189q-52 -53 -102 -91.5t-102 -63.5t-109 -37t-124 -12q-89 0 -160 30t-121.5 84.5t-77.5 132t-27 173.5q0 80 17 157.5 t49.5 147.5t79 129.5t106 102.5t131 67.5t153.5 24.5q79 0 137 -22.5t96.5 -58t57.5 -78.5t19 -84q0 -67 -27.5 -123t-98.5 -101t-194.5 -78t-316.5 -53q-1 -6 -1 -12.5v-13.5q0 -127 55 -191.5t165 -64.5q69 0 115 19t78.5 41.5t57 41.5t51.5 19q21 0 39 -20zM926 1456 l-252 -259q-17 -18 -31.5 -25t-37.5 -7h-118l160 242q16 25 34.5 37t52.5 12h192z" />
<glyph unicode="&#xea;" horiz-adv-x="966" d="M574 882q-56 0 -103.5 -23t-85 -63.5t-65 -96.5t-42.5 -122q138 18 222 40t129 48t60 55.5t15 62.5q0 16 -7 34t-22.5 32t-40.5 23.5t-60 9.5zM873 189q-52 -53 -102 -91.5t-102 -63.5t-109 -37t-124 -12q-89 0 -160 30t-121.5 84.5t-77.5 132t-27 173.5q0 80 17 157.5 t49.5 147.5t79 129.5t106 102.5t131 67.5t153.5 24.5q79 0 137 -22.5t96.5 -58t57.5 -78.5t19 -84q0 -67 -27.5 -123t-98.5 -101t-194.5 -78t-316.5 -53q-1 -6 -1 -12.5v-13.5q0 -127 55 -191.5t165 -64.5q69 0 115 19t78.5 41.5t57 41.5t51.5 19q21 0 39 -20zM886 1169 h-132q-11 0 -22.5 4t-22.5 18l-88 116q-9 10 -14 21q-5 -6 -10 -11l-10 -10l-116 -116q-11 -11 -24 -16.5t-25 -5.5h-137l239 271h184z" />
<glyph unicode="&#xeb;" horiz-adv-x="966" d="M574 882q-56 0 -103.5 -23t-85 -63.5t-65 -96.5t-42.5 -122q138 18 222 40t129 48t60 55.5t15 62.5q0 16 -7 34t-22.5 32t-40.5 23.5t-60 9.5zM873 189q-52 -53 -102 -91.5t-102 -63.5t-109 -37t-124 -12q-89 0 -160 30t-121.5 84.5t-77.5 132t-27 173.5q0 80 17 157.5 t49.5 147.5t79 129.5t106 102.5t131 67.5t153.5 24.5q79 0 137 -22.5t96.5 -58t57.5 -78.5t19 -84q0 -67 -27.5 -123t-98.5 -101t-194.5 -78t-316.5 -53q-1 -6 -1 -12.5v-13.5q0 -127 55 -191.5t165 -64.5q69 0 115 19t78.5 41.5t57 41.5t51.5 19q21 0 39 -20zM551 1291 q0 -26 -10.5 -48.5t-28 -39t-40.5 -26.5t-49 -10q-25 0 -47.5 10t-39.5 26.5t-27 39t-10 48.5t10 49.5t27 41t39.5 27.5t47.5 10q26 0 49 -10t40.5 -27.5t28 -41t10.5 -49.5zM924 1291q0 -26 -10 -48.5t-27.5 -39t-40.5 -26.5t-49 -10t-48.5 10t-39.5 26.5t-27 39t-10 48.5 t10 49.5t27 41t39.5 27.5t48.5 10t49 -10t40.5 -27.5t27.5 -41t10 -49.5z" />
<glyph unicode="&#xec;" horiz-adv-x="476" d="M393 1020l-123 -1020h-211l122 1020h212zM241 1456q33 0 48.5 -12t26.5 -37l106 -242h-113q-22 0 -35.5 7t-26.5 25l-192 259h186z" />
<glyph unicode="&#xed;" horiz-adv-x="476" d="M393 1020l-123 -1020h-211l122 1020h212zM621 1456l-252 -259q-17 -18 -31.5 -25t-37.5 -7h-118l160 242q16 25 34.5 37t52.5 12h192z" />
<glyph unicode="&#xee;" horiz-adv-x="476" d="M393 1020l-123 -1020h-211l122 1020h212zM607 1169h-132q-11 0 -22.5 4t-22.5 18l-88 116q-9 10 -14 21q-5 -6 -10 -11l-10 -10l-116 -116q-11 -11 -24 -16.5t-25 -5.5h-137l239 271h184z" />
<glyph unicode="&#xef;" horiz-adv-x="476" d="M393 1020l-123 -1020h-211l122 1020h212zM296 1291q0 -26 -10 -48.5t-27.5 -39t-41 -26.5t-49.5 -10q-25 0 -47.5 10t-39.5 26.5t-27 39t-10 48.5t10 49.5t27 41t39.5 27.5t47.5 10q26 0 49.5 -10t41 -27.5t27.5 -41t10 -49.5zM603 1291q0 -26 -10 -48.5t-27.5 -39 t-40.5 -26.5t-49 -10t-48.5 10t-39.5 26.5t-27 39t-10 48.5t10 49.5t27 41t39.5 27.5t48.5 10t49 -10t40.5 -27.5t27.5 -41t10 -49.5z" />
<glyph unicode="&#xf0;" horiz-adv-x="1060" d="M459 147q58 0 108.5 22.5t91.5 73t71 130.5t46 194q-10 40 -28 76.5t-45.5 64.5t-66 44.5t-89.5 16.5q-69 0 -124 -28t-92.5 -76t-57.5 -113.5t-20 -140.5q0 -63 15.5 -112t43 -82.5t65.5 -51.5t82 -18zM818 1206q77 -85 121 -204t44 -277q0 -168 -36.5 -304t-106 -233 t-171.5 -149.5t-234 -52.5q-85 0 -156.5 29t-123 82.5t-80 130.5t-28.5 173q0 108 35.5 204t99 168t151.5 114t192 42q96 0 170 -41.5t122 -123.5q-3 121 -38 210t-106 154l-199 -135l-39 69q-9 16 -5 31.5t17 23.5l122 84q-73 39 -170 67q-35 11 -41.5 33.5t7.5 53.5l32 67 q92 -16 175 -48.5t154 -84.5l179 118l34 -69q8 -14 6.5 -31t-21.5 -29z" />
<glyph unicode="&#xf1;" horiz-adv-x="1072" d="M342 789q79 124 177 185.5t202 61.5q64 0 114 -25.5t82 -75t44 -121.5t1 -165l-77 -649h-214l77 649q14 109 -12.5 158.5t-95.5 49.5q-44 0 -90.5 -25t-89 -70.5t-79.5 -110t-61 -143.5l-56 -508h-214l122 1022h108q35 0 53.5 -17.5t18.5 -54.5zM714 1344q30 0 49 18.5 t24 61.5h121q-6 -52 -24 -94.5t-44.5 -73t-61 -47t-73.5 -16.5q-33 0 -59.5 13.5t-50 29.5t-44 29.5t-39.5 13.5q-30 0 -48.5 -19.5t-23.5 -62.5h-122q6 52 24 95t45 73.5t61.5 47.5t73.5 17q33 0 60 -13.5t50 -29.5t43 -29.5t39 -13.5z" />
<glyph unicode="&#xf2;" horiz-adv-x="1042" d="M457 153q67 0 122 37.5t93.5 100.5t59.5 145.5t21 172.5q0 132 -48.5 195.5t-143.5 63.5q-68 0 -122.5 -37t-92.5 -99t-59 -145t-21 -174q0 -260 191 -260zM438 -15q-84 0 -155 28.5t-122.5 83t-80.5 134t-29 180.5q0 131 41.5 245t113.5 198.5t168.5 133t206.5 48.5 q84 0 155 -28.5t122 -83t80 -134t29 -180.5q0 -86 -19 -166t-53 -149.5t-82.5 -126.5t-107 -97.5t-126.5 -63t-141 -22.5zM538 1456q33 0 48.5 -12t26.5 -37l106 -242h-113q-22 0 -35.5 7t-26.5 25l-192 259h186z" />
<glyph unicode="&#xf3;" horiz-adv-x="1042" d="M457 153q67 0 122 37.5t93.5 100.5t59.5 145.5t21 172.5q0 132 -48.5 195.5t-143.5 63.5q-68 0 -122.5 -37t-92.5 -99t-59 -145t-21 -174q0 -260 191 -260zM438 -15q-84 0 -155 28.5t-122.5 83t-80.5 134t-29 180.5q0 131 41.5 245t113.5 198.5t168.5 133t206.5 48.5 q84 0 155 -28.5t122 -83t80 -134t29 -180.5q0 -86 -19 -166t-53 -149.5t-82.5 -126.5t-107 -97.5t-126.5 -63t-141 -22.5zM919 1456l-252 -259q-17 -18 -31.5 -25t-37.5 -7h-118l160 242q16 25 34.5 37t52.5 12h192z" />
<glyph unicode="&#xf4;" horiz-adv-x="1042" d="M457 153q67 0 122 37.5t93.5 100.5t59.5 145.5t21 172.5q0 132 -48.5 195.5t-143.5 63.5q-68 0 -122.5 -37t-92.5 -99t-59 -145t-21 -174q0 -260 191 -260zM438 -15q-84 0 -155 28.5t-122.5 83t-80.5 134t-29 180.5q0 131 41.5 245t113.5 198.5t168.5 133t206.5 48.5 q84 0 155 -28.5t122 -83t80 -134t29 -180.5q0 -86 -19 -166t-53 -149.5t-82.5 -126.5t-107 -97.5t-126.5 -63t-141 -22.5zM902 1169h-132q-11 0 -22.5 4t-22.5 18l-88 116q-9 10 -14 21q-5 -6 -10 -11l-10 -10l-116 -116q-11 -11 -24 -16.5t-25 -5.5h-137l239 271h184z" />
<glyph unicode="&#xf5;" horiz-adv-x="1042" d="M457 153q67 0 122 37.5t93.5 100.5t59.5 145.5t21 172.5q0 132 -48.5 195.5t-143.5 63.5q-68 0 -122.5 -37t-92.5 -99t-59 -145t-21 -174q0 -260 191 -260zM438 -15q-84 0 -155 28.5t-122.5 83t-80.5 134t-29 180.5q0 131 41.5 245t113.5 198.5t168.5 133t206.5 48.5 q84 0 155 -28.5t122 -83t80 -134t29 -180.5q0 -86 -19 -166t-53 -149.5t-82.5 -126.5t-107 -97.5t-126.5 -63t-141 -22.5zM725 1344q30 0 49 18.5t24 61.5h121q-6 -52 -24 -94.5t-44.5 -73t-61 -47t-73.5 -16.5q-33 0 -59.5 13.5t-50 29.5t-44 29.5t-39.5 13.5 q-30 0 -48.5 -19.5t-23.5 -62.5h-122q6 52 24 95t45 73.5t61.5 47.5t73.5 17q33 0 60 -13.5t50 -29.5t43 -29.5t39 -13.5z" />
<glyph unicode="&#xf6;" horiz-adv-x="1042" d="M457 153q67 0 122 37.5t93.5 100.5t59.5 145.5t21 172.5q0 132 -48.5 195.5t-143.5 63.5q-68 0 -122.5 -37t-92.5 -99t-59 -145t-21 -174q0 -260 191 -260zM438 -15q-84 0 -155 28.5t-122.5 83t-80.5 134t-29 180.5q0 131 41.5 245t113.5 198.5t168.5 133t206.5 48.5 q84 0 155 -28.5t122 -83t80 -134t29 -180.5q0 -86 -19 -166t-53 -149.5t-82.5 -126.5t-107 -97.5t-126.5 -63t-141 -22.5zM566 1291q0 -26 -10.5 -48.5t-28 -39t-40.5 -26.5t-49 -10q-25 0 -47.5 10t-39.5 26.5t-27 39t-10 48.5t10 49.5t27 41t39.5 27.5t47.5 10 q26 0 49 -10t40.5 -27.5t28 -41t10.5 -49.5zM939 1291q0 -26 -10 -48.5t-27.5 -39t-40.5 -26.5t-49 -10t-48.5 10t-39.5 26.5t-27 39t-10 48.5t10 49.5t27 41t39.5 27.5t48.5 10t49 -10t40.5 -27.5t27.5 -41t10 -49.5z" />
<glyph unicode="&#xf7;" horiz-adv-x="1160" d="M113 750h966l-19 -157h-966zM493 1011q0 31 12 59t33 49t49 33t59 12q26 0 48.5 -9.5t38.5 -26.5t25 -39.5t9 -47.5q0 -32 -13 -60t-34 -48t-49 -31.5t-58 -11.5q-54 0 -87 35t-33 86zM405 299q0 31 12 59t33 49t49 33t59 12q26 0 48.5 -9.5t38.5 -26.5t25 -39.5t9 -47.5 q0 -32 -12.5 -60t-34 -48t-49.5 -31.5t-58 -11.5q-27 0 -49 9.5t-37.5 25.5t-24.5 38t-9 48z" />
<glyph unicode="&#xf8;" horiz-adv-x="1041" d="M344 174q47 -35 113 -35q67 0 124 35.5t97.5 98.5t63.5 149t23 187q0 68 -15 119zM674 847q-47 35 -113 35q-68 0 -124.5 -35.5t-97.5 -98t-64 -148.5t-23 -187q0 -35 4 -65.5t12 -56.5zM887 888q38 -53 59 -122.5t21 -155.5t-19 -166t-53 -149.5t-82.5 -126.5 t-107.5 -97.5t-127 -63t-141 -22.5q-119 0 -210 56l-21 -29q-26 -35 -61 -50t-69 -15h-79l134 184q-38 54 -59 123.5t-21 156.5q0 131 41.5 245t113 198.5t168 133t206.5 48.5q119 0 211 -57l22 30q12 16 22 27.5t20.5 18.5t24 10t32.5 3h107z" />
<glyph unicode="&#xf9;" horiz-adv-x="1071" d="M997 1020l-123 -1020h-107q-78 0 -78 76l10 147q-78 -119 -174.5 -178.5t-198.5 -59.5q-64 0 -114 25.5t-82 75t-44 121.5t-1 165l77 648h214l-77 -648q-14 -109 12.5 -159t95.5 -50q42 0 87 23.5t87 66.5t78 104t61 136l63 527h214zM530 1456q33 0 48.5 -12t26.5 -37 l106 -242h-113q-22 0 -35.5 7t-26.5 25l-192 259h186z" />
<glyph unicode="&#xfa;" horiz-adv-x="1071" d="M997 1020l-123 -1020h-107q-78 0 -78 76l10 147q-78 -119 -174.5 -178.5t-198.5 -59.5q-64 0 -114 25.5t-82 75t-44 121.5t-1 165l77 648h214l-77 -648q-14 -109 12.5 -159t95.5 -50q42 0 87 23.5t87 66.5t78 104t61 136l63 527h214zM954 1456l-252 -259 q-17 -18 -31.5 -25t-37.5 -7h-118l160 242q16 25 34.5 37t52.5 12h192z" />
<glyph unicode="&#xfb;" horiz-adv-x="1071" d="M997 1020l-123 -1020h-107q-78 0 -78 76l10 147q-78 -119 -174.5 -178.5t-198.5 -59.5q-64 0 -114 25.5t-82 75t-44 121.5t-1 165l77 648h214l-77 -648q-14 -109 12.5 -159t95.5 -50q42 0 87 23.5t87 66.5t78 104t61 136l63 527h214zM908 1169h-132q-11 0 -22.5 4 t-22.5 18l-88 116q-9 10 -14 21q-5 -6 -10 -11l-10 -10l-116 -116q-11 -11 -24 -16.5t-25 -5.5h-137l239 271h184z" />
<glyph unicode="&#xfc;" horiz-adv-x="1071" d="M997 1020l-123 -1020h-107q-78 0 -78 76l10 147q-78 -119 -174.5 -178.5t-198.5 -59.5q-64 0 -114 25.5t-82 75t-44 121.5t-1 165l77 648h214l-77 -648q-14 -109 12.5 -159t95.5 -50q42 0 87 23.5t87 66.5t78 104t61 136l63 527h214zM555 1291q0 -26 -10.5 -48.5t-28 -39 t-40.5 -26.5t-49 -10q-25 0 -47.5 10t-39.5 26.5t-27 39t-10 48.5t10 49.5t27 41t39.5 27.5t47.5 10q26 0 49 -10t40.5 -27.5t28 -41t10.5 -49.5zM928 1291q0 -26 -10 -48.5t-27.5 -39t-40.5 -26.5t-49 -10t-48.5 10t-39.5 26.5t-27 39t-10 48.5t10 49.5t27 41t39.5 27.5 t48.5 10t49 -10t40.5 -27.5t27.5 -41t10 -49.5z" />
<glyph unicode="&#xfd;" horiz-adv-x="972" d="M1013 1020l-681 -1312q-24 -47 -71 -47h-159l224 410l-260 949h178q25 0 37 -12.5t16 -29.5l144 -579q5 -23 8.5 -47t5.5 -47q10 24 20.5 47.5t21.5 47.5l285 579q9 18 25.5 29.5t34.5 11.5h171zM895 1456l-252 -259q-17 -18 -31.5 -25t-37.5 -7h-118l160 242 q16 25 34.5 37t52.5 12h192z" />
<glyph unicode="&#xfe;" horiz-adv-x="1068" d="M286 231q36 -44 84.5 -62t96.5 -18t90 20t77 55t63 82.5t47 101.5t29 112.5t10 115.5q0 113 -38.5 169.5t-109.5 56.5q-44 0 -89 -28.5t-87 -79t-78.5 -119t-62.5 -148.5zM356 796q37 55 79 99.5t87.5 75.5t95 48t100.5 17q64 0 115.5 -23.5t87.5 -71t55.5 -118 t19.5 -164.5q0 -85 -17.5 -168t-49.5 -157.5t-77.5 -138.5t-100.5 -110.5t-119 -73t-133 -26.5q-72 0 -130.5 27t-100.5 75l-43 -351q-4 -29 -27 -52t-59 -23h-132l222 1819h211z" />
<glyph unicode="&#xff;" horiz-adv-x="972" d="M1013 1020l-681 -1312q-24 -47 -71 -47h-159l224 410l-260 949h178q25 0 37 -12.5t16 -29.5l144 -579q5 -23 8.5 -47t5.5 -47q10 24 20.5 47.5t21.5 47.5l285 579q9 18 25.5 29.5t34.5 11.5h171zM518 1291q0 -26 -10.5 -48.5t-28 -39t-40.5 -26.5t-49 -10q-25 0 -47.5 10 t-39.5 26.5t-27 39t-10 48.5t10 49.5t27 41t39.5 27.5t47.5 10q26 0 49 -10t40.5 -27.5t28 -41t10.5 -49.5zM891 1291q0 -26 -10 -48.5t-27.5 -39t-40.5 -26.5t-49 -10t-48.5 10t-39.5 26.5t-27 39t-10 48.5t10 49.5t27 41t39.5 27.5t48.5 10t49 -10t40.5 -27.5t27.5 -41 t10 -49.5z" />
<glyph unicode="&#x100;" horiz-adv-x="1282" d="M859 538l-114 539q-5 31 -12.5 71t-14.5 88q-17 -48 -34 -88.5t-31 -72.5l-246 -537h452zM1205 0h-174q-30 0 -46.5 14.5t-23.5 38.5l-68 323h-561l-148 -323q-10 -21 -31.5 -37t-49.5 -16h-176l701 1440h229zM507 1704h533l-13 -126h-534z" />
<glyph unicode="&#x101;" horiz-adv-x="1033" d="M735 876q-17 2 -33.5 3t-33.5 1q-86 0 -161.5 -40t-131 -108t-87.5 -157.5t-32 -188.5q0 -114 36.5 -168.5t103.5 -54.5q45 0 88 29.5t81.5 81t71.5 121.5t57 152zM667 238q-35 -58 -74.5 -104.5t-83.5 -79.5t-93 -51t-102 -18q-59 0 -109 23t-86 69t-56.5 113.5 t-20.5 156.5q0 91 23 177.5t65 163t101 140.5t132 110t157.5 71.5t177.5 25.5q67 0 133 -10.5t129 -36.5l-122 -988h-113q-41 0 -56 21t-15 52zM447 1361h541l-17 -139h-539z" />
<glyph unicode="&#x102;" horiz-adv-x="1282" d="M859 538l-114 539q-5 31 -12.5 71t-14.5 88q-17 -48 -34 -88.5t-31 -72.5l-246 -537h452zM1205 0h-174q-30 0 -46.5 14.5t-23.5 38.5l-68 323h-561l-148 -323q-10 -21 -31.5 -37t-49.5 -16h-176l701 1440h229zM758 1545q-67 0 -119 16t-85.5 49.5t-48.5 84t-7 119.5h152 q-8 -66 18.5 -102t104.5 -36q39 0 66.5 9.5t45.5 27t28 43t14 58.5h151q-7 -63 -32.5 -113t-67 -84.5t-97.5 -53t-123 -18.5z" />
<glyph unicode="&#x103;" horiz-adv-x="1033" d="M735 876q-17 2 -33.5 3t-33.5 1q-86 0 -161.5 -40t-131 -108t-87.5 -157.5t-32 -188.5q0 -114 36.5 -168.5t103.5 -54.5q45 0 88 29.5t81.5 81t71.5 121.5t57 152zM667 238q-35 -58 -74.5 -104.5t-83.5 -79.5t-93 -51t-102 -18q-59 0 -109 23t-86 69t-56.5 113.5 t-20.5 156.5q0 91 23 177.5t65 163t101 140.5t132 110t157.5 71.5t177.5 25.5q67 0 133 -10.5t129 -36.5l-122 -988h-113q-41 0 -56 21t-15 52zM709 1163q-75 0 -123 22t-75 60t-34.5 88t-1.5 107h139q-4 -32 -1 -57.5t15.5 -43.5t35.5 -28t61 -10q37 0 62.5 10t42 28 t25 43.5t12.5 57.5h139q-6 -57 -25.5 -107t-54.5 -88t-88.5 -60t-128.5 -22z" />
<glyph unicode="&#x104;" horiz-adv-x="1282" d="M859 538l-114 539q-5 31 -12.5 71t-14.5 88q-17 -48 -34 -88.5t-31 -72.5l-246 -537h452zM1241 -292q-32 -23 -78.5 -37t-96.5 -14q-82 0 -125.5 35.5t-43.5 93.5q0 61 41 115.5t113 98.5h-20q-30 0 -46.5 14.5t-23.5 38.5l-68 323h-561l-148 -323q-10 -21 -31.5 -37 t-49.5 -16h-176l701 1440h229l348 -1440h-23q-21 -12 -41.5 -28t-37.5 -35.5t-27.5 -42.5t-10.5 -49q0 -28 16 -44.5t45 -16.5q18 0 30 3t20 6t13 6t10 3q15 0 19 -14z" />
<glyph unicode="&#x105;" horiz-adv-x="1033" d="M736 876q-17 2 -33.5 3t-33.5 1q-86 0 -161.5 -40t-131 -108t-87.5 -157.5t-32 -188.5q0 -114 36.5 -168.5t103.5 -54.5q45 0 88 29.5t81.5 81t71.5 121.5t57 152zM813 0q-21 -12 -41.5 -28t-37.5 -35.5t-27.5 -42.5t-10.5 -49q0 -28 16 -44.5t45 -16.5q18 0 30 3t20 6 t13 6t10 3q15 0 19 -14l23 -80q-32 -23 -78.5 -37t-96.5 -14q-82 0 -125.5 35.5t-43.5 93.5q0 63 43.5 119t120.5 101q-21 8 -29 26t-8 41l13 165q-35 -58 -74.5 -104.5t-83.5 -79.5t-93 -51t-102 -18q-59 0 -109 23t-86 69t-56.5 113.5t-20.5 156.5q0 91 23 177.5t65 163 t101 140.5t132 110t157.5 71.5t177.5 25.5q67 0 133 -10.5t129 -36.5l-122 -988h-26z" />
<glyph unicode="&#x106;" horiz-adv-x="1245" d="M681 178q63 0 111.5 10t84.5 25.5t61.5 33.5t44.5 33.5t33 25.5t27 10q11 0 18 -4.5t11 -9.5l79 -99q-93 -104 -219 -161.5t-289 -57.5q-131 0 -234 47t-174 130t-108.5 198t-37.5 251q0 187 59 342.5t162 267.5t241.5 174t297.5 62q78 0 141.5 -14t115 -39.5t93.5 -61.5 t77 -80l-77 -94q-9 -11 -21 -19t-30 -8q-13 0 -26 9t-29 22.5t-37.5 29t-51.5 29t-70.5 22.5t-95.5 9q-110 0 -205 -44.5t-164.5 -126.5t-109.5 -199t-40 -262q0 -105 27 -189t75 -142t114.5 -89t145.5 -31zM1257 1857l-330 -286q-19 -16 -34 -20t-38 -4h-141l233 273 q10 13 19 20t19 11t22.5 5t29.5 1h220z" />
<glyph unicode="&#x107;" horiz-adv-x="908" d="M825 182q-51 -57 -98 -94.5t-94.5 -60.5t-99 -32.5t-112.5 -9.5q-89 0 -158 30.5t-116 86t-72 133.5t-25 173q0 82 18 161t51 148.5t80.5 128t106.5 100.5t128 65.5t146 23.5q102 0 171.5 -36t122.5 -106l-68 -82q-8 -8 -18 -14.5t-22 -6.5q-15 0 -29 11t-34 24.5t-50 25 t-77 11.5q-63 0 -119.5 -34t-99 -94.5t-67.5 -144.5t-25 -183q0 -118 52.5 -185t148.5 -67q62 0 103 18t69.5 39t49.5 39t44 18q21 0 39 -20l54 -66v0zM922 1456l-252 -259q-17 -18 -31.5 -25t-37.5 -7h-118l160 242q16 25 34.5 37t52.5 12h192z" />
<glyph unicode="&#x108;" horiz-adv-x="1245" d="M681 178q63 0 111.5 10t84.5 25.5t61.5 33.5t44.5 33.5t33 25.5t27 10q11 0 18 -4.5t11 -9.5l79 -99q-93 -104 -219 -161.5t-289 -57.5q-131 0 -234 47t-174 130t-108.5 198t-37.5 251q0 187 59 342.5t162 267.5t241.5 174t297.5 62q78 0 141.5 -14t115 -39.5t93.5 -61.5 t77 -80l-77 -94q-9 -11 -21 -19t-30 -8q-13 0 -26 9t-29 22.5t-37.5 29t-51.5 29t-70.5 22.5t-95.5 9q-110 0 -205 -44.5t-164.5 -126.5t-109.5 -199t-40 -262q0 -105 27 -189t75 -142t114.5 -89t145.5 -31zM1162 1547h-143q-13 0 -30 5t-33 30l-77 121q-3 5 -5.5 9.5 t-4.5 9.5q-3 -5 -6.5 -9.5t-7.5 -9.5l-105 -121q-21 -25 -39.5 -30t-30.5 -5h-138l252 274h178z" />
<glyph unicode="&#x109;" horiz-adv-x="908" d="M825 182q-51 -57 -98 -94.5t-94.5 -60.5t-99 -32.5t-112.5 -9.5q-89 0 -158 30.5t-116 86t-72 133.5t-25 173q0 82 18 161t51 148.5t80.5 128t106.5 100.5t128 65.5t146 23.5q102 0 171.5 -36t122.5 -106l-68 -82q-8 -8 -18 -14.5t-22 -6.5q-15 0 -29 11t-34 24.5t-50 25 t-77 11.5q-63 0 -119.5 -34t-99 -94.5t-67.5 -144.5t-25 -183q0 -118 52.5 -185t148.5 -67q62 0 103 18t69.5 39t49.5 39t44 18q21 0 39 -20zM895 1169h-132q-11 0 -22.5 4t-22.5 18l-88 116q-9 10 -14 21q-5 -6 -10 -11l-10 -10l-116 -116q-11 -11 -24 -16.5t-25 -5.5h-137 l239 271h184z" />
<glyph unicode="&#x10a;" horiz-adv-x="1245" d="M681 178q63 0 111.5 10t84.5 25.5t61.5 33.5t44.5 33.5t33 25.5t27 10q11 0 18 -4.5t11 -9.5l79 -99q-93 -104 -219 -161.5t-289 -57.5q-131 0 -234 47t-174 130t-108.5 198t-37.5 251q0 187 59 342.5t162 267.5t241.5 174t297.5 62q78 0 141.5 -14t115 -39.5t93.5 -61.5 t77 -80l-77 -94q-9 -11 -21 -19t-30 -8q-13 0 -26 9t-29 22.5t-37.5 29t-51.5 29t-70.5 22.5t-95.5 9q-110 0 -205 -44.5t-164.5 -126.5t-109.5 -199t-40 -262q0 -105 27 -189t75 -142t114.5 -89t145.5 -31zM1043 1691q0 -29 -12 -55t-32 -45.5t-45 -31t-52 -11.5 t-51.5 11.5t-43 31t-30 45.5t-11.5 55t11.5 55.5t30.5 46t43.5 31t51.5 11.5t52.5 -11.5t45 -31t31 -45.5t11.5 -56z" />
<glyph unicode="&#x10b;" horiz-adv-x="908" d="M825 182q-51 -57 -98 -94.5t-94.5 -60.5t-99 -32.5t-112.5 -9.5q-89 0 -158 30.5t-116 86t-72 133.5t-25 173q0 82 18 161t51 148.5t80.5 128t106.5 100.5t128 65.5t146 23.5q102 0 171.5 -36t122.5 -106l-68 -82q-8 -8 -18 -14.5t-22 -6.5q-15 0 -29 11t-34 24.5t-50 25 t-77 11.5q-63 0 -119.5 -34t-99 -94.5t-67.5 -144.5t-25 -183q0 -118 52.5 -185t148.5 -67q62 0 103 18t69.5 39t49.5 39t44 18q21 0 39 -20l54 -66v0zM744 1328q0 -29 -12 -55t-32 -45.5t-45 -31t-52 -11.5t-51.5 11.5t-43 31t-30 45.5t-11.5 55t11.5 55.5t30.5 46t44 31 t51 11.5q27 0 52.5 -11.5t45 -31t31 -45.5t11.5 -56z" />
<glyph unicode="&#x10c;" horiz-adv-x="1245" d="M681 178q63 0 111.5 10t84.5 25.5t61.5 33.5t44.5 33.5t33 25.5t27 10q11 0 18 -4.5t11 -9.5l79 -99q-93 -104 -219 -161.5t-289 -57.5q-131 0 -234 47t-174 130t-108.5 198t-37.5 251q0 187 59 342.5t162 267.5t241.5 174t297.5 62q78 0 141.5 -14t115 -39.5t93.5 -61.5 t77 -80l-77 -94q-9 -11 -21 -19t-30 -8q-13 0 -26 9t-29 22.5t-37.5 29t-51.5 29t-70.5 22.5t-95.5 9q-110 0 -205 -44.5t-164.5 -126.5t-109.5 -199t-40 -262q0 -105 27 -189t75 -142t114.5 -89t145.5 -31zM1206 1821l-252 -274h-184l-190 274h144q12 0 29.5 -4t28.5 -23 l81 -132q3 -5 5.5 -10t4.5 -10q4 5 7.5 10t7.5 10l110 131q16 20 34 24t31 4h143z" />
<glyph unicode="&#x10d;" horiz-adv-x="908" d="M825 182q-51 -57 -98 -94.5t-94.5 -60.5t-99 -32.5t-112.5 -9.5q-89 0 -158 30.5t-116 86t-72 133.5t-25 173q0 82 18 161t51 148.5t80.5 128t106.5 100.5t128 65.5t146 23.5q102 0 171.5 -36t122.5 -106l-68 -82q-8 -8 -18 -14.5t-22 -6.5q-15 0 -29 11t-34 24.5t-50 25 t-77 11.5q-63 0 -119.5 -34t-99 -94.5t-67.5 -144.5t-25 -183q0 -118 52.5 -185t148.5 -67q62 0 103 18t69.5 39t49.5 39t44 18q21 0 39 -20l54 -66v0zM905 1440l-239 -271h-185l-177 271h136q13 0 24 -5t16 -11l93 -122q4 -5 7.5 -10.5t8.5 -12.5q9 12 20 23l120 122 q8 5 20 10.5t24 5.5h132z" />
<glyph unicode="&#x10e;" horiz-adv-x="1416" d="M1352 819q0 -121 -26 -228.5t-74 -198.5t-116.5 -164t-153 -123.5t-184 -77.5t-209.5 -27h-502l177 1440h503q135 0 243.5 -46t184 -128.5t116.5 -196.5t41 -250zM1121 813q0 102 -25.5 184.5t-74 140.5t-118.5 89t-158 31h-276l-134 -1076h276q114 0 208 43.5t161 125 t104 198.5t37 264zM1098 1821l-252 -274h-184l-190 274h144q12 0 29.5 -4t28.5 -23l81 -132q3 -5 5.5 -10t4.5 -10q4 5 7.5 10t7.5 10l110 131q16 20 34 24t31 4h143z" />
<glyph unicode="&#x10f;" horiz-adv-x="1069" d="M1291 1481q20 0 26 -9t6 -19t-3.5 -24t-15.5 -42.5t-35.5 -76.5t-62.5 -125q-14 -25 -31.5 -32t-45.5 -7h-53l97 335h118zM758 790q-36 44 -84.5 61.5t-96.5 17.5q-72 0 -130.5 -43.5t-100 -113t-64 -156t-22.5 -172.5q0 -113 39 -170t109 -57q44 0 90 29t88 80t78.5 121 t62.5 152zM1054 1480l-183 -1480h-113q-41 0 -55.5 21t-14.5 52l13 174q-38 -60 -81 -108t-90.5 -82.5t-98.5 -53t-105 -18.5q-129 0 -203.5 94.5t-74.5 282.5q0 85 17.5 168t49.5 158t77.5 138.5t100.5 110t118.5 73t132.5 26.5q72 0 131 -27t101 -76l68 547h210z" />
<glyph unicode="&#x110;" horiz-adv-x="1428" d="M626 182q114 0 207.5 43.5t160 125t103 198.5t36.5 264q0 102 -25.5 184.5t-73.5 140.5t-118 89t-158 31h-277l-57 -468h338l-15 -131h-339l-58 -477h276zM780 1440q135 0 243.5 -46t184.5 -128.5t116.5 -196.5t40.5 -250q0 -121 -26 -228.5t-74 -198.5t-116 -164 t-152.5 -123.5t-183.5 -77.5t-209 -27h-503l81 659h-171l16 131h171l79 650h503z" />
<glyph unicode="&#x111;" horiz-adv-x="1069" d="M756 767q-36 42 -83.5 59.5t-95.5 17.5q-72 0 -130.5 -39.5t-100 -104.5t-64 -147.5t-22.5 -168.5q0 -113 39 -170t109 -57q44 0 90 29t88 80t78.5 121t62.5 152zM1141 1138h-129l-141 -1138h-113q-41 0 -55.5 21t-14.5 52l13 174q-38 -60 -81 -108t-90.5 -82.5 t-98.5 -53t-105 -18.5q-129 0 -203.5 94.5t-74.5 282.5q0 85 17.5 166t49.5 153t77.5 132.5t100.5 104t118.5 68t132.5 24.5q72 0 129.5 -26t99.5 -73l29 227h-138q-44 0 -59 18t-9 57l9 56h213l26 211h210l-26 -211h128z" />
<glyph unicode="&#x112;" horiz-adv-x="1074" d="M468 1257l-54 -443h481l-23 -176h-480l-56 -455h605l-23 -183h-831l177 1440h830l-23 -183h-603zM458 1704h533l-13 -126h-534z" />
<glyph unicode="&#x113;" horiz-adv-x="966" d="M574 882q-56 0 -103.5 -23t-85 -63.5t-65 -96.5t-42.5 -122q138 18 222 40t129 48t60 55.5t15 62.5q0 16 -7 34t-22.5 32t-40.5 23.5t-60 9.5zM873 189q-52 -53 -102 -91.5t-102 -63.5t-109 -37t-124 -12q-89 0 -160 30t-121.5 84.5t-77.5 132t-27 173.5q0 80 17 157.5 t49.5 147.5t79 129.5t106 102.5t131 67.5t153.5 24.5q79 0 137 -22.5t96.5 -58t57.5 -78.5t19 -84q0 -67 -27.5 -123t-98.5 -101t-194.5 -78t-316.5 -53q-1 -6 -1 -12.5v-13.5q0 -127 55 -191.5t165 -64.5q69 0 115 19t78.5 41.5t57 41.5t51.5 19q21 0 39 -20zM346 1361h541 l-17 -139h-539z" />
<glyph unicode="&#x114;" horiz-adv-x="1074" d="M468 1257l-54 -443h481l-23 -176h-480l-56 -455h605l-23 -183h-831l177 1440h830l-23 -183h-603zM707 1545q-67 0 -119 16t-85.5 49.5t-48.5 84t-7 119.5h152q-8 -66 18.5 -102t104.5 -36q39 0 66.5 9.5t45.5 27t28 43t14 58.5h151q-7 -63 -32.5 -113t-67 -84.5 t-97.5 -53t-123 -18.5z" />
<glyph unicode="&#x115;" horiz-adv-x="966" d="M574 882q-56 0 -103.5 -23t-85 -63.5t-65 -96.5t-42.5 -122q138 18 222 40t129 48t60 55.5t15 62.5q0 16 -7 34t-22.5 32t-40.5 23.5t-60 9.5zM873 189q-52 -53 -102 -91.5t-102 -63.5t-109 -37t-124 -12q-89 0 -160 30t-121.5 84.5t-77.5 132t-27 173.5q0 80 17 157.5 t49.5 147.5t79 129.5t106 102.5t131 67.5t153.5 24.5q79 0 137 -22.5t96.5 -58t57.5 -78.5t19 -84q0 -67 -27.5 -123t-98.5 -101t-194.5 -78t-316.5 -53q-1 -6 -1 -12.5v-13.5q0 -127 55 -191.5t165 -64.5q69 0 115 19t78.5 41.5t57 41.5t51.5 19q21 0 39 -20zM587 1163 q-75 0 -123 22t-75 60t-34.5 88t-1.5 107h139q-4 -32 -1 -57.5t15.5 -43.5t35.5 -28t61 -10q37 0 62.5 10t42 28t25 43.5t12.5 57.5h139q-6 -57 -25.5 -107t-54.5 -88t-88.5 -60t-128.5 -22z" />
<glyph unicode="&#x116;" horiz-adv-x="1074" d="M468 1257l-54 -443h481l-23 -176h-480l-56 -455h605l-23 -183h-831l177 1440h830l-23 -183h-603zM854 1691q0 -29 -12 -55t-32 -45.5t-45 -31t-52 -11.5t-51.5 11.5t-43 31t-30 45.5t-11.5 55t11.5 55.5t30.5 46t43.5 31t51.5 11.5t52.5 -11.5t45 -31t31 -45.5t11.5 -56z " />
<glyph unicode="&#x117;" horiz-adv-x="966" d="M574 882q-56 0 -103.5 -23t-85 -63.5t-65 -96.5t-42.5 -122q138 18 222 40t129 48t60 55.5t15 62.5q0 16 -7 34t-22.5 32t-40.5 23.5t-60 9.5zM873 189q-52 -53 -102 -91.5t-102 -63.5t-109 -37t-124 -12q-89 0 -160 30t-121.5 84.5t-77.5 132t-27 173.5q0 80 17 157.5 t49.5 147.5t79 129.5t106 102.5t131 67.5t153.5 24.5q79 0 137 -22.5t96.5 -58t57.5 -78.5t19 -84q0 -67 -27.5 -123t-98.5 -101t-194.5 -78t-316.5 -53q-1 -6 -1 -12.5v-13.5q0 -127 55 -191.5t165 -64.5q69 0 115 19t78.5 41.5t57 41.5t51.5 19q21 0 39 -20zM750 1328 q0 -29 -12 -55t-32 -45.5t-45 -31t-52 -11.5t-51.5 11.5t-43 31t-30 45.5t-11.5 55t11.5 55.5t30.5 46t44 31t51 11.5q27 0 52.5 -11.5t45 -31t31 -45.5t11.5 -56z" />
<glyph unicode="&#x118;" horiz-adv-x="1074" d="M468 1257l-54 -443h481l-23 -176h-480l-56 -455h605l-23 -183h-59q-21 -12 -41.5 -28t-37.5 -35.5t-27.5 -42.5t-10.5 -49q0 -28 16 -44.5t45 -16.5q18 0 30 3t20 6t13 6t10 3q15 0 19 -14l23 -80q-32 -23 -78.5 -37t-96.5 -14q-82 0 -125.5 35.5t-43.5 93.5 q0 61 41 115.5t113 98.5h-641l177 1440h830l-23 -183h-603z" />
<glyph unicode="&#x119;" horiz-adv-x="966" d="M574 882q-56 0 -103.5 -23t-85 -63.5t-65 -96.5t-42.5 -122q138 18 222 40t129 48t60 55.5t15 62.5q0 16 -7 34t-22.5 32t-40.5 23.5t-60 9.5zM631 -292q-32 -23 -78.5 -37t-96.5 -14q-82 0 -125.5 35.5t-43.5 93.5q0 56 34.5 106.5t96.5 92.5q-84 3 -152 34t-116 85.5 t-74 131t-26 169.5q0 80 17 157.5t49.5 147.5t79 129.5t106 102.5t131 67.5t153.5 24.5q79 0 137 -22.5t96.5 -58t57.5 -78.5t19 -84q0 -67 -27.5 -123t-98.5 -101t-194.5 -78t-316.5 -53q-1 -6 -1 -12.5v-13.5q0 -127 55 -191.5t165 -64.5q69 0 115 19t78.5 41.5t57 41.5 t51.5 19q21 0 39 -20l54 -66q-76 -78 -147.5 -124t-154.5 -66q-21 -12 -41.5 -27.5t-37 -35t-27 -42.5t-10.5 -49q0 -28 16 -44.5t45 -16.5q18 0 30 3t20 6t13 6t10 3q15 0 19 -14z" />
<glyph unicode="&#x11a;" horiz-adv-x="1074" d="M468 1257l-54 -443h481l-23 -176h-480l-56 -455h605l-23 -183h-831l177 1440h830l-23 -183h-603zM1042 1821l-252 -274h-184l-190 274h144q12 0 29.5 -4t28.5 -23l81 -132q3 -5 5.5 -10t4.5 -10q4 5 7.5 10t7.5 10l110 131q16 20 34 24t31 4h143z" />
<glyph unicode="&#x11b;" horiz-adv-x="966" d="M574 882q-56 0 -103.5 -23t-85 -63.5t-65 -96.5t-42.5 -122q138 18 222 40t129 48t60 55.5t15 62.5q0 16 -7 34t-22.5 32t-40.5 23.5t-60 9.5zM873 189q-52 -53 -102 -91.5t-102 -63.5t-109 -37t-124 -12q-89 0 -160 30t-121.5 84.5t-77.5 132t-27 173.5q0 80 17 157.5 t49.5 147.5t79 129.5t106 102.5t131 67.5t153.5 24.5q79 0 137 -22.5t96.5 -58t57.5 -78.5t19 -84q0 -67 -27.5 -123t-98.5 -101t-194.5 -78t-316.5 -53q-1 -6 -1 -12.5v-13.5q0 -127 55 -191.5t165 -64.5q69 0 115 19t78.5 41.5t57 41.5t51.5 19q21 0 39 -20zM907 1440 l-239 -271h-185l-177 271h136q13 0 24 -5t16 -11l93 -122q4 -5 7.5 -10.5t8.5 -12.5q9 12 20 23l120 122q8 5 20 10.5t24 5.5h132z" />
<glyph unicode="&#x11c;" horiz-adv-x="1358" d="M833 705h431l-70 -566q-55 -39 -113 -68t-122 -48.5t-135.5 -29t-153.5 -9.5q-131 0 -238.5 47.5t-183.5 132t-117.5 201.5t-41.5 255q0 184 58.5 337.5t161 264.5t243.5 172.5t306 61.5q86 0 156 -15t126.5 -41t101.5 -61t82 -75l-72 -94q-18 -26 -43 -31.5t-51 11.5 q-26 16 -53.5 35.5t-64 36.5t-84.5 28t-114 11q-116 0 -212 -45t-165 -128t-107 -200t-38 -260q0 -108 27.5 -193.5t78.5 -145t122.5 -91.5t159.5 -32q93 0 162 19t133 52l36 297h-179q-21 0 -32.5 12t-9.5 30zM1169 1547h-143q-13 0 -30 5t-33 30l-77 121q-3 5 -5.5 9.5 t-4.5 9.5q-3 -5 -6.5 -9.5t-7.5 -9.5l-105 -121q-21 -25 -39.5 -30t-30.5 -5h-138l252 274h178z" />
<glyph unicode="&#x11d;" horiz-adv-x="987" d="M628 -13q0 37 -9 69q-126 21 -215.5 17.5t-147.5 -24.5t-85 -54.5t-27 -72.5q0 -65 54 -99t159 -34q61 0 111 15.5t85.5 42.5t55 63t19.5 77zM449 470q49 0 86.5 22t63 58t39 81.5t14.5 91.5q0 81 -40 123t-112 42q-49 0 -86 -20.5t-62.5 -55t-38.5 -79t-13 -92.5 q0 -82 38.5 -126.5t110.5 -44.5zM1002 984l-9 -71q-6 -44 -45 -57l-113 -25q6 -23 9.5 -47.5t3.5 -52.5q0 -48 -11 -86t-27 -70.5t-34.5 -61.5t-34 -58t-26 -60.5t-10.5 -68.5q0 -41 18.5 -75.5t41 -71t41 -78.5t18.5 -97q-1 -74 -34.5 -140t-96 -116t-152 -79.5 t-202.5 -29.5q-91 0 -165 19t-126 53t-80 81t-28 104q0 67 28.5 117.5t76.5 86t111 57.5t132.5 32t140.5 8.5t135 -11.5q-6 17 -10 35t-4 38q0 30 8.5 62.5t27.5 70.5q-38 -26 -85.5 -40t-111.5 -14q-58 0 -110 19t-91 57t-61.5 95t-22.5 134q0 73 27 144t80.5 126t132 89 t180.5 34q56 0 105.5 -13t90.5 -39h282zM878 1169h-132q-11 0 -22.5 4t-22.5 18l-88 116q-9 10 -14 21q-5 -6 -10 -11l-10 -10l-116 -116q-11 -11 -24 -16.5t-25 -5.5h-137l239 271h184z" />
<glyph unicode="&#x11e;" horiz-adv-x="1358" d="M833 705h431l-70 -566q-55 -39 -113 -68t-122 -48.5t-135.5 -29t-153.5 -9.5q-131 0 -238.5 47.5t-183.5 132t-117.5 201.5t-41.5 255q0 184 58.5 337.5t161 264.5t243.5 172.5t306 61.5q86 0 156 -15t126.5 -41t101.5 -61t82 -75l-72 -94q-18 -26 -43 -31.5t-51 11.5 q-26 16 -53.5 35.5t-64 36.5t-84.5 28t-114 11q-116 0 -212 -45t-165 -128t-107 -200t-38 -260q0 -108 27.5 -193.5t78.5 -145t122.5 -91.5t159.5 -32q93 0 162 19t133 52l36 297h-179q-21 0 -32.5 12t-9.5 30zM851 1545q-67 0 -119 16t-85.5 49.5t-48.5 84t-7 119.5h152 q-8 -66 18.5 -102t104.5 -36q39 0 66.5 9.5t45.5 27t28 43t14 58.5h151q-7 -63 -32.5 -113t-67 -84.5t-97.5 -53t-123 -18.5z" />
<glyph unicode="&#x11f;" horiz-adv-x="987" d="M628 -13q0 37 -9 69q-126 21 -215.5 17.5t-147.5 -24.5t-85 -54.5t-27 -72.5q0 -65 54 -99t159 -34q61 0 111 15.5t85.5 42.5t55 63t19.5 77zM449 470q49 0 86.5 22t63 58t39 81.5t14.5 91.5q0 81 -40 123t-112 42q-49 0 -86 -20.5t-62.5 -55t-38.5 -79t-13 -92.5 q0 -82 38.5 -126.5t110.5 -44.5zM1002 984l-9 -71q-6 -44 -45 -57l-113 -25q6 -23 9.5 -47.5t3.5 -52.5q0 -48 -11 -86t-27 -70.5t-34.5 -61.5t-34 -58t-26 -60.5t-10.5 -68.5q0 -41 18.5 -75.5t41 -71t41 -78.5t18.5 -97q-1 -74 -34.5 -140t-96 -116t-152 -79.5 t-202.5 -29.5q-91 0 -165 19t-126 53t-80 81t-28 104q0 67 28.5 117.5t76.5 86t111 57.5t132.5 32t140.5 8.5t135 -11.5q-6 17 -10 35t-4 38q0 30 8.5 62.5t27.5 70.5q-38 -26 -85.5 -40t-111.5 -14q-58 0 -110 19t-91 57t-61.5 95t-22.5 134q0 73 27 144t80.5 126t132 89 t180.5 34q56 0 105.5 -13t90.5 -39h282zM566 1163q-75 0 -123 22t-75 60t-34.5 88t-1.5 107h139q-4 -32 -1 -57.5t15.5 -43.5t35.5 -28t61 -10q37 0 62.5 10t42 28t25 43.5t12.5 57.5h139q-6 -57 -25.5 -107t-54.5 -88t-88.5 -60t-128.5 -22z" />
<glyph unicode="&#x120;" horiz-adv-x="1358" d="M833 705h431l-70 -566q-55 -39 -113 -68t-122 -48.5t-135.5 -29t-153.5 -9.5q-131 0 -238.5 47.5t-183.5 132t-117.5 201.5t-41.5 255q0 184 58.5 337.5t161 264.5t243.5 172.5t306 61.5q86 0 156 -15t126.5 -41t101.5 -61t82 -75l-72 -94q-18 -26 -43 -31.5t-51 11.5 q-26 16 -53.5 35.5t-64 36.5t-84.5 28t-114 11q-116 0 -212 -45t-165 -128t-107 -200t-38 -260q0 -108 27.5 -193.5t78.5 -145t122.5 -91.5t159.5 -32q93 0 162 19t133 52l36 297h-179q-21 0 -32.5 12t-9.5 30zM1021 1691q0 -29 -12 -55t-32 -45.5t-45 -31t-52 -11.5 t-51.5 11.5t-43 31t-30 45.5t-11.5 55t11.5 55.5t30.5 46t43.5 31t51.5 11.5t52.5 -11.5t45 -31t31 -45.5t11.5 -56z" />
<glyph unicode="&#x121;" horiz-adv-x="987" d="M628 -13q0 37 -9 69q-126 21 -215.5 17.5t-147.5 -24.5t-85 -54.5t-27 -72.5q0 -65 54 -99t159 -34q61 0 111 15.5t85.5 42.5t55 63t19.5 77zM449 470q49 0 86.5 22t63 58t39 81.5t14.5 91.5q0 81 -40 123t-112 42q-49 0 -86 -20.5t-62.5 -55t-38.5 -79t-13 -92.5 q0 -82 38.5 -126.5t110.5 -44.5zM1002 984l-9 -71q-6 -44 -45 -57l-113 -25q6 -23 9.5 -47.5t3.5 -52.5q0 -48 -11 -86t-27 -70.5t-34.5 -61.5t-34 -58t-26 -60.5t-10.5 -68.5q0 -41 18.5 -75.5t41 -71t41 -78.5t18.5 -97q-1 -74 -34.5 -140t-96 -116t-152 -79.5 t-202.5 -29.5q-91 0 -165 19t-126 53t-80 81t-28 104q0 67 28.5 117.5t76.5 86t111 57.5t132.5 32t140.5 8.5t135 -11.5q-6 17 -10 35t-4 38q0 30 8.5 62.5t27.5 70.5q-38 -26 -85.5 -40t-111.5 -14q-58 0 -110 19t-91 57t-61.5 95t-22.5 134q0 73 27 144t80.5 126t132 89 t180.5 34q56 0 105.5 -13t90.5 -39h282zM728 1328q0 -29 -12 -55t-32 -45.5t-45 -31t-52 -11.5t-51.5 11.5t-43 31t-30 45.5t-11.5 55t11.5 55.5t30.5 46t44 31t51 11.5q27 0 52.5 -11.5t45 -31t31 -45.5t11.5 -56z" />
<glyph unicode="&#x122;" horiz-adv-x="1358" d="M833 705h431l-70 -566q-55 -39 -113 -68t-122 -48.5t-135.5 -29t-153.5 -9.5q-131 0 -238.5 47.5t-183.5 132t-117.5 201.5t-41.5 255q0 184 58.5 337.5t161 264.5t243.5 172.5t306 61.5q86 0 156 -15t126.5 -41t101.5 -61t82 -75l-72 -94q-18 -26 -43 -31.5t-51 11.5 q-26 16 -53.5 35.5t-64 36.5t-84.5 28t-114 11q-116 0 -212 -45t-165 -128t-107 -200t-38 -260q0 -108 27.5 -193.5t78.5 -145t122.5 -91.5t159.5 -32q93 0 162 19t133 52l36 297h-179q-21 0 -32.5 12t-9.5 30zM739 -93q20 0 26.5 -9t6.5 -19q0 -11 -4 -28t-14 -43.5 t-28 -64.5t-45 -91q-14 -25 -32.5 -33t-46.5 -8h-76l82 296h131z" />
<glyph unicode="&#x123;" horiz-adv-x="987" d="M628 -13q0 37 -9 69q-126 21 -215.5 17.5t-147.5 -24.5t-85 -54.5t-27 -72.5q0 -65 54 -99t159 -34q61 0 111 15.5t85.5 42.5t55 63t19.5 77zM449 470q49 0 86.5 22t63 58t39 81.5t14.5 91.5q0 81 -40 123t-112 42q-49 0 -86 -20.5t-62.5 -55t-38.5 -79t-13 -92.5 q0 -82 38.5 -126.5t110.5 -44.5zM1002 984l-9 -71q-6 -44 -45 -57l-113 -25q6 -23 9.5 -47.5t3.5 -52.5q0 -48 -11 -86t-27 -70.5t-34.5 -61.5t-34 -58t-26 -60.5t-10.5 -68.5q0 -41 18.5 -75.5t41 -71t41 -78.5t18.5 -97q-1 -74 -34.5 -140t-96 -116t-152 -79.5 t-202.5 -29.5q-91 0 -165 19t-126 53t-80 81t-28 104q0 67 28.5 117.5t76.5 86t111 57.5t132.5 32t140.5 8.5t135 -11.5q-6 17 -10 35t-4 38q0 30 8.5 62.5t27.5 70.5q-38 -26 -85.5 -40t-111.5 -14q-58 0 -110 19t-91 57t-61.5 95t-22.5 134q0 73 27 144t80.5 126t132 89 t180.5 34q56 0 105.5 -13t90.5 -39h282zM645 1163h-172l126 282h124z" />
<glyph unicode="&#x124;" horiz-adv-x="1428" d="M1369 1440l-178 -1440h-226l79 644h-651l-80 -644h-226l177 1440h227l-78 -634h651l78 634h227zM1148 1547h-143q-13 0 -30 5t-33 30l-77 121q-3 5 -5.5 9.5t-4.5 9.5q-3 -5 -6.5 -9.5t-7.5 -9.5l-105 -121q-21 -25 -39.5 -30t-30.5 -5h-138l252 274h178z" />
<glyph unicode="&#x125;" horiz-adv-x="1071" d="M230 1562q-11 -7 -26 -11t-29 -4h-156l247 214h206l195 -214h-157q-12 0 -26.5 5t-24.5 10l-91 82q-3 2 -6 5t-6 5q-3 -2 -6.5 -5t-7.5 -5zM363 823q77 106 168 159.5t187 53.5q65 0 115.5 -25.5t82.5 -75t44 -121.5t0 -165l-76 -649h-214l76 649q14 109 -12 159.5 t-96 50.5q-42 0 -86.5 -23.5t-85.5 -66t-77.5 -103t-61.5 -134.5l-64 -532h-214l179 1480h214z" />
<glyph unicode="&#x126;" horiz-adv-x="1448" d="M1105 1037h-651l-28 -231h651zM1478 1037h-146l-128 -1037h-226l79 644h-651l-80 -644h-226l127 1037h-139l16 134h140l33 269h227l-33 -269h651l33 269h227l-33 -269h144z" />
<glyph unicode="&#x127;" horiz-adv-x="1071" d="M359 796q78 106 169.5 159.5t187.5 53.5q65 0 115 -25.5t82 -75t44 -121.5t1 -164l-74 -623h-214l74 623q14 109 -12.5 159t-96.5 50q-42 0 -86.5 -23.5t-86 -66t-77.5 -103t-61 -135.5l-61 -504h-214l137 1136h-148l18 136h147l25 208h214l-25 -208h249l-12 -78 q-5 -27 -22.5 -42.5t-47.5 -15.5h-184z" />
<glyph unicode="&#x128;" horiz-adv-x="549" d="M313 0h-226l176 1440h226zM524 1683q21 0 37.5 9t28 23t18.5 31t9 34h121q-5 -47 -21.5 -90t-43 -76t-62.5 -53t-80 -20t-76 16t-57.5 35.5t-48 35.5t-47.5 16q-21 0 -37.5 -9t-28 -23t-18.5 -31.5t-9 -34.5h-122q5 46 22 89.5t43.5 77t62.5 53.5t79 20q45 0 77 -16 t58 -35.5t48 -35.5t47 -16z" />
<glyph unicode="&#x129;" horiz-adv-x="476" d="M393 1020l-123 -1020h-211l122 1020h212zM426 1344q30 0 49 18.5t24 61.5h121q-6 -52 -24 -94.5t-44.5 -73t-61 -47t-73.5 -16.5q-33 0 -59.5 13.5t-50 29.5t-44 29.5t-39.5 13.5q-30 0 -48.5 -19.5t-23.5 -62.5h-122q6 52 24 95t45 73.5t61.5 47.5t73.5 17 q33 0 60 -13.5t50 -29.5t43 -29.5t39 -13.5z" />
<glyph unicode="&#x12a;" horiz-adv-x="549" d="M313 0h-226l176 1440h226zM140 1704h533l-13 -126h-534z" />
<glyph unicode="&#x12b;" horiz-adv-x="476" d="M393 1020l-123 -1020h-211l122 1020h212zM63 1361h541l-17 -139h-539z" />
<glyph unicode="&#x12c;" horiz-adv-x="549" d="M313 0h-226l176 1440h226zM399 1545q-67 0 -119 16t-85.5 49.5t-48.5 84t-7 119.5h152q-8 -66 18.5 -102t104.5 -36q39 0 66.5 9.5t45.5 27t28 43t14 58.5h151q-7 -63 -32.5 -113t-67 -84.5t-97.5 -53t-123 -18.5z" />
<glyph unicode="&#x12d;" horiz-adv-x="476" d="M393 1020l-123 -1020h-211l122 1020h212zM318 1163q-75 0 -123 22t-75 60t-34.5 88t-1.5 107h139q-4 -32 -1 -57.5t15.5 -43.5t35.5 -28t61 -10q37 0 62.5 10t42 28t25 43.5t12.5 57.5h139q-6 -57 -25.5 -107t-54.5 -88t-88.5 -60t-128.5 -22z" />
<glyph unicode="&#x12e;" horiz-adv-x="550" d="M277 0q-21 -12 -41.5 -28t-37.5 -35.5t-27.5 -42.5t-10.5 -49q0 -28 16 -44.5t45 -16.5q18 0 30 3t20 6t13 6t10 3q15 0 19 -14l23 -80q-32 -23 -78.5 -37t-96.5 -14q-82 0 -125.5 35.5t-43.5 93.5q0 61 41 115.5t113 98.5h-59l176 1440h226l-176 -1440h-36z" />
<glyph unicode="&#x12f;" horiz-adv-x="476" d="M238 0q-21 -12 -41.5 -28t-37.5 -35.5t-27.5 -42.5t-10.5 -49q0 -28 16 -44.5t45 -16.5q18 0 30 3t20 6t13 6t10 3q15 0 19 -14l23 -80q-32 -23 -78.5 -37t-96.5 -14q-82 0 -125.5 35.5t-43.5 93.5q0 61 41 115.5t113 98.5h-48l122 1020h212l-123 -1020h-32zM317 1472 q27 0 52.5 -11.5t45 -31t31 -45.5t11.5 -56q0 -29 -12 -55t-32 -45.5t-45 -31t-52 -11.5t-51.5 11.5t-43 31t-30 45.5t-11.5 55t11.5 55.5t30.5 46t44 31t51 11.5z" />
<glyph unicode="&#x130;" horiz-adv-x="549" d="M313 0h-226l176 1440h226zM546 1691q0 -29 -12 -55t-32 -45.5t-45 -31t-52 -11.5t-51.5 11.5t-43 31t-30 45.5t-11.5 55t11.5 55.5t30.5 46t43.5 31t51.5 11.5t52.5 -11.5t45 -31t31 -45.5t11.5 -56z" />
<glyph unicode="&#x131;" horiz-adv-x="476" d="M393 1020l-123 -1020h-211l122 1020h212z" />
<glyph unicode="&#x132;" horiz-adv-x="1374" d="M313 0h-226l176 1440h226zM1210 490q-15 -120 -53.5 -214t-99.5 -159t-144 -99t-187 -34q-54 0 -101.5 6.5t-96.5 20.5l17 134q2 18 13 30.5t34 12.5q22 0 53 -7.5t82 -7.5q49 0 91.5 16.5t76 53.5t56.5 96.5t34 144.5l116 956h226z" />
<glyph unicode="&#x133;" horiz-adv-x="953" d="M392 1020l-123 -1020h-211l122 1020h212zM456 1328q0 -29 -12 -55t-32 -45.5t-45 -31t-52 -11.5t-51.5 11.5t-43 31t-30 45.5t-11.5 55t11.5 55.5t30.5 46t44 31t51 11.5q27 0 52.5 -11.5t45 -31t31 -45.5t11.5 -56zM871 1020l-131 -1073q-8 -64 -32 -120.5t-64.5 -98.5 t-97.5 -66t-130 -24q-38 0 -64.5 5t-52.5 14l21 117q6 20 19.5 23t47.5 3t58.5 8t41.5 25.5t27.5 45.5t15.5 68l131 1073h210zM930 1328q0 -29 -12 -55t-32 -45.5t-45.5 -31t-52.5 -11.5q-26 0 -50.5 11.5t-43.5 31t-30.5 45.5t-11.5 55t11.5 55.5t31 46t44 31t51.5 11.5 t52 -11.5t44.5 -31t31.5 -45.5t12 -56z" />
<glyph unicode="&#x134;" horiz-adv-x="810" d="M646 490q-15 -120 -53.5 -214t-99.5 -159t-144 -99t-187 -34q-54 0 -101.5 6.5t-96.5 20.5l17 134q2 18 13 30.5t34 12.5q22 0 53 -7.5t82 -7.5q49 0 91.5 16.5t76 53.5t56.5 96.5t34 144.5l116 956h226zM989 1547h-143q-13 0 -30 5t-33 30l-77 121q-3 5 -5.5 9.5 t-4.5 9.5q-3 -5 -6.5 -9.5t-7.5 -9.5l-105 -121q-21 -25 -39.5 -30t-30.5 -5h-138l252 274h178z" />
<glyph unicode="&#x135;" horiz-adv-x="474" d="M392 1020l-131 -1073q-8 -64 -32 -120.5t-64.5 -98.5t-97.5 -66t-130 -24q-38 0 -64.5 5t-52.5 14l21 117q6 20 19.5 23t47.5 3t58.5 8t41.5 25.5t27.5 45.5t15.5 68l131 1073h210zM615 1169h-132q-11 0 -22.5 4t-22.5 18l-88 116q-9 10 -14 21q-5 -6 -10 -11l-10 -10 l-116 -116q-11 -11 -24 -16.5t-25 -5.5h-137l239 271h184z" />
<glyph unicode="&#x136;" horiz-adv-x="1261" d="M411 820h61q35 0 58.5 10.5t43.5 33.5l455 525q23 30 49.5 40.5t61.5 10.5h192l-540 -612q-41 -50 -83 -70q27 -11 47 -29.5t36 -50.5l398 -678h-197q-42 0 -59.5 12t-29.5 34l-335 554q-14 26 -35 37t-64 11h-80l-79 -648h-224l176 1441h225zM610 -93q20 0 26.5 -9 t6.5 -19q0 -11 -4 -28t-14 -43.5t-28 -64.5t-45 -91q-14 -25 -32.5 -33t-46.5 -8h-76l82 296h131z" />
<glyph unicode="&#x137;" horiz-adv-x="976" d="M440 1480l-105 -858h28q22 0 35.5 6.5t29.5 24.5l302 327q16 20 33.5 30t43.5 10h191l-364 -388q-31 -38 -69 -61q17 -14 29.5 -32t23.5 -40l277 -499h-185q-25 0 -41 8.5t-26 31.5l-227 400q-11 23 -24 29.5t-41 6.5h-34l-58 -476h-212l182 1480h211zM475 -93 q20 0 26.5 -9t6.5 -19q0 -11 -4 -28t-14 -43.5t-28 -64.5t-45 -91q-14 -25 -32.5 -33t-46.5 -8h-76l82 296h131z" />
<glyph unicode="&#x138;" horiz-adv-x="975" d="M385 1020l-49 -398h27q20 0 34 6t31 25l302 327q16 20 34 30t44 10h189l-360 -388q-32 -40 -69 -62q17 -14 28 -31.5t22 -39.5l277 -499h-183q-25 0 -41.5 8.5t-26.5 31.5l-228 400q-11 23 -24 29.5t-41 6.5h-33l-59 -476h-211l126 1020h211z" />
<glyph unicode="&#x139;" horiz-adv-x="959" d="M880 189l-23 -189h-770l177 1440h225l-154 -1251h545zM824 1857l-330 -286q-19 -16 -34 -20t-38 -4h-141l233 273q10 13 19 20t19 11t22.5 5t29.5 1h220z" />
<glyph unicode="&#x13a;" horiz-adv-x="465" d="M53 0l179 1480h212l-180 -1480h-211zM768 1857l-330 -286q-19 -16 -34 -20t-38 -4h-141l233 273q10 13 19 20t19 11t22.5 5t29.5 1h220z" />
<glyph unicode="&#x13b;" horiz-adv-x="959" d="M880 189l-23 -189h-770l177 1440h225l-154 -1251h545zM531 -93q20 0 26.5 -9t6.5 -19q0 -11 -4 -28t-14 -43.5t-28 -64.5t-45 -91q-14 -25 -32.5 -33t-46.5 -8h-76l82 296h131z" />
<glyph unicode="&#x13c;" horiz-adv-x="465" d="M53 0l179 1480h212l-180 -1480h-211zM197 -93q20 0 26.5 -9t6.5 -19q0 -11 -4 -28t-14 -43.5t-28 -64.5t-45 -91q-14 -25 -32.5 -33t-46.5 -8h-76l82 296h131z" />
<glyph unicode="&#x13d;" horiz-adv-x="959" d="M879 1481q20 0 26 -9t6 -19t-3.5 -24t-16 -42.5t-35.5 -76.5t-62 -125q-14 -25 -32 -32t-45 -7h-73l97 335h138zM880 189l-23 -189h-770l177 1440h225l-154 -1251h545z" />
<glyph unicode="&#x13e;" horiz-adv-x="465" d="M694 1481q20 0 26 -9t6 -19t-3.5 -24t-16 -42.5t-35.5 -76.5t-62 -125q-14 -25 -32 -32t-45 -7h-53l97 335h118zM53 0l179 1480h212l-180 -1480h-211z" />
<glyph unicode="&#x13f;" horiz-adv-x="981" d="M880 189l-23 -189h-770l177 1440h225l-154 -1251h545zM563 782q0 29 10.5 54.5t29.5 44.5t44 30t55 11q29 0 54.5 -11t44 -30t29.5 -44.5t11 -54.5q0 -30 -11 -55t-29.5 -44t-44 -29.5t-54.5 -10.5q-30 0 -55 10.5t-44 29.5t-29.5 44t-10.5 55z" />
<glyph unicode="&#x140;" horiz-adv-x="753" d="M53 0l179 1480h212l-180 -1480h-211zM488 758q0 29 10.5 54.5t29.5 44.5t44 30t55 11q29 0 54.5 -11t44 -30t29.5 -44.5t11 -54.5q0 -30 -11 -55t-29.5 -44t-44 -29.5t-54.5 -10.5q-30 0 -55 10.5t-44 29.5t-29.5 44t-10.5 55z" />
<glyph unicode="&#x141;" horiz-adv-x="994" d="M914 189l-23 -189h-770l67 543l-188 -93l19 155q3 32 32 44l160 83l87 708h225l-74 -599l351 182l-19 -152q-5 -36 -34 -49l-321 -170l-57 -463h545z" />
<glyph unicode="&#x142;" horiz-adv-x="594" d="M601 986v-124q0 -36 -30 -49l-144 -63l-91 -750h-211l81 671l-159 -67v128q0 33 28 44l152 66l77 638h212l-68 -558z" />
<glyph unicode="&#x143;" horiz-adv-x="1428" d="M1369 1440l-178 -1440h-114q-27 0 -44 9.5t-32 31.5l-587 1036q-2 -23 -3.5 -43.5t-3.5 -38.5l-122 -995h-198l177 1440h117q30 0 43.5 -6t27.5 -31l589 -1036q3 55 9 98l120 975h199zM1234 1856l-330 -286q-19 -16 -34 -20t-38 -4h-141l233 273q10 13 19 20t19 11 t22.5 5t29.5 1h220z" />
<glyph unicode="&#x144;" horiz-adv-x="1072" d="M342 789q79 124 177 185.5t202 61.5q64 0 114 -25.5t82 -75t44 -121.5t1 -165l-77 -649h-214l77 649q14 109 -12.5 158.5t-95.5 49.5q-44 0 -90.5 -25t-89 -70.5t-79.5 -110t-61 -143.5l-56 -508h-214l122 1022h108q35 0 53.5 -17.5t18.5 -54.5zM916 1456l-252 -259 q-17 -18 -31.5 -25t-37.5 -7h-118l160 242q16 25 34.5 37t52.5 12h192z" />
<glyph unicode="&#x145;" horiz-adv-x="1428" d="M1369 1440l-178 -1440h-114q-27 0 -44 9.5t-32 31.5l-587 1036q-2 -23 -3.5 -43.5t-3.5 -38.5l-122 -995h-198l177 1440h117q30 0 43.5 -6t27.5 -31l589 -1036q3 55 9 98l120 975h199zM697 -93q20 0 26.5 -9t6.5 -19q0 -11 -4 -28t-14 -43.5t-28 -64.5t-45 -91 q-14 -25 -32.5 -33t-46.5 -8h-76l82 296h131z" />
<glyph unicode="&#x146;" horiz-adv-x="1072" d="M342 789q79 124 177 185.5t202 61.5q64 0 114 -25.5t82 -75t44 -121.5t1 -165l-77 -649h-214l77 649q14 109 -12.5 158.5t-95.5 49.5q-44 0 -90.5 -25t-89 -70.5t-79.5 -110t-61 -143.5l-56 -508h-214l122 1022h108q35 0 53.5 -17.5t18.5 -54.5zM508 -93q20 0 26.5 -9 t6.5 -19q0 -11 -4 -28t-14 -43.5t-28 -64.5t-45 -91q-14 -25 -32.5 -33t-46.5 -8h-76l82 296h131z" />
<glyph unicode="&#x147;" horiz-adv-x="1428" d="M1369 1440l-178 -1440h-114q-27 0 -44 9.5t-32 31.5l-587 1036q-2 -23 -3.5 -43.5t-3.5 -38.5l-122 -995h-198l177 1440h117q30 0 43.5 -6t27.5 -31l589 -1036q3 55 9 98l120 975h199zM1180 1820l-252 -274h-184l-190 274h144q12 0 29.5 -4t28.5 -23l81 -132 q3 -5 5.5 -10t4.5 -10q4 5 7.5 10t7.5 10l110 131q16 20 34 24t31 4h143z" />
<glyph unicode="&#x148;" horiz-adv-x="1072" d="M342 789q79 124 177 185.5t202 61.5q64 0 114 -25.5t82 -75t44 -121.5t1 -165l-77 -649h-214l77 649q14 109 -12.5 158.5t-95.5 49.5q-44 0 -90.5 -25t-89 -70.5t-79.5 -110t-61 -143.5l-56 -508h-214l122 1022h108q35 0 53.5 -17.5t18.5 -54.5zM920 1440l-239 -271h-185 l-177 271h136q13 0 24 -5t16 -11l93 -122q4 -5 7.5 -10.5t8.5 -12.5q9 12 20 23l120 122q8 5 20 10.5t24 5.5h132z" />
<glyph unicode="&#x149;" horiz-adv-x="1177" d="M297 1515q33 -73 35.5 -146.5t-22 -143.5t-74 -135t-119.5 -121l-58 38q-13 10 -13 26q0 9 5 17t17 22q19 22 41 56.5t35.5 78t13 94t-25.5 106.5q-8 18 1.5 34t31.5 24zM447 789q79 124 177 185.5t202 61.5q64 0 114 -25.5t82 -75t44 -121.5t1 -165l-77 -649h-214 l77 649q14 109 -12.5 158.5t-95.5 49.5q-44 0 -90.5 -25t-89 -70.5t-79.5 -110t-61 -143.5l-56 -508h-214l122 1022h108q35 0 53.5 -17.5t18.5 -54.5z" />
<glyph unicode="&#x14a;" horiz-adv-x="1428" d="M1213 182l-15 -126h-1l-4 -35q-10 -84 -36.5 -153.5t-71.5 -119.5t-110 -77.5t-152 -27.5q-48 0 -84 8.5t-78 28.5l34 91q10 25 23 33t27 8t30 -7t48 -7q144 0 169 200l6 48l-587 1020q-1 -27 -3 -53.5t-5 -49.5l-118 -963h-198l176 1440h117q29 0 43 -7t29 -32 l593 -1026q1 29 2.5 57t4.5 52l118 956h198l-146 -1191z" />
<glyph unicode="&#x14b;" horiz-adv-x="1072" d="M342 789q79 124 177 185.5t202 61.5q64 0 114 -25.5t82 -75t44 -121.5t1 -165l-65 -557l-9 -76q-11 -85 -38 -155t-73 -119.5t-112 -77t-154 -27.5q-23 0 -41.5 1t-35.5 3.5t-34 6.5t-37 10l18 102q5 26 14.5 36.5t36.5 10.5q13 0 29 -4.5t48 -4.5q70 0 110 46t51 148 l10 79l68 578q14 109 -12.5 158.5t-95.5 49.5q-44 0 -90.5 -25t-89 -70.5t-79.5 -110t-61 -143.5l-56 -508h-214l122 1022h108q35 0 53.5 -17.5t18.5 -54.5z" />
<glyph unicode="&#x14c;" horiz-adv-x="1499" d="M1438 819q0 -120 -26 -229t-74.5 -201.5t-117.5 -167t-154 -127t-184 -81t-209 -28.5q-135 0 -243.5 48t-184 132.5t-116 200.5t-40.5 253q0 121 26.5 230t74.5 202t117 168t154 127.5t184 81t209 28.5q135 0 243 -48t184 -133.5t116.5 -202t40.5 -253.5zM1206 814 q0 103 -26 186.5t-75 143t-119.5 91.5t-158.5 32q-113 0 -206.5 -45.5t-160 -129.5t-103.5 -202.5t-37 -263.5q0 -103 26 -186.5t74.5 -143t118.5 -91.5t159 -32q114 0 207.5 45.5t160.5 129t103.5 202t36.5 264.5zM625 1704h533l-13 -126h-534z" />
<glyph unicode="&#x14d;" horiz-adv-x="1042" d="M457 153q67 0 122 37.5t93.5 100.5t59.5 145.5t21 172.5q0 132 -48.5 195.5t-143.5 63.5q-68 0 -122.5 -37t-92.5 -99t-59 -145t-21 -174q0 -260 191 -260zM438 -15q-84 0 -155 28.5t-122.5 83t-80.5 134t-29 180.5q0 131 41.5 245t113.5 198.5t168.5 133t206.5 48.5 q84 0 155 -28.5t122 -83t80 -134t29 -180.5q0 -86 -19 -166t-53 -149.5t-82.5 -126.5t-107 -97.5t-126.5 -63t-141 -22.5zM364 1361h541l-17 -139h-539z" />
<glyph unicode="&#x14e;" horiz-adv-x="1499" d="M1438 819q0 -120 -26 -229t-74.5 -201.5t-117.5 -167t-154 -127t-184 -81t-209 -28.5q-135 0 -243.5 48t-184 132.5t-116 200.5t-40.5 253q0 121 26.5 230t74.5 202t117 168t154 127.5t184 81t209 28.5q135 0 243 -48t184 -133.5t116.5 -202t40.5 -253.5zM1206 814 q0 103 -26 186.5t-75 143t-119.5 91.5t-158.5 32q-113 0 -206.5 -45.5t-160 -129.5t-103.5 -202.5t-37 -263.5q0 -103 26 -186.5t74.5 -143t118.5 -91.5t159 -32q114 0 207.5 45.5t160.5 129t103.5 202t36.5 264.5zM877 1545q-67 0 -119 16t-85.5 49.5t-48.5 84t-7 119.5 h152q-8 -66 18.5 -102t104.5 -36q39 0 66.5 9.5t45.5 27t28 43t14 58.5h151q-7 -63 -32.5 -113t-67 -84.5t-97.5 -53t-123 -18.5z" />
<glyph unicode="&#x14f;" horiz-adv-x="1042" d="M457 153q67 0 122 37.5t93.5 100.5t59.5 145.5t21 172.5q0 132 -48.5 195.5t-143.5 63.5q-68 0 -122.5 -37t-92.5 -99t-59 -145t-21 -174q0 -260 191 -260zM438 -15q-84 0 -155 28.5t-122.5 83t-80.5 134t-29 180.5q0 131 41.5 245t113.5 198.5t168.5 133t206.5 48.5 q84 0 155 -28.5t122 -83t80 -134t29 -180.5q0 -86 -19 -166t-53 -149.5t-82.5 -126.5t-107 -97.5t-126.5 -63t-141 -22.5zM612 1163q-75 0 -123 22t-75 60t-34.5 88t-1.5 107h139q-4 -32 -1 -57.5t15.5 -43.5t35.5 -28t61 -10q37 0 62.5 10t42 28t25 43.5t12.5 57.5h139 q-6 -57 -25.5 -107t-54.5 -88t-88.5 -60t-128.5 -22z" />
<glyph unicode="&#x150;" horiz-adv-x="1499" d="M1438 819q0 -120 -26 -229t-74.5 -201.5t-117.5 -167t-154 -127t-184 -81t-209 -28.5q-135 0 -243.5 48t-184 132.5t-116 200.5t-40.5 253q0 121 26.5 230t74.5 202t117 168t154 127.5t184 81t209 28.5q135 0 243 -48t184 -133.5t116.5 -202t40.5 -253.5zM1206 814 q0 103 -26 186.5t-75 143t-119.5 91.5t-158.5 32q-113 0 -206.5 -45.5t-160 -129.5t-103.5 -202.5t-37 -263.5q0 -103 26 -186.5t74.5 -143t118.5 -91.5t159 -32q114 0 207.5 45.5t160.5 129t103.5 202t36.5 264.5zM989 1821l-217 -242q-17 -15 -31.5 -23.5t-37.5 -8.5h-94 l157 225q16 23 38.5 36t55.5 13h129zM1344 1821l-262 -242q-18 -16 -35 -24t-40 -8h-106l195 225q20 23 43 36t56 13h149z" />
<glyph unicode="&#x151;" horiz-adv-x="1042" d="M457 153q67 0 122 37.5t93.5 100.5t59.5 145.5t21 172.5q0 132 -48.5 195.5t-143.5 63.5q-68 0 -122.5 -37t-92.5 -99t-59 -145t-21 -174q0 -260 191 -260zM438 -15q-84 0 -155 28.5t-122.5 83t-80.5 134t-29 180.5q0 131 41.5 245t113.5 198.5t168.5 133t206.5 48.5 q84 0 155 -28.5t122 -83t80 -134t29 -180.5q0 -86 -19 -166t-53 -149.5t-82.5 -126.5t-107 -97.5t-126.5 -63t-141 -22.5zM731 1456l-212 -259q-16 -19 -31.5 -25.5t-38.5 -6.5h-82l149 242q15 25 33.5 37t52.5 12h129zM1037 1456l-257 -259q-17 -18 -32 -25t-38 -7h-94 l192 242q18 24 35 36.5t51 12.5h143z" />
<glyph unicode="&#x152;" horiz-adv-x="2011" d="M654 167q104 0 190 47.5t147.5 133.5t95 207.5t33.5 268.5q0 100 -22 183t-64 142.5t-103.5 92t-140.5 32.5q-104 0 -190.5 -47.5t-148 -134.5t-95.5 -208t-34 -268q0 -101 22 -183.5t64.5 -141.5t104 -91.5t141.5 -32.5zM1407 1257l-55 -444h478l-20 -176h-479l-56 -454 h601l-22 -183h-802l24 197q-89 -101 -207 -156.5t-260 -55.5q-120 0 -216 47t-163 130t-103 197.5t-36 249.5q0 122 24 232t68.5 204.5t107 170t140 129t167.5 82.5t190 29q142 0 246.5 -65t166.5 -176l28 225h802l-22 -183h-602z" />
<glyph unicode="&#x153;" horiz-adv-x="1606" d="M434 147q72 0 126.5 33t92.5 93t59.5 143.5t28.5 184.5q4 63 -4 113.5t-29 86t-55.5 54.5t-82.5 19q-72 0 -130 -36.5t-98.5 -103t-62 -160t-21.5 -207.5q0 -43 9 -83t30 -70.5t54.5 -48.5t82.5 -18zM1202 885q-54 0 -100.5 -21t-83 -61t-62.5 -98t-38 -133 q132 17 215.5 40t131.5 50t65.5 56.5t17.5 59.5q0 21 -8.5 40.5t-26.5 34.5t-45.5 23.5t-65.5 8.5zM1520 189q-52 -53 -101.5 -91.5t-102 -63.5t-109.5 -37t-124 -12q-100 0 -179.5 52t-122.5 158q-71 -100 -172.5 -155t-226.5 -55q-82 0 -144.5 30t-104.5 81t-63 118 t-21 141q0 166 44.5 293t119 213t172.5 130.5t205 44.5q103 0 174.5 -46t109.5 -128q63 81 154 127.5t207 46.5q67 0 121 -18.5t92 -51.5t58.5 -79t20.5 -101q0 -64 -27.5 -119t-97 -99.5t-189.5 -77t-305 -51.5q1 -145 58.5 -215t158.5 -70q69 0 115 19t78.5 41.5t57 41.5 t51.5 19q21 0 39 -20z" />
<glyph unicode="&#x154;" horiz-adv-x="1184" d="M568 747q81 0 142 23.5t101 64.5t60 97t20 121q0 101 -63 155.5t-191 54.5h-171l-63 -516h165zM657 1440q120 0 206.5 -25.5t142.5 -71.5t82.5 -110.5t26.5 -143.5q0 -85 -24.5 -159.5t-70.5 -134.5t-112.5 -103.5t-149.5 -66.5q39 -25 63 -71l282 -554h-201 q-60 0 -80 47l-239 490q-13 25 -30.5 36t-53.5 11h-116l-72 -584h-224l176 1440h394zM1091 1857l-330 -286q-19 -16 -34 -20t-38 -4h-141l233 273q10 13 19 20t19 11t22.5 5t29.5 1h220z" />
<glyph unicode="&#x155;" horiz-adv-x="696" d="M341 757q39 81 84.5 139t95 91t102 39t105.5 -17l-39 -206q-127 51 -222.5 -32.5t-153.5 -315.5l-54 -455h-210l123 1022h108q35 0 53.5 -17.5t18.5 -54.5zM792 1456l-252 -259q-17 -18 -31.5 -25t-37.5 -7h-118l160 242q16 25 34.5 37t52.5 12h192z" />
<glyph unicode="&#x156;" horiz-adv-x="1184" d="M568 747q81 0 142 23.5t101 64.5t60 97t20 121q0 101 -63 155.5t-191 54.5h-171l-63 -516h165zM657 1440q120 0 206.5 -25.5t142.5 -71.5t82.5 -110.5t26.5 -143.5q0 -85 -24.5 -159.5t-70.5 -134.5t-112.5 -103.5t-149.5 -66.5q39 -25 63 -71l282 -554h-201 q-60 0 -80 47l-239 490q-13 25 -30.5 36t-53.5 11h-116l-72 -584h-224l176 1440h394zM609 -93q20 0 26.5 -9t6.5 -19q0 -11 -4 -28t-14 -43.5t-28 -64.5t-45 -91q-14 -25 -32.5 -33t-46.5 -8h-76l82 296h131z" />
<glyph unicode="&#x157;" horiz-adv-x="696" d="M341 757q39 81 84.5 139t95 91t102 39t105.5 -17l-39 -206q-127 51 -222.5 -32.5t-153.5 -315.5l-54 -455h-210l123 1022h108q35 0 53.5 -17.5t18.5 -54.5zM191 -93q20 0 26.5 -9t6.5 -19q0 -11 -4 -28t-14 -43.5t-28 -64.5t-45 -91q-14 -25 -32.5 -33t-46.5 -8h-76 l82 296h131z" />
<glyph unicode="&#x158;" horiz-adv-x="1184" d="M568 747q81 0 142 23.5t101 64.5t60 97t20 121q0 101 -63 155.5t-191 54.5h-171l-63 -516h165zM657 1440q120 0 206.5 -25.5t142.5 -71.5t82.5 -110.5t26.5 -143.5q0 -85 -24.5 -159.5t-70.5 -134.5t-112.5 -103.5t-149.5 -66.5q39 -25 63 -71l282 -554h-201 q-60 0 -80 47l-239 490q-13 25 -30.5 36t-53.5 11h-116l-72 -584h-224l176 1440h394zM1030 1821l-252 -274h-184l-190 274h144q12 0 29.5 -4t28.5 -23l81 -132q3 -5 5.5 -10t4.5 -10q4 5 7.5 10t7.5 10l110 131q16 20 34 24t31 4h143z" />
<glyph unicode="&#x159;" horiz-adv-x="696" d="M341 757q39 81 84.5 139t95 91t102 39t105.5 -17l-39 -206q-127 51 -222.5 -32.5t-153.5 -315.5l-54 -455h-210l123 1022h108q35 0 53.5 -17.5t18.5 -54.5zM785 1440l-239 -271h-185l-177 271h136q13 0 24 -5t16 -11l93 -122q4 -5 7.5 -10.5t8.5 -12.5q9 12 20 23 l120 122q8 5 20 10.5t24 5.5h132z" />
<glyph unicode="&#x15a;" horiz-adv-x="1024" d="M935 1197q-13 -17 -25 -25.5t-29 -8.5q-18 0 -38.5 16.5t-49.5 36.5t-70 36.5t-100 16.5t-105 -18t-77.5 -48.5t-47.5 -72t-16 -89.5q0 -49 23.5 -81.5t62.5 -56.5t88 -43t101 -39t101 -45.5t88 -63t62.5 -90.5t23.5 -128q0 -104 -36 -197t-102.5 -162.5t-162 -110 t-214.5 -40.5q-63 0 -122.5 13.5t-111.5 38t-96 59.5t-77 78l79 108q10 12 24.5 20.5t30.5 8.5q22 0 45 -21.5t56.5 -48t81.5 -48t119 -21.5q62 0 112 19t84.5 53.5t53 84t18.5 109.5q0 52 -23.5 86t-62 58t-87.5 41t-100 36t-100 43.5t-87.5 62t-62 93t-23.5 135.5 q0 91 33 174.5t95.5 147.5t151.5 102.5t201 38.5q57 0 109 -11.5t98 -33t83.5 -51.5t66.5 -66zM1060 1857l-330 -286q-19 -16 -34 -20t-38 -4h-141l233 273q10 13 19 20t19 11t22.5 5t29.5 1h220z" />
<glyph unicode="&#x15b;" horiz-adv-x="806" d="M718 841q-9 -14 -18.5 -20t-23.5 -6q-16 0 -33 10.5t-40.5 23.5t-55.5 23.5t-77 10.5q-42 0 -75.5 -11t-57.5 -30t-36.5 -45t-12.5 -55q0 -33 17.5 -55.5t46.5 -39.5t66 -31t75.5 -29t75.5 -34.5t66 -47t46.5 -66.5t17.5 -93q0 -72 -28.5 -138t-82 -115.5t-129 -79 t-168.5 -29.5q-97 0 -175.5 35.5t-125.5 89.5l53 82q10 15 23 23.5t32 8.5q18 0 35 -13.5t40.5 -30t57.5 -30t88 -13.5q45 0 80 12.5t59 34.5t37 51t13 61q0 36 -17.5 60t-46.5 41.5t-65.5 30.5t-75 27t-75 32t-65.5 45t-46.5 65.5t-17.5 94.5q0 66 26 128.5t75 110.5 t120 77t162 29q95 0 167.5 -32t123.5 -85zM833 1456l-252 -259q-17 -18 -31.5 -25t-37.5 -7h-118l160 242q16 25 34.5 37t52.5 12h192z" />
<glyph unicode="&#x15c;" horiz-adv-x="1024" d="M935 1197q-13 -17 -25 -25.5t-29 -8.5q-18 0 -38.5 16.5t-49.5 36.5t-70 36.5t-100 16.5t-105 -18t-77.5 -48.5t-47.5 -72t-16 -89.5q0 -49 23.5 -81.5t62.5 -56.5t88 -43t101 -39t101 -45.5t88 -63t62.5 -90.5t23.5 -128q0 -104 -36 -197t-102.5 -162.5t-162 -110 t-214.5 -40.5q-63 0 -122.5 13.5t-111.5 38t-96 59.5t-77 78l79 108q10 12 24.5 20.5t30.5 8.5q22 0 45 -21.5t56.5 -48t81.5 -48t119 -21.5q62 0 112 19t84.5 53.5t53 84t18.5 109.5q0 52 -23.5 86t-62 58t-87.5 41t-100 36t-100 43.5t-87.5 62t-62 93t-23.5 135.5 q0 91 33 174.5t95.5 147.5t151.5 102.5t201 38.5q57 0 109 -11.5t98 -33t83.5 -51.5t66.5 -66zM979 1547h-143q-13 0 -30 5t-33 30l-77 121q-3 5 -5.5 9.5t-4.5 9.5q-3 -5 -6.5 -9.5t-7.5 -9.5l-105 -121q-21 -25 -39.5 -30t-30.5 -5h-138l252 274h178z" />
<glyph unicode="&#x15d;" horiz-adv-x="806" d="M718 841q-9 -14 -18.5 -20t-23.5 -6q-16 0 -33 10.5t-40.5 23.5t-55.5 23.5t-77 10.5q-42 0 -75.5 -11t-57.5 -30t-36.5 -45t-12.5 -55q0 -33 17.5 -55.5t46.5 -39.5t66 -31t75.5 -29t75.5 -34.5t66 -47t46.5 -66.5t17.5 -93q0 -72 -28.5 -138t-82 -115.5t-129 -79 t-168.5 -29.5q-97 0 -175.5 35.5t-125.5 89.5l53 82q10 15 23 23.5t32 8.5q18 0 35 -13.5t40.5 -30t57.5 -30t88 -13.5q45 0 80 12.5t59 34.5t37 51t13 61q0 36 -17.5 60t-46.5 41.5t-65.5 30.5t-75 27t-75 32t-65.5 45t-46.5 65.5t-17.5 94.5q0 66 26 128.5t75 110.5 t120 77t162 29q95 0 167.5 -32t123.5 -85zM813 1169h-132q-11 0 -22.5 4t-22.5 18l-88 116q-9 10 -14 21q-5 -6 -10 -11l-10 -10l-116 -116q-11 -11 -24 -16.5t-25 -5.5h-137l239 271h184z" />
<glyph unicode="&#x15e;" horiz-adv-x="1024" d="M935 1197q-13 -17 -25 -25.5t-29 -8.5q-18 0 -38.5 16.5t-49.5 36.5t-70 36.5t-100 16.5t-105 -18t-77.5 -48.5t-47.5 -72t-16 -89.5q0 -49 23.5 -81.5t62.5 -56.5t88 -43t101 -39t101 -45.5t88 -63t62.5 -90.5t23.5 -128q0 -98 -31.5 -185.5t-91 -156t-144 -112 t-190.5 -53.5l-21 -55q76 -19 108.5 -51.5t32.5 -77.5q0 -38 -17.5 -67.5t-49 -50t-75 -31.5t-95.5 -11q-38 0 -70.5 7t-61.5 20l28 67q8 21 28 21q6 0 12.5 -3t15 -6.5t19.5 -6.5t27 -3q35 0 52.5 16.5t17.5 39.5q0 30 -32 43t-97 23l56 127q-108 11 -197 60.5t-146 124.5 l79 108q10 12 24.5 20.5t30.5 8.5q22 0 45 -21.5t56.5 -48t81.5 -48t119 -21.5q62 0 112 19t84.5 53.5t53 84t18.5 109.5q0 52 -23.5 86t-62 58t-87.5 41t-100 36t-100 43.5t-87.5 62t-62 93t-23.5 135.5q0 91 33 174.5t95.5 147.5t151.5 102.5t201 38.5q57 0 109 -11.5 t98 -33t83.5 -51.5t66.5 -66z" />
<glyph unicode="&#x15f;" horiz-adv-x="806" d="M43 191q10 15 23 23.5t32 8.5q18 0 35 -13.5t40.5 -30t57.5 -30t88 -13.5q45 0 80 12.5t59 34.5t37 51t13 61q0 36 -17.5 60t-46.5 41.5t-65.5 30.5t-75 27t-75 32t-65.5 45t-46.5 65.5t-17.5 94.5q0 66 26 128.5t75 110.5t120 77t162 29q95 0 167.5 -32t123.5 -85 l-55 -78q-9 -14 -18.5 -20t-23.5 -6q-16 0 -33 10.5t-40.5 23.5t-55.5 23.5t-77 10.5q-42 0 -75.5 -11t-57.5 -30t-36.5 -45t-12.5 -55q0 -33 17.5 -55.5t46.5 -39.5t66 -31t75.5 -29t75.5 -34.5t66 -47t46.5 -66.5t17.5 -93q0 -66 -24 -126.5t-68.5 -108.5t-108.5 -80.5 t-144 -42.5l-21 -56q76 -19 108.5 -51.5t32.5 -77.5q0 -38 -17.5 -67.5t-49 -50t-75 -31.5t-95.5 -11q-38 0 -70.5 7t-61.5 20l28 67q8 21 28 21q6 0 12.5 -3t15 -6.5t19.5 -6.5t27 -3q35 0 52.5 16.5t17.5 39.5q0 30 -32 43t-97 23l56 127q-78 10 -140.5 42.5t-101.5 78.5z " />
<glyph unicode="&#x160;" horiz-adv-x="1024" d="M935 1197q-13 -17 -25 -25.5t-29 -8.5q-18 0 -38.5 16.5t-49.5 36.5t-70 36.5t-100 16.5t-105 -18t-77.5 -48.5t-47.5 -72t-16 -89.5q0 -49 23.5 -81.5t62.5 -56.5t88 -43t101 -39t101 -45.5t88 -63t62.5 -90.5t23.5 -128q0 -104 -36 -197t-102.5 -162.5t-162 -110 t-214.5 -40.5q-63 0 -122.5 13.5t-111.5 38t-96 59.5t-77 78l79 108q10 12 24.5 20.5t30.5 8.5q22 0 45 -21.5t56.5 -48t81.5 -48t119 -21.5q62 0 112 19t84.5 53.5t53 84t18.5 109.5q0 52 -23.5 86t-62 58t-87.5 41t-100 36t-100 43.5t-87.5 62t-62 93t-23.5 135.5 q0 91 33 174.5t95.5 147.5t151.5 102.5t201 38.5q57 0 109 -11.5t98 -33t83.5 -51.5t66.5 -66zM1000 1821l-252 -274h-184l-190 274h144q12 0 29.5 -4t28.5 -23l81 -132q3 -5 5.5 -10t4.5 -10q4 5 7.5 10t7.5 10l110 131q16 20 34 24t31 4h143z" />
<glyph unicode="&#x161;" horiz-adv-x="806" d="M718 841q-9 -14 -18.5 -20t-23.5 -6q-16 0 -33 10.5t-40.5 23.5t-55.5 23.5t-77 10.5q-42 0 -75.5 -11t-57.5 -30t-36.5 -45t-12.5 -55q0 -33 17.5 -55.5t46.5 -39.5t66 -31t75.5 -29t75.5 -34.5t66 -47t46.5 -66.5t17.5 -93q0 -72 -28.5 -138t-82 -115.5t-129 -79 t-168.5 -29.5q-97 0 -175.5 35.5t-125.5 89.5l53 82q10 15 23 23.5t32 8.5q18 0 35 -13.5t40.5 -30t57.5 -30t88 -13.5q45 0 80 12.5t59 34.5t37 51t13 61q0 36 -17.5 60t-46.5 41.5t-65.5 30.5t-75 27t-75 32t-65.5 45t-46.5 65.5t-17.5 94.5q0 66 26 128.5t75 110.5 t120 77t162 29q95 0 167.5 -32t123.5 -85zM834 1440l-239 -271h-185l-177 271h136q13 0 24 -5t16 -11l93 -122q4 -5 7.5 -10.5t8.5 -12.5q9 12 20 23l120 122q8 5 20 10.5t24 5.5h132z" />
<glyph unicode="&#x162;" horiz-adv-x="1103" d="M1175 1440l-24 -188h-408l-154 -1252h-58l-26 -68q76 -19 108.5 -51.5t32.5 -77.5q0 -38 -17.5 -67.5t-49 -50t-75 -31.5t-95.5 -11q-38 0 -70.5 7t-61.5 20l28 67q8 21 28 21q6 0 12.5 -3t15 -6.5t19.5 -6.5t27 -3q35 0 52.5 16.5t17.5 39.5q0 30 -32 43t-97 23l61 139 h-44l153 1252h-410l22 188h1045z" />
<glyph unicode="&#x163;" horiz-adv-x="722" d="M133 201q0 7 0.5 16.5t2 27.5t4.5 48t9 77l59 481h-103q-17 0 -27 11.5t-7 34.5l10 87l155 24l80 295q6 17 18.5 27.5t30.5 10.5h114l-42 -335h257l-18 -155h-258l-57 -469q-5 -41 -8 -65.5t-4.5 -39t-2 -20t-0.5 -8.5q0 -44 21 -67t58 -23q24 0 41 6.5t30 14t22 14 t17 6.5q11 0 16 -4.5t10 -15.5l46 -105q-47 -38 -102 -61t-114 -28l-20 -54q76 -19 108.5 -51.5t32.5 -77.5q0 -38 -17.5 -67.5t-49 -50t-75 -31.5t-95.5 -11q-38 0 -70.5 7t-61.5 20l28 67q8 21 28 21q6 0 12.5 -3t15 -6.5t19.5 -6.5t27 -3q35 0 52.5 16.5t17.5 39.5 q0 30 -32 43t-97 23l59 136q-65 20 -101.5 71.5t-38.5 132.5z" />
<glyph unicode="&#x164;" horiz-adv-x="1103" d="M1151 1252h-408l-154 -1252h-224l153 1252h-410l22 188h1045zM1002 1821l-252 -274h-184l-190 274h144q12 0 29.5 -4t28.5 -23l81 -132q3 -5 5.5 -10t4.5 -10q4 5 7.5 10t7.5 10l110 131q16 20 34 24t31 4h143z" />
<glyph unicode="&#x165;" horiz-adv-x="720" d="M776 1481q20 0 26 -9t6 -19t-3.5 -24t-15.5 -42.5t-35 -76.5t-62 -125q-14 -25 -32 -32t-46 -7h-52l96 335h118zM132 201q0 7 0.5 16.5t2 27.5t4.5 48t9 77l59 481h-103q-17 0 -27 11.5t-7 34.5l10 87l155 24l80 295q6 17 18.5 27.5t30.5 10.5h114l-42 -335h257l-18 -155 h-258l-57 -469q-5 -41 -8 -65.5t-4.5 -39t-2 -20t-0.5 -8.5q0 -44 21 -67t58 -23q24 0 41 6.5t30 14t22 14t17 6.5q11 0 16 -4.5t10 -15.5l46 -105q-53 -44 -117.5 -67.5t-130.5 -23.5q-103 0 -163 56.5t-63 160.5z" />
<glyph unicode="&#x166;" horiz-adv-x="1135" d="M759 1252l-49 -400h290l-15 -131h-291l-89 -721h-224l88 721h-293l15 131h294l49 400h-410l22 188h1045l-24 -188h-408z" />
<glyph unicode="&#x167;" horiz-adv-x="730" d="M140 201q0 7 0.5 16.5t2 27.5t4.5 48t9 77l23 188h-107q-17 0 -29.5 12.5t-9.5 35.5l11 87h151l20 158h-103q-17 0 -27 11.5t-7 34.5l10 87l155 24l80 295q6 17 18.5 27.5t30.5 10.5h114l-42 -335h257l-18 -155h-258l-19 -158h250l-17 -135h-250l-21 -176 q-5 -41 -8 -65.5t-4.5 -39t-2 -20t-0.5 -8.5q0 -44 21 -67t58 -23q24 0 41 6.5t30 14t22 14t17 6.5q11 0 16 -4.5t10 -15.5l46 -105q-53 -44 -117.5 -67.5t-130.5 -23.5q-103 0 -163 56.5t-63 160.5z" />
<glyph unicode="&#x168;" horiz-adv-x="1377" d="M635 181q75 0 137.5 28.5t110 80t77.5 123t41 157.5l107 870h225l-106 -870q-16 -126 -67 -233.5t-131 -186t-186 -123t-232 -44.5t-221 44.5t-155.5 123t-85 186t-8.5 233.5l105 870h225l-106 -870q-11 -86 2 -157.5t47.5 -123t90 -80t130.5 -28.5zM939 1683 q21 0 37.5 9t28 23t18.5 31t9 34h121q-5 -47 -21.5 -90t-43 -76t-62.5 -53t-80 -20t-76 16t-57.5 35.5t-48 35.5t-47.5 16q-21 0 -37.5 -9t-28 -23t-18.5 -31.5t-9 -34.5h-122q5 46 22 89.5t43.5 77t62.5 53.5t79 20q45 0 77 -16t58 -35.5t48 -35.5t47 -16z" />
<glyph unicode="&#x169;" horiz-adv-x="1071" d="M997 1020l-123 -1020h-107q-78 0 -78 76l10 147q-78 -119 -174.5 -178.5t-198.5 -59.5q-64 0 -114 25.5t-82 75t-44 121.5t-1 165l77 648h214l-77 -648q-14 -109 12.5 -159t95.5 -50q42 0 87 23.5t87 66.5t78 104t61 136l63 527h214zM721 1346q30 0 49 18.5t24 61.5h121 q-6 -52 -24 -94.5t-44.5 -73t-61 -47t-73.5 -16.5q-33 0 -59.5 13.5t-50 29.5t-44 29.5t-39.5 13.5q-30 0 -48.5 -19.5t-23.5 -62.5h-122q6 52 24 95t45 73.5t61.5 47.5t73.5 17q33 0 60 -13.5t50 -29.5t43 -29.5t39 -13.5z" />
<glyph unicode="&#x16a;" horiz-adv-x="1377" d="M635 181q75 0 137.5 28.5t110 80t77.5 123t41 157.5l107 870h225l-106 -870q-16 -126 -67 -233.5t-131 -186t-186 -123t-232 -44.5t-221 44.5t-155.5 123t-85 186t-8.5 233.5l105 870h225l-106 -870q-11 -86 2 -157.5t47.5 -123t90 -80t130.5 -28.5zM559 1704h533 l-13 -126h-534z" />
<glyph unicode="&#x16b;" horiz-adv-x="1071" d="M997 1020l-123 -1020h-107q-78 0 -78 76l10 147q-78 -119 -174.5 -178.5t-198.5 -59.5q-64 0 -114 25.5t-82 75t-44 121.5t-1 165l77 648h214l-77 -648q-14 -109 12.5 -159t95.5 -50q42 0 87 23.5t87 66.5t78 104t61 136l63 527h214zM357 1361h541l-17 -139h-539z" />
<glyph unicode="&#x16c;" horiz-adv-x="1377" d="M635 181q75 0 137.5 28.5t110 80t77.5 123t41 157.5l107 870h225l-106 -870q-16 -126 -67 -233.5t-131 -186t-186 -123t-232 -44.5t-221 44.5t-155.5 123t-85 186t-8.5 233.5l105 870h225l-106 -870q-11 -86 2 -157.5t47.5 -123t90 -80t130.5 -28.5zM807 1545 q-67 0 -119 16t-85.5 49.5t-48.5 84t-7 119.5h152q-8 -66 18.5 -102t104.5 -36q39 0 66.5 9.5t45.5 27t28 43t14 58.5h151q-7 -63 -32.5 -113t-67 -84.5t-97.5 -53t-123 -18.5z" />
<glyph unicode="&#x16d;" horiz-adv-x="1071" d="M997 1020l-123 -1020h-107q-78 0 -78 76l10 147q-78 -119 -174.5 -178.5t-198.5 -59.5q-64 0 -114 25.5t-82 75t-44 121.5t-1 165l77 648h214l-77 -648q-14 -109 12.5 -159t95.5 -50q42 0 87 23.5t87 66.5t78 104t61 136l63 527h214zM605 1163q-75 0 -123 22t-75 60 t-34.5 88t-1.5 107h139q-4 -32 -1 -57.5t15.5 -43.5t35.5 -28t61 -10q37 0 62.5 10t42 28t25 43.5t12.5 57.5h139q-6 -57 -25.5 -107t-54.5 -88t-88.5 -60t-128.5 -22z" />
<glyph unicode="&#x16e;" horiz-adv-x="1377" d="M635 181q75 0 137.5 28.5t110 80t77.5 123t41 157.5l107 870h225l-106 -870q-16 -126 -67 -233.5t-131 -186t-186 -123t-232 -44.5t-221 44.5t-155.5 123t-85 186t-8.5 233.5l105 870h225l-106 -870q-11 -86 2 -157.5t47.5 -123t90 -80t130.5 -28.5zM635 1702 q5 41 23.5 75.5t46.5 59t62 38t70 13.5q38 0 70 -13.5t54.5 -38t33.5 -59t7 -75.5q-5 -40 -23.5 -73.5t-46.5 -57.5t-63 -37t-73 -13q-36 0 -67 13t-53.5 37t-34 57.5t-6.5 73.5zM732 1702q-5 -41 15 -67.5t62 -26.5q39 0 65.5 26.5t31.5 67.5q5 43 -16 69t-60 26 q-42 0 -67.5 -26t-30.5 -69z" />
<glyph unicode="&#x16f;" horiz-adv-x="1071" d="M997 1020l-123 -1020h-107q-78 0 -78 76l10 147q-78 -119 -174.5 -178.5t-198.5 -59.5q-64 0 -114 25.5t-82 75t-44 121.5t-1 165l77 648h214l-77 -648q-14 -109 12.5 -159t95.5 -50q42 0 87 23.5t87 66.5t78 104t61 136l63 527h214zM428 1321q5 44 24.5 80.5t49 62.5 t66.5 40t76 14q40 0 74 -14t58 -40t36 -62.5t7 -80.5t-25 -79.5t-50 -61t-67 -39.5t-77 -14q-39 0 -72.5 14t-57.5 39.5t-35.5 61t-6.5 79.5zM536 1321q-5 -42 15.5 -68t62.5 -26q38 0 64.5 26t31.5 68q5 43 -16 69t-60 26q-42 0 -67.5 -26t-30.5 -69z" />
<glyph unicode="&#x170;" horiz-adv-x="1377" d="M635 181q75 0 137.5 28.5t110 80t77.5 123t41 157.5l107 870h225l-106 -870q-16 -126 -67 -233.5t-131 -186t-186 -123t-232 -44.5t-221 44.5t-155.5 123t-85 186t-8.5 233.5l105 870h225l-106 -870q-11 -86 2 -157.5t47.5 -123t90 -80t130.5 -28.5zM939 1821l-217 -242 q-17 -15 -31.5 -23.5t-37.5 -8.5h-94l157 225q16 23 38.5 36t55.5 13h129zM1294 1821l-262 -242q-18 -16 -35 -24t-40 -8h-106l195 225q20 23 43 36t56 13h149z" />
<glyph unicode="&#x171;" horiz-adv-x="1071" d="M997 1020l-123 -1020h-107q-78 0 -78 76l10 147q-78 -119 -174.5 -178.5t-198.5 -59.5q-64 0 -114 25.5t-82 75t-44 121.5t-1 165l77 648h214l-77 -648q-14 -109 12.5 -159t95.5 -50q42 0 87 23.5t87 66.5t78 104t61 136l63 527h214zM751 1456l-212 -259 q-16 -19 -31.5 -25.5t-38.5 -6.5h-82l149 242q15 25 33.5 37t52.5 12h129zM1057 1456l-257 -259q-17 -18 -32 -25t-38 -7h-94l192 242q18 24 35 36.5t51 12.5h143z" />
<glyph unicode="&#x172;" horiz-adv-x="1376" d="M1333 1440l-106 -870q-14 -110 -54 -205.5t-103 -170.5t-146.5 -126t-183.5 -72h1q-21 -12 -41.5 -28t-37.5 -35.5t-27.5 -42.5t-10.5 -49q0 -28 16 -44.5t45 -16.5q18 0 30 3t20 6t13 6t10 3q15 0 19 -14l23 -80q-32 -23 -78.5 -37t-96.5 -14q-82 0 -125.5 35.5 t-43.5 93.5q0 57 35.5 108t98.5 93q-120 4 -211 49.5t-149 124t-81 184t-8 229.5l105 870h225l-106 -870q-11 -86 2 -157.5t47.5 -123t90 -80t130.5 -28.5t137.5 28.5t110 80t77.5 123t41 157.5l107 870h225z" />
<glyph unicode="&#x173;" horiz-adv-x="1071" d="M845 0q-21 -12 -41.5 -28t-37.5 -35.5t-27.5 -42.5t-10.5 -49q0 -28 16 -44.5t45 -16.5q18 0 30 3t20 6t13 6t10 3q15 0 19 -14l23 -80q-32 -23 -78.5 -37t-96.5 -14q-82 0 -125.5 35.5t-43.5 93.5q0 63 44 119.5t122 101.5q-37 16 -37 69l10 147q-78 -119 -174.5 -178.5 t-198.5 -59.5q-64 0 -114 25.5t-82 75t-44 121.5t-1 165l77 648h214l-77 -648q-14 -109 12.5 -159t95.5 -50q42 0 87 23.5t87 66.5t78 104t61 136l63 527h214l-123 -1020h-29z" />
<glyph unicode="&#x174;" horiz-adv-x="1924" d="M2004 1440l-589 -1440h-204l-178 1047q-3 18 -5.5 39t-4.5 44q-8 -23 -15.5 -44t-15.5 -39l-435 -1047h-203l-236 1440h177q29 0 47 -14.5t21 -38.5l140 -943q3 -30 5.5 -64t4.5 -71q11 38 23.5 72t24.5 63l392 943q9 20 30.5 36.5t50.5 16.5h52q29 0 46.5 -15t23.5 -38 l161 -943q5 -29 9 -62t6 -69q11 36 21 69t20 62l371 943q7 21 30.5 37t52.5 16h177zM1393 1547h-143q-13 0 -30 5t-33 30l-77 121q-3 5 -5.5 9.5t-4.5 9.5q-3 -5 -6.5 -9.5t-7.5 -9.5l-105 -121q-21 -25 -39.5 -30t-30.5 -5h-138l252 274h178z" />
<glyph unicode="&#x175;" horiz-adv-x="1461" d="M1485 1020l-424 -1020h-165q-28 0 -34 39l-110 635q-2 18 -4 35.5t-4 35.5l-12 -36t-14 -36l-267 -634q-15 -39 -47 -39h-158l-176 1020h162q23 0 37 -11.5t17 -30.5l76 -594q3 -40 5 -77.5t3 -75.5q14 38 28 75.5t30 77.5l249 597q7 18 23 29.5t36 11.5h90 q23 0 36.5 -11.5t15.5 -29.5l99 -597q6 -40 10.5 -78t8.5 -76q11 37 22.5 75t25.5 79l226 594q6 18 22.5 30t36.5 12h156zM1103 1169h-132q-11 0 -22.5 4t-22.5 18l-88 116q-9 10 -14 21q-5 -6 -10 -11l-10 -10l-116 -116q-11 -11 -24 -16.5t-25 -5.5h-137l239 271h184z" />
<glyph unicode="&#x176;" horiz-adv-x="1191" d="M703 567l-71 -567h-225l71 567l-377 873h200q29 0 45.5 -14.5t24.5 -37.5l211 -533q22 -64 34 -125q14 30 30.5 60.5t36.5 64.5l344 533q12 20 31.5 36t48.5 16h187zM1018 1547h-143q-13 0 -30 5t-33 30l-77 121q-3 5 -5.5 9.5t-4.5 9.5q-3 -5 -6.5 -9.5t-7.5 -9.5 l-105 -121q-21 -25 -39.5 -30t-30.5 -5h-138l252 274h178z" />
<glyph unicode="&#x177;" horiz-adv-x="972" d="M1013 1020l-681 -1312q-24 -47 -71 -47h-159l224 410l-260 949h178q25 0 37 -12.5t16 -29.5l144 -579q5 -23 8.5 -47t5.5 -47q10 24 20.5 47.5t21.5 47.5l285 579q9 18 25.5 29.5t34.5 11.5h171zM858 1169h-132q-11 0 -22.5 4t-22.5 18l-88 116q-9 10 -14 21 q-5 -6 -10 -11l-10 -10l-116 -116q-11 -11 -24 -16.5t-25 -5.5h-137l239 271h184z" />
<glyph unicode="&#x178;" horiz-adv-x="1191" d="M703 567l-71 -567h-225l71 567l-377 873h200q29 0 45.5 -14.5t24.5 -37.5l211 -533q22 -64 34 -125q14 30 30.5 60.5t36.5 64.5l344 533q12 20 31.5 36t48.5 16h187zM647 1664q0 -26 -10.5 -48.5t-28 -39t-40.5 -26.5t-49 -10q-25 0 -47.5 10t-39.5 26.5t-27 39t-10 48.5 t10 49.5t27 41t39.5 27.5t47.5 10q26 0 49 -10t40.5 -27.5t28 -41t10.5 -49.5zM1037 1664q0 -26 -10 -48.5t-27.5 -39t-40.5 -26.5t-49 -10t-48.5 10t-39.5 26.5t-27 39t-10 48.5t10 49.5t27 41t39.5 27.5t48.5 10t49 -10t40.5 -27.5t27.5 -41t10 -49.5z" />
<glyph unicode="&#x179;" horiz-adv-x="1118" d="M1155 1369q-2 -16 -9 -29.5t-17 -27.5l-833 -1129h700l-23 -183h-1004l9 70q2 16 9 29t16 27l836 1131h-675l23 183h978zM1077 1857l-330 -286q-19 -16 -34 -20t-38 -4h-141l233 273q10 13 19 20t19 11t22.5 5t29.5 1h220z" />
<glyph unicode="&#x17a;" horiz-adv-x="858" d="M848 1020l-12 -90q-2 -23 -12 -44t-24 -38l-546 -681h474l-19 -167h-731l11 90q1 15 11 36.5t25 39.5l550 687h-465l20 167h718zM842 1456l-252 -259q-17 -18 -31.5 -25t-37.5 -7h-118l160 242q16 25 34.5 37t52.5 12h192z" />
<glyph unicode="&#x17b;" horiz-adv-x="1117" d="M1154 1369q-2 -16 -9 -29.5t-17 -27.5l-833 -1129h700l-23 -183h-1004l9 70q2 16 9 29t16 27l836 1131h-675l23 183h978zM847 1691q0 -29 -12 -55t-32 -45.5t-45 -31t-52 -11.5t-51.5 11.5t-43 31t-30 45.5t-11.5 55t11.5 55.5t30.5 46t43.5 31t51.5 11.5t52.5 -11.5 t45 -31t31 -45.5t11.5 -56z" />
<glyph unicode="&#x17c;" horiz-adv-x="858" d="M848 1020l-12 -90q-2 -23 -12 -44t-24 -38l-546 -681h474l-19 -167h-731l11 90q1 15 11 36.5t25 39.5l550 687h-465l20 167h718zM674 1328q0 -29 -12 -55t-32 -45.5t-45 -31t-52 -11.5t-51.5 11.5t-43 31t-30 45.5t-11.5 55t11.5 55.5t30.5 46t44 31t51 11.5 q27 0 52.5 -11.5t45 -31t31 -45.5t11.5 -56z" />
<glyph unicode="&#x17d;" horiz-adv-x="1117" d="M1154 1369q-2 -16 -9 -29.5t-17 -27.5l-833 -1129h700l-23 -183h-1004l9 70q2 16 9 29t16 27l836 1131h-675l23 183h978zM1028 1821l-252 -274h-184l-190 274h144q12 0 29.5 -4t28.5 -23l81 -132q3 -5 5.5 -10t4.5 -10q4 5 7.5 10t7.5 10l110 131q16 20 34 24t31 4h143z " />
<glyph unicode="&#x17e;" horiz-adv-x="858" d="M848 1020l-12 -90q-2 -23 -12 -44t-24 -38l-546 -681h474l-19 -167h-731l11 90q1 15 11 36.5t25 39.5l550 687h-465l20 167h718zM846 1440l-239 -271h-185l-177 271h136q13 0 24 -5t16 -11l93 -122q4 -5 7.5 -10.5t8.5 -12.5q9 12 20 23l120 122q8 5 20 10.5t24 5.5h132z " />
<glyph unicode="&#x17f;" horiz-adv-x="561" d="M250 1092q11 87 43 156t82.5 116.5t117 72.5t145.5 25q33 0 61.5 -5.5t55.5 -14.5l-19 -108q-5 -21 -27.5 -22.5t-53.5 -1.5q-41 0 -74 -12t-57.5 -38.5t-41 -69.5t-23.5 -105l-127 -1047l-49 -196q-14 -43 -39 -66.5t-71 -23.5h-86l134 1099l-100 15q-24 5 -37.5 17 t-9.5 35l9 86h156z" />
<glyph unicode="&#x180;" horiz-adv-x="1068" d="M285 233q36 -45 84.5 -63.5t96.5 -18.5t90 20t77.5 55t63 82.5t47 101.5t29.5 112.5t10 115.5q0 113 -39 169.5t-109 56.5q-44 0 -90 -29t-88 -80t-78.5 -121t-62.5 -151zM354 793q37 55 79 100t88 77t95.5 49t101.5 17q64 0 115.5 -23.5t87.5 -71t55.5 -118t19.5 -164.5 q0 -85 -17.5 -168t-49.5 -157.5t-77.5 -138.5t-100.5 -110.5t-119 -73t-133 -26.5q-79 0 -142.5 33t-105.5 90l-11 -47q-10 -32 -25 -46.5t-51 -14.5h-115l138 1138h-57q-44 0 -58.5 18t-9.5 57l9 56h131l26 211h210l-26 -211h210l-15 -131h-211z" />
<glyph unicode="&#x181;" horiz-adv-x="1508" d="M887 178q74 0 129 20t91 56.5t53.5 87.5t17.5 114q0 87 -57 138t-178 51h-261l-57 -467h262zM758 1262l-56 -458h209q149 0 224.5 70t75.5 201q0 97 -57 142t-175 45h-221zM1001 1440q116 0 199 -23t136.5 -65.5t78.5 -103t25 -134.5q0 -62 -17.5 -119t-53 -105.5 t-90 -86.5t-128.5 -62q125 -29 187 -100.5t62 -181.5q0 -100 -36.5 -184t-105 -145t-167 -95.5t-223.5 -34.5h-490l156 1273h-17q-66 0 -110 -15t-70.5 -42.5t-37.5 -66.5t-11 -87q0 -16 1 -32.5t3 -25.5q3 -22 -5.5 -42t-41.5 -28l-133 -29q-8 33 -12.5 68.5t-4.5 67.5 q0 91 30 165t87 126t139 80t186 28h464z" />
<glyph unicode="&#x182;" horiz-adv-x="1171" d="M391 652l-58 -474h229q75 0 129.5 19.5t90 56t53 89t17.5 117.5q0 45 -13 80.5t-40.5 60.5t-71.5 38t-107 13h-229zM466 1262l-53 -432h230q115 0 197.5 -26t135 -71.5t77 -108t24.5 -134.5q0 -110 -37 -200t-106.5 -154.5t-169 -100t-224.5 -35.5h-454l177 1440h886 l-21 -178h-662z" />
<glyph unicode="&#x183;" horiz-adv-x="1051" d="M286 253q33 -60 78.5 -84t102.5 -24q66 0 120 30.5t92.5 90t59.5 147t21 202.5q0 133 -45 194.5t-126 61.5q-75 0 -132 -35.5t-112 -101.5zM418 1330l-54 -444q66 69 142.5 109.5t171.5 40.5q68 0 122.5 -28t93 -80.5t59 -129.5t20.5 -174q0 -138 -35.5 -255t-99 -202.5 t-151 -133.5t-192.5 -48q-44 0 -79 9.5t-63.5 27t-51 43t-41.5 57.5l-20 -80q-8 -23 -21.5 -32.5t-34.5 -9.5h-136l182 1480h772l-18 -150h-566z" />
<glyph unicode="&#x184;" horiz-adv-x="1291" d="M700 178q58 0 103 15t79 40.5t58 58.5t38.5 70t21 75.5t6.5 73.5q0 45 -13 87t-41.5 75t-73.5 52.5t-109 19.5h-269l-62 -513l-7 -54h269zM781 924q115 0 199.5 -32.5t139.5 -87.5t82 -128t27 -154q0 -109 -36.5 -204.5t-106.5 -166t-171.5 -111t-231.5 -40.5h-499 l113 918l-199 150l323 372h164l-63 -516h259z" />
<glyph unicode="&#x185;" horiz-adv-x="1097" d="M383 793q37 55 79 100t88 77t95.5 49t101.5 17q64 0 115.5 -23.5t87.5 -71t55.5 -118t19.5 -164.5q0 -85 -17.5 -168t-49.5 -157.5t-77.5 -138.5t-100.5 -110.5t-119 -73t-133 -26.5q-79 0 -142.5 33t-105.5 90l-11 -47q-10 -32 -25 -46.5t-51 -14.5h-115l122 1005 l-179 135l290 340h156zM314 233q36 -45 84.5 -63.5t96.5 -18.5t90 20t77.5 55t63 82.5t47 101.5t29.5 112.5t10 115.5q0 113 -39 169.5t-109 56.5q-44 0 -90 -29t-88 -80t-78.5 -121t-62.5 -151z" />
<glyph unicode="&#x186;" horiz-adv-x="1243" d="M126 316q10 0 18.5 -5t16.5 -12q28 -32 57 -55t63.5 -37.5t76.5 -21.5t96 -7q99 0 188.5 43t157.5 124.5t108.5 199.5t40.5 269q0 103 -26 185.5t-73 140.5t-114.5 89t-149.5 31q-54 0 -96.5 -9t-76 -22.5t-59 -29t-45.5 -29t-35.5 -22.5t-28.5 -9q-17 0 -27 8t-16 19 l-61 105q89 83 206.5 134t261.5 51q131 0 236.5 -47t179.5 -131.5t114 -200.5t40 -254q0 -182 -54 -336t-151.5 -266t-232 -174.5t-296.5 -62.5q-165 0 -275.5 57t-178.5 162l100 98q18 15 35 15z" />
<glyph unicode="&#x187;" horiz-adv-x="1255" d="M1151 203q-93 -104 -219 -161.5t-289 -57.5q-131 0 -234 47t-174 130t-108.5 198t-37.5 251q0 125 26.5 236t75.5 204.5t117.5 168.5t152.5 127.5t181 80.5t202 29q73 1 140.5 -16t127.5 -47q4 70 21.5 136t55 117t98.5 82t151 31q30 0 54.5 -2.5t46.5 -7.5t43 -11.5 t42 -15.5l-43 -118q-6 -16 -14 -24.5t-17.5 -12t-20 -3t-20.5 2.5q-31 11 -71 11q-66 0 -102 -52.5t-47 -149.5l-13 -115l-77 -94q-9 -11 -21 -19t-30 -8q-13 0 -26 9t-29 22.5t-37.5 29t-51.5 29t-70.5 22.5t-95.5 9q-110 0 -205 -44.5t-164.5 -126.5t-109.5 -199t-40 -262 q0 -105 27 -189t75 -142t114.5 -89t145.5 -31q63 0 111.5 10t84.5 25.5t61.5 33.5t44.5 33.5t33 25.5t27 10q11 0 18 -4.5t11 -9.5z" />
<glyph unicode="&#x188;" horiz-adv-x="912" d="M825 182q-51 -57 -98 -94.5t-94.5 -60.5t-99 -32.5t-112.5 -9.5q-89 0 -158 30.5t-116 86t-72 133.5t-25 173q0 82 18 161t51 148.5t80 128t104.5 100.5t125 65.5t142.5 23.5q42 0 76.5 -7.5t65.5 -21.5l9 83q8 63 29 121t57.5 102.5t89 71.5t124.5 27q39 0 77.5 -9 t79.5 -29l-34 -90q-10 -26 -24 -33t-26 -7q-14 0 -33 6.5t-47 6.5q-54 0 -79 -41.5t-35 -116.5l-27 -205l-68 -82q-8 -8 -18.5 -14.5t-22.5 -6.5q-15 0 -29 11t-34 24.5t-50 25t-77 11.5q-63 0 -119 -34t-98.5 -94.5t-67.5 -144.5t-25 -183q0 -118 52.5 -185t148.5 -67 q62 0 103 18t69.5 39t49.5 39t43 18t40 -20l54 -66v0z" />
<glyph unicode="&#x189;" horiz-adv-x="1428" d="M626 182q114 0 207.5 43.5t160 125t103 198.5t36.5 264q0 102 -25.5 184.5t-73.5 140.5t-118 89t-158 31h-277l-57 -468h338l-15 -131h-339l-58 -477h276zM780 1440q135 0 243.5 -46t184.5 -128.5t116.5 -196.5t40.5 -250q0 -121 -26 -228.5t-74 -198.5t-116 -164 t-152.5 -123.5t-183.5 -77.5t-209 -27h-503l81 659h-171l16 131h171l79 650h503z" />
<glyph unicode="&#x18a;" horiz-adv-x="1706" d="M903 182q114 0 207.5 43.5t160.5 125.5t103.5 199t36.5 264q0 102 -25.5 184t-73.5 139.5t-118 88.5t-159 31h-276l-133 -1075h277zM1057 1440q135 0 243.5 -46t184.5 -128t116.5 -196t40.5 -250q0 -121 -26 -229t-74 -199t-116 -163.5t-152.5 -123.5t-183.5 -78 t-209 -27h-503l156 1273h-17q-66 0 -110 -15t-70.5 -42.5t-37.5 -66.5t-11 -87q0 -16 1 -32.5t3 -25.5q3 -22 -5.5 -42t-41.5 -28l-133 -29q-8 33 -12.5 68.5t-4.5 67.5q0 91 30 165t87 126t139 80t186 28h520z" />
<glyph unicode="&#x18b;" horiz-adv-x="1165" d="M726 178l58 474h-230q-150 0 -219 -69t-69 -206q0 -43 12.5 -79.5t40.5 -63t71.5 -41.5t106.5 -15h229zM1106 1440l-177 -1440h-454q-104 0 -184 27.5t-135 77.5t-83 120t-28 156q0 96 30.5 178.5t95 142.5t165 94t240.5 34h230l53 432h-661l21 178h887z" />
</font>
</defs>
</svg>
