<?xml version="1.0" standalone="no"?>
<!DOCTYPE svg PUBLIC "-//W3C//DTD SVG 1.1//EN" "http://www.w3.org/Graphics/SVG/1.1/DTD/svg11.dtd" >
<svg xmlns="http://www.w3.org/2000/svg">
<metadata></metadata>
<defs>
<font id="latothin" horiz-adv-x="0" >
<font-face units-per-em="2000" ascent="1610" descent="-390" />
<missing-glyph horiz-adv-x="559" />
<glyph unicode="&#xfb00;" horiz-adv-x="1268" d="M231 0v907l-154 6q-19 2 -19 15v20h173v130q0 84 20.5 146.5t58 104t89.5 61.5t114 20q30 0 61 -5t54 -16l-3 -23q-1 -8 -7 -8.5t-19 2t-32.5 6t-47.5 3.5q-51 0 -94 -15.5t-74.5 -50.5t-49.5 -90.5t-18 -135.5v-129h546v143q0 84 20.5 146.5t58 104t89 61.5t114.5 20 q29 0 60 -5t54 -16l-2 -23q-2 -8 -8 -8.5t-18.5 2t-32.5 6t-48 3.5q-51 0 -94 -15.5t-74.5 -50.5t-49.5 -90.5t-18 -135.5v-142h339v-40h-338v-908h-52v908h-545v-908h-53z" />
<glyph unicode="&#xfb01;" horiz-adv-x="1041" d="M234 0v907l-154 6q-19 2 -19 15v20h173v100q0 92 26 163.5t74.5 121t116.5 75t152 25.5q30 0 63 -5.5t56 -16.5l-3 -24q-2 -6 -7.5 -6t-18 2.5t-32.5 5.5t-49 3q-74 0 -134 -21t-103 -64t-66 -107.5t-23 -152.5v-99h568v-948h-53v908h-514v-908h-53z" />
<glyph unicode="&#xfb02;" horiz-adv-x="1097" d="M234 0v907l-154 6q-19 2 -19 15v20h173v72q0 90 26 165.5t75.5 129.5t121.5 84t165 30q65 0 127 -6t116 -8h45v-1415h-53v1379q-51 1 -113.5 5.5t-116.5 4.5q-81 0 -144.5 -26t-107 -74t-66.5 -116.5t-23 -152.5v-72h301v-40h-300v-908h-53z" />
<glyph unicode="&#xfb03;" horiz-adv-x="1639" d="M234 0v907l-154 6q-19 2 -19 15v20h173v130q0 84 20.5 146.5t58 104t89.5 61.5t114 20q29 0 60.5 -5t54.5 -16l-3 -23q-2 -8 -8 -8.5t-18.5 2t-32.5 6t-48 3.5q-51 0 -94 -15.5t-74.5 -50.5t-49 -90.5t-17.5 -135.5v-129h546v100q0 92 26 163.5t74 121t116.5 75 t152.5 25.5q30 0 62.5 -5.5t55.5 -16.5l-3 -24q-2 -6 -7.5 -6t-18 2.5t-32 5.5t-48.5 3q-74 0 -134.5 -21t-103 -64t-66 -107.5t-23.5 -152.5v-99h568v-948h-52v908h-515v-908h-52v908h-545v-908h-53z" />
<glyph unicode="&#xfb04;" horiz-adv-x="1691" d="M231 0v907l-154 6q-19 2 -19 15v20h173v130q0 84 20.5 146.5t58 104t89.5 61.5t114 20q30 0 61 -5t54 -16l-3 -23q-1 -8 -7 -8.5t-19 2t-32.5 6t-47.5 3.5q-51 0 -94 -15.5t-74.5 -50.5t-49.5 -90.5t-18 -135.5v-129h546v72q0 90 26 165.5t75.5 129.5t121.5 84t165 30 q64 0 126 -6t116 -8h46v-1415h-53v1379q-52 1 -114 5.5t-116 4.5q-81 0 -144.5 -26t-107.5 -74t-67 -116.5t-23 -152.5v-72h339v-40h-338v-908h-52v908h-545v-908h-53z" />
<glyph unicode="fb" horiz-adv-x="1755" d="M891 797q66 95 155.5 150t211.5 55q90 0 161 -32t120 -93.5t74.5 -151t25.5 -204.5q0 -120 -28 -218.5t-83 -168t-135 -108t-184 -38.5q-211 0 -320 169l-5 -139q-1 -7 -4.5 -12.5t-13.5 -5.5h-28v1405q-50 8 -103.5 13.5t-98.5 5.5q-98 0 -165.5 -27t-109 -76t-60 -116 t-18.5 -147v-110h338v-40h-337v-908h-53v907l-154 6q-19 2 -19 15v20h173v110q0 88 22 162t70.5 128t125.5 84t187 30q63 0 121.5 -7.5t120.5 -8.5h13v-649zM891 205q61 -97 137 -136.5t172 -39.5q98 0 170.5 35.5t120 99.5t71 154t23.5 200q0 219 -88.5 330.5t-249.5 111.5 q-117 0 -203.5 -57t-152.5 -158v-540z" />
<glyph unicode="ffb" horiz-adv-x="2353" d="M231 0v907l-154 6q-19 2 -19 15v20h173v130q0 84 20.5 146.5t58 104t89.5 61.5t114 20q30 0 61 -5t54 -16l-3 -23q-1 -8 -7 -8.5t-19 2t-32.5 6t-47.5 3.5q-51 0 -94 -15.5t-74.5 -50.5t-49.5 -90.5t-18 -135.5v-129h546v110q0 88 22 162t70.5 128t125.5 84t187 30 q66 0 128 -8t126 -8h1v-649q66 95 155.5 150t211.5 55q90 0 161 -32t120 -93.5t74.5 -151t25.5 -204.5q0 -120 -28 -218.5t-83 -168t-135 -108t-184 -38.5q-211 0 -320 169l-5 -139q-1 -7 -4.5 -12.5t-13.5 -5.5h-28v1405q-50 8 -104 13.5t-99 5.5q-98 0 -165 -27t-109 -76 t-60.5 -116t-18.5 -147v-110h339v-40h-338v-908h-52v908h-545v-908h-53zM1489 205q61 -97 137 -136.5t172 -39.5q98 0 170.5 35.5t120 99.5t71 154t23.5 200q0 219 -88.5 330.5t-249.5 111.5q-117 0 -203.5 -57t-152.5 -158v-540z" />
<glyph unicode="fh" horiz-adv-x="1755" d="M891 798q69 93 164 148.5t207 55.5q82 0 143.5 -25.5t102 -73t61 -116.5t20.5 -156v-631h-53v631q0 77 -17 138t-52.5 103.5t-88.5 65t-125 22.5q-108 0 -199.5 -56.5t-162.5 -156.5v-747h-53v1405q-50 8 -103.5 13.5t-98.5 5.5q-98 0 -165.5 -27t-109 -76t-60 -116 t-18.5 -147v-110h338v-40h-337v-908h-53v907l-154 6q-19 2 -19 15v20h173v110q0 88 22 162t70.5 128t125.5 84t187 30q63 0 121.5 -7.5t120.5 -8.5h13v-648z" />
<glyph unicode="ffh" horiz-adv-x="2352" d="M231 0v907l-154 6q-19 2 -19 15v20h173v130q0 84 20.5 146.5t58 104t89.5 61.5t114 20q30 0 61 -5t54 -16l-3 -23q-1 -8 -7 -8.5t-19 2t-32.5 6t-47.5 3.5q-51 0 -94 -15.5t-74.5 -50.5t-49.5 -90.5t-18 -135.5v-129h546v110q0 88 22 162t70.5 128t125.5 84t187 30 q62 0 121.5 -7.5t119.5 -8.5h14v-648q69 93 164 148.5t207 55.5q82 0 143.5 -25.5t102 -73t61 -116.5t20.5 -156v-631h-53v631q0 77 -17 138t-52.5 103.5t-88.5 65t-125 22.5q-108 0 -199.5 -56.5t-162.5 -156.5v-747h-53v1405q-50 8 -104 13.5t-99 5.5q-98 0 -165 -27 t-109 -76t-60.5 -116t-18.5 -147v-110h339v-40h-338v-908h-52v908h-545v-908h-53z" />
<glyph unicode="f&#xec;" horiz-adv-x="1041" d="M608 1433q31 0 50 -10t30 -27l161 -237h-30q-16 0 -24 12l-183 221h-3q-73 0 -132.5 -21t-102 -64t-65.5 -107.5t-23 -152.5v-99h568v-948h-53v908h-514v-908h-53v907l-154 6q-19 2 -19 15v20h173v100q0 92 26 163.5t74.5 121t117.5 75t156 25.5z" />
<glyph unicode="f&#xee;" horiz-adv-x="1041" d="M234 0v907l-154 6q-19 2 -19 15v20h173v163q0 84 17.5 144.5t49.5 99.5t77 57.5t100 18.5q34 0 57 -6v-27q0 -9 -11.5 -8t-43.5 1q-93 0 -143.5 -67t-50.5 -213v-163h568v-948h-53v908h-514v-908h-53zM1064 1170h-37q-11 0 -21 10l-170 184l-7 9l-8 -9l-170 -184 q-10 -10 -21 -10h-38l214 236h44z" />
<glyph unicode="f&#x129;" horiz-adv-x="1042" d="M940 1257q47 0 70 30.5t25 78.5h33q0 -31 -8 -58t-23.5 -47t-39.5 -31.5t-56 -11.5q-33 0 -61.5 17.5t-55 38t-53 38t-54.5 17.5q-45 0 -69 -31.5t-26 -77.5h-35q0 31 8.5 58t25 47t40.5 32t55 12q33 0 62 -17.5t55.5 -38.5t52.5 -38.5t54 -17.5zM234 0v907l-154 6 q-19 2 -19 15v20h173v163q0 84 17.5 144.5t49.5 99.5t77 57.5t100 18.5q34 0 57 -6v-27q0 -9 -11.5 -8t-43.5 1q-93 0 -143.5 -67t-50.5 -213v-163h568v-948h-53v908h-514v-908h-53z" />
<glyph unicode="f&#xef;" horiz-adv-x="1041" d="M742 1282q0 -26 -20.5 -45.5t-46.5 -19.5q-13 0 -25 5.5t-21 14.5t-14.5 20.5t-5.5 24.5q0 27 20 46.5t46 19.5t46.5 -19.5t20.5 -46.5zM1038 1282q0 -26 -20.5 -45.5t-46.5 -19.5q-27 0 -46.5 19.5t-19.5 45.5q0 27 19.5 46.5t46.5 19.5q26 0 46.5 -19.5t20.5 -46.5z M234 0v907l-154 6q-19 2 -19 15v20h173v163q0 84 17.5 144.5t49.5 99.5t77 57.5t100 18.5q34 0 57 -6v-27q0 -9 -11.5 -8t-43.5 1q-93 0 -143.5 -67t-50.5 -213v-163h568v-948h-53v908h-514v-908h-53z" />
<glyph unicode="f&#x12b;" horiz-adv-x="1042" d="M558 1301h530v-38h-530v38zM234 0v907l-154 6q-19 2 -19 15v20h173v163q0 84 17.5 144.5t49.5 99.5t77 57.5t100 18.5q34 0 57 -6v-27q0 -9 -11.5 -8t-43.5 1q-93 0 -143.5 -67t-50.5 -213v-163h568v-948h-53v908h-514v-908h-53z" />
<glyph unicode="f&#x12d;" horiz-adv-x="1041" d="M823 1171q-60 0 -102 18.5t-69 51t-39 75t-12 90.5h40q0 -39 9.5 -75t31 -63t56 -43.5t85.5 -16.5t85.5 16.5t56 43.5t31 63t9.5 75h40q0 -48 -12 -90.5t-39 -75t-69 -51t-102 -18.5zM234 0v907l-154 6q-19 2 -19 15v20h173v163q0 84 17.5 144.5t49.5 99.5t77 57.5 t100 18.5q34 0 57 -6v-27q0 -9 -11.5 -8t-43.5 1q-93 0 -143.5 -67t-50.5 -213v-163h568v-948h-53v908h-514v-908h-53z" />
<glyph unicode="f&#x12f;" horiz-adv-x="1041" d="M234 0v907l-154 6q-19 2 -19 15v20h173v100q0 92 26 163.5t74.5 121t116.5 75t152 25.5q30 0 63 -5.5t56 -16.5l-3 -24q-2 -6 -7.5 -6t-18 2.5t-32.5 5.5t-49 3q-74 0 -134 -21t-103 -64t-66 -107.5t-23 -152.5v-99h568v-948h-4q-20 -11 -44.5 -29t-46 -42t-36 -53.5 t-14.5 -63.5q0 -53 36 -82t90 -29q31 0 52 6t35 13.5t22.5 14t13.5 6.5q6 0 10 -6l10 -17q-26 -25 -66.5 -39t-84.5 -14q-70 0 -115 35.5t-45 103.5q0 31 12 60t31 53.5t43 45.5t48 37v908h-514v-908h-53z" />
<glyph unicode="f&#x131;" horiz-adv-x="1041" d="M234 0v907l-154 6q-19 2 -19 15v20h173v163q0 84 17.5 144.5t49.5 99.5t77 57.5t100 18.5q34 0 57 -6v-27q0 -9 -11.5 -8t-43.5 1q-93 0 -143.5 -67t-50.5 -213v-163h568v-948h-53v908h-514v-908h-53z" />
<glyph unicode="ff&#xec;" horiz-adv-x="1636" d="M1395 0v908h-514v-908h-52v908h-542v-908h-53v907l-158 6q-18 1 -18 15v20h176v130q0 84 20.5 146.5t58 104t89.5 61.5t114 20q29 0 60.5 -5t54.5 -16l-3 -23q-2 -8 -8 -8.5t-18.5 2t-32.5 6t-48 3.5q-51 0 -94 -15.5t-74.5 -50.5t-49 -90.5t-17.5 -135.5v-129h543v143 q0 169 82.5 250.5t260.5 81.5q18 0 37.5 -1t36.5 -4.5t30 -9.5t20 -16l158 -233h-30q-16 0 -24 12l-172 208q-14 2 -30 3.5t-36 1.5q-62 0 -113.5 -13t-89 -46.5t-58.5 -90.5t-21 -144v-142h568v-948h-53z" />
<glyph unicode="ff&#xee;" horiz-adv-x="1639" d="M234 0v907l-154 6q-19 2 -19 15v20h173v130q0 84 20.5 146.5t58 104t89.5 61.5t114 20q29 0 60.5 -5t54.5 -16l-3 -23q-2 -8 -8 -8.5t-18.5 2t-32.5 6t-48 3.5q-51 0 -94 -15.5t-74.5 -50.5t-49 -90.5t-17.5 -135.5v-129h546v163q0 84 17.5 144.5t49 99.5t76.5 57.5 t101 18.5q34 0 57 -6v-27q0 -9 -12 -8t-43 1q-94 0 -144.5 -67t-50.5 -213v-163h568v-948h-52v908h-515v-908h-52v908h-545v-908h-53zM1661 1170h-37q-5 0 -10 2t-11 8l-170 184l-7 9l-8 -9l-170 -184q-10 -10 -21 -10h-38l214 236h44z" />
<glyph unicode="ff&#x129;" horiz-adv-x="1640" d="M234 0v907l-154 6q-19 2 -19 15v20h173v130q0 84 20.5 146.5t58 104t89.5 61.5t114 20q29 0 60.5 -5t54.5 -16l-3 -23q-2 -8 -8 -8.5t-18.5 2t-32.5 6t-48 3.5q-51 0 -94 -15.5t-74.5 -50.5t-49 -90.5t-17.5 -135.5v-129h546v163q0 84 17.5 144.5t49 99.5t76.5 57.5 t101 18.5q34 0 57 -6v-27q0 -9 -12 -8t-43 1q-94 0 -144.5 -67t-50.5 -213v-163h568v-948h-52v908h-515v-908h-52v908h-545v-908h-53zM1538 1257q47 0 70 30.5t25 78.5h33q0 -31 -8 -58t-23.5 -47t-39.5 -31.5t-56 -11.5q-33 0 -61.5 17.5t-55 38t-53 38t-54.5 17.5 q-45 0 -69 -31.5t-26 -77.5h-35q0 31 8.5 58t25 47t40.5 32t55 12q33 0 62 -17.5t55.5 -38.5t52.5 -38.5t54 -17.5z" />
<glyph unicode="ff&#xef;" horiz-adv-x="1639" d="M1329 1282q0 -26 -20 -45.5t-46 -19.5q-27 0 -47 19.5t-20 45.5q0 27 20 46.5t47 19.5q26 0 46 -19.5t20 -46.5zM1625 1282q0 -26 -20 -45.5t-46 -19.5q-27 0 -47 19.5t-20 45.5q0 27 20 46.5t47 19.5q26 0 46 -19.5t20 -46.5zM234 0v907l-154 6q-19 2 -19 15v20h173v130 q0 84 20.5 146.5t58 104t89.5 61.5t114 20q29 0 60.5 -5t54.5 -16l-3 -23q-2 -8 -8 -8.5t-18.5 2t-32.5 6t-48 3.5q-51 0 -94 -15.5t-74.5 -50.5t-49 -90.5t-17.5 -135.5v-129h546v163q0 84 17.5 144.5t49 99.5t76.5 57.5t101 18.5q34 0 57 -6v-27q0 -9 -12 -8t-43 1 q-94 0 -144.5 -67t-50.5 -213v-163h568v-948h-52v908h-515v-908h-52v908h-545v-908h-53z" />
<glyph unicode="ff&#x12b;" horiz-adv-x="1640" d="M234 0v907l-154 6q-19 2 -19 15v20h173v130q0 84 20.5 146.5t58 104t89.5 61.5t114 20q29 0 60.5 -5t54.5 -16l-3 -23q-2 -8 -8 -8.5t-18.5 2t-32.5 6t-48 3.5q-51 0 -94 -15.5t-74.5 -50.5t-49 -90.5t-17.5 -135.5v-129h546v163q0 84 17.5 144.5t49 99.5t76.5 57.5 t101 18.5q34 0 57 -6v-27q0 -9 -12 -8t-43 1q-94 0 -144.5 -67t-50.5 -213v-163h568v-948h-52v908h-515v-908h-52v908h-545v-908h-53zM1161 1301h530v-38h-530v38z" />
<glyph unicode="ff&#x12d;" horiz-adv-x="1639" d="M234 0v907l-154 6q-19 2 -19 15v20h173v130q0 84 20.5 146.5t58 104t89.5 61.5t114 20q29 0 60.5 -5t54.5 -16l-3 -23q-2 -8 -8 -8.5t-18.5 2t-32.5 6t-48 3.5q-51 0 -94 -15.5t-74.5 -50.5t-49 -90.5t-17.5 -135.5v-129h546v163q0 84 17.5 144.5t49 99.5t76.5 57.5 t101 18.5q34 0 57 -6v-27q0 -9 -12 -8t-43 1q-94 0 -144.5 -67t-50.5 -213v-163h568v-948h-52v908h-515v-908h-52v908h-545v-908h-53zM1426 1171q-60 0 -102 18.5t-69 51t-39 75t-12 90.5h40q0 -39 9.5 -75t31 -63t56 -43.5t85.5 -16.5t85.5 16.5t56 43.5t31 63t9.5 75h40 q0 -48 -12 -90.5t-39 -75t-69 -51t-102 -18.5z" />
<glyph unicode="ff&#x12f;" horiz-adv-x="1639" d="M234 0v907l-154 6q-19 2 -19 15v20h173v130q0 84 20.5 146.5t58 104t89.5 61.5t114 20q29 0 60.5 -5t54.5 -16l-3 -23q-2 -8 -8 -8.5t-18.5 2t-32.5 6t-48 3.5q-51 0 -94 -15.5t-74.5 -50.5t-49 -90.5t-17.5 -135.5v-129h546v100q0 92 26 163.5t74 121t116.5 75 t152.5 25.5q30 0 62.5 -5.5t55.5 -16.5l-3 -24q-2 -6 -7.5 -6t-18 2.5t-32 5.5t-48.5 3q-74 0 -134.5 -21t-103 -64t-66 -107.5t-23.5 -152.5v-99h568v-948h-3q-20 -11 -44.5 -29t-46 -42t-36 -53.5t-14.5 -63.5q0 -53 36 -82t90 -29q31 0 52 6t35 13.5t22.5 14t13.5 6.5 q6 0 10 -6l10 -17q-26 -25 -66.5 -39t-84.5 -14q-70 0 -115 35.5t-45 103.5q0 31 12 60t31 53.5t43 45.5t48 37v908h-515v-908h-52v908h-545v-908h-53z" />
<glyph unicode="ff&#x131;" horiz-adv-x="1639" d="M234 0v907l-154 6q-19 2 -19 15v20h173v130q0 84 20.5 146.5t58 104t89.5 61.5t114 20q29 0 60.5 -5t54.5 -16l-3 -23q-2 -8 -8 -8.5t-18.5 2t-32.5 6t-48 3.5q-51 0 -94 -15.5t-74.5 -50.5t-49 -90.5t-17.5 -135.5v-129h546v163q0 84 17.5 144.5t49 99.5t76.5 57.5 t101 18.5q34 0 57 -6v-27q0 -9 -12 -8t-43 1q-94 0 -144.5 -67t-50.5 -213v-163h568v-948h-52v908h-515v-908h-52v908h-545v-908h-53z" />
<glyph unicode="fj" horiz-adv-x="1041" d="M234 0v907l-154 6q-19 2 -19 15v20h173v100q0 92 26 163.5t74.5 121t116.5 75t152 25.5q30 0 63 -5.5t56 -16.5l-3 -24q-2 -6 -7.5 -6t-18 2.5t-32.5 5.5t-49 3q-74 0 -134 -21t-103 -64t-66 -107.5t-23 -152.5v-99h568v-1102q0 -47 -14.5 -87t-41.5 -69t-66.5 -45.5 t-90.5 -16.5q-28 0 -48.5 5.5t-40.5 15.5l4 25q3 8 8.5 8.5t14 -2.5t22 -7t33.5 -4q84 0 125.5 48t41.5 129v1062h-514v-908h-53z" />
<glyph unicode="ffj" horiz-adv-x="1639" d="M234 0v907l-154 6q-19 2 -19 15v20h173v130q0 84 20.5 146.5t58 104t89.5 61.5t114 20q29 0 60.5 -5t54.5 -16l-3 -23q-2 -8 -8 -8.5t-18.5 2t-32.5 6t-48 3.5q-51 0 -94 -15.5t-74.5 -50.5t-49 -90.5t-17.5 -135.5v-129h546v100q0 92 26 163.5t74 121t116.5 75 t152.5 25.5q30 0 62.5 -5.5t55.5 -16.5l-3 -24q-2 -6 -7.5 -6t-18 2.5t-32 5.5t-48.5 3q-74 0 -134.5 -21t-103 -64t-66 -107.5t-23.5 -152.5v-99h568v-1102q0 -47 -14 -87t-41.5 -69t-67 -45.5t-90.5 -16.5q-28 0 -48.5 5.5t-40.5 15.5l5 25q3 8 8 8.5t14 -2.5t22.5 -7 t33.5 -4q83 0 125 48t42 129v1062h-515v-908h-52v908h-545v-908h-53z" />
<glyph unicode="fk" horiz-adv-x="1581" d="M231 0v907l-154 6q-19 2 -19 15v20h173v110q0 88 22 162t70.5 128t125.5 84t187 30q66 0 128 -8t127 -8v-897h46q11 0 23 3t27 17l439 397q9 10 18.5 15t24.5 5h44l-473 -427q-8 -8 -15.5 -13.5t-15.5 -10.5q14 -5 25 -13.5t21 -18.5l496 -503h-45q-10 0 -18.5 3 t-16.5 13l-463 467q-17 17 -31 23t-44 6h-42v-512h-53v1405q-50 8 -103.5 13.5t-98.5 5.5q-98 0 -165.5 -27t-109 -76t-60 -116t-18.5 -147v-110h338v-40h-337v-908h-53z" />
<glyph unicode="ffk" horiz-adv-x="2181" d="M234 0v907l-154 6q-19 2 -19 15v20h173v130q0 84 20.5 146.5t58 104t89.5 61.5t114 20q29 0 60.5 -5t54.5 -16l-3 -23q-2 -8 -8 -8.5t-18.5 2t-32.5 6t-48 3.5q-51 0 -94 -15.5t-74.5 -50.5t-49 -90.5t-17.5 -135.5v-129h546v110q0 88 22 162t70 128t125 84t187 30 q63 0 121.5 -7.5t120.5 -8.5h13v-897h46q11 0 23 3t27 17l439 397q9 10 18.5 15t24.5 5h44l-473 -427q-8 -8 -15.5 -13.5t-15.5 -10.5q14 -5 25 -13.5t21 -18.5l496 -503h-45q-10 0 -18.5 3t-16.5 13l-463 467q-17 17 -31 23t-44 6h-42v-512h-53v1405q-50 8 -103.5 13.5 t-98.5 5.5q-98 0 -165.5 -27t-109 -76t-60 -116t-18.5 -147v-110h340v-40h-339v-908h-52v908h-545v-908h-53z" />
<glyph unicode="ft" horiz-adv-x="1284" d="M901 908v-709q0 -46 12 -78.5t32 -53.5t47.5 -30.5t59.5 -9.5q39 0 68.5 12t50.5 26t34 26t19 12q5 0 11 -6l13 -19q-17 -21 -39.5 -38t-49.5 -29.5t-56 -19.5t-59 -7q-92 0 -144 50.5t-52 162.5v711h-564v-908h-53v907l-154 6q-19 2 -19 15v20h173v141q0 84 20.5 146.5 t58 104t89.5 61.5t114 20q30 0 61 -5t54 -16l-3 -23q-1 -8 -7 -8.5t-19 2t-32.5 6t-47.5 3.5q-51 0 -94 -15.5t-74.5 -50.5t-49.5 -90.5t-18 -135.5v-140h565l16 380q0 6 4 11.5t11 5.5h22v-397h326v-40h-326z" />
<glyph unicode="fft" horiz-adv-x="1884" d="M234 0v907l-154 6q-19 2 -19 15v20h173v130q0 84 20.5 146.5t58 104t89.5 61.5t114 20q29 0 60.5 -5t54.5 -16l-3 -23q-2 -8 -8 -8.5t-18.5 2t-32.5 6t-48 3.5q-51 0 -94 -15.5t-74.5 -50.5t-49 -90.5t-17.5 -135.5v-129h546v141q0 84 20.5 146.5t57.5 104t89 61.5 t114 20q30 0 61 -5t54 -16l-2 -23q-2 -8 -8 -8.5t-19 2t-32.5 6t-47.5 3.5q-51 0 -94 -15.5t-74.5 -50.5t-49.5 -90.5t-18 -135.5v-140h565l16 380q0 6 4 11.5t11 5.5h22v-397h326v-40h-326v-709q0 -46 12 -78.5t32 -53.5t47.5 -30.5t59.5 -9.5q39 0 68.5 12t50.5 26t34 26 t19 12q5 0 11 -6l13 -19q-33 -42 -88.5 -68t-114.5 -26q-93 0 -145 50.5t-52 162.5v711h-564v-908h-52v908h-545v-908h-53z" />
<glyph unicode="tf" horiz-adv-x="1318" d="M878 0v908h-593v-709q0 -46 12 -78.5t32 -53.5t47.5 -30.5t59.5 -9.5q39 0 68.5 12t50.5 26t34 26t19 12q5 0 11 -6l13 -19q-17 -21 -39.5 -38t-49.5 -29.5t-56 -19.5t-59 -7q-92 0 -144 50.5t-52 162.5v711h-154q-19 0 -19 15v18l173 7l15 380q1 6 5 11.5t11 5.5h22 v-397h593v141q0 84 20.5 146.5t58 104t89.5 61.5t114 20q29 0 60.5 -5t54.5 -16l-3 -23q-1 -8 -7 -8.5t-19 2t-32.5 6t-47.5 3.5q-51 0 -94.5 -15.5t-75 -50.5t-49 -90.5t-17.5 -135.5v-140h338v-40h-337v-908h-53z" />
<glyph unicode="t&#x12f;" horiz-adv-x="1127" d="M912 1274q-28 0 -48 20.5t-20 47.5q0 28 20 48.5t48 20.5q27 0 48.5 -20.5t21.5 -48.5q0 -27 -21.5 -47.5t-48.5 -20.5zM1064 -282q-26 -25 -66.5 -39t-84.5 -14q-70 0 -115 35.5t-45 103.5q0 31 12 59.5t31 53.5t43 46t48 37h-1v908h-605v-709q0 -46 12 -78.5 t32.5 -53.5t48 -30.5t58.5 -9.5q40 0 69.5 12t50 26t33.5 26t19 12q7 0 11 -6l13 -19q-33 -42 -88 -68t-115 -26q-92 0 -144 50.5t-52 162.5v711h-155q-8 0 -13 4t-5 11v18l174 8l14 379q1 6 5 11.5t11 5.5h21v-397h658v-948h-3q-20 -11 -44.5 -29t-46 -42t-36 -53.5 t-14.5 -63.5q0 -53 36 -82t90 -29q31 0 52 6t35 13.5t22.5 14t13.5 6.5q6 0 10 -6z" />
<glyph unicode="t&#x131;" horiz-adv-x="1130" d="M942 0h-52v908h-605v-709q0 -46 12 -78.5t32 -53.5t47.5 -30.5t59.5 -9.5q39 0 68.5 12t50.5 26t34 26t19 12q5 0 11 -6l13 -19q-17 -21 -39.5 -38t-49.5 -29.5t-56 -19.5t-59 -7q-92 0 -144 50.5t-52 162.5v711h-154q-19 0 -19 15v18l174 8l14 379q1 6 5 11.5t11 5.5h22 v-397h657v-948z" />
<glyph unicode="tt" horiz-adv-x="1293" d="M428 -16q-92 0 -144 50.5t-52 162.5v711h-154q-19 0 -19 15v18l173 7l15 380q1 6 5 11.5t11 5.5h22v-397h572l15 380q1 6 5 11.5t11 5.5h22v-397h326v-40h-326v-709q0 -46 12 -78.5t32 -53.5t47.5 -30.5t58.5 -9.5q40 0 69.5 12t50 26t33.5 26t19 12q5 0 7 -2l4 -4 l13 -19q-33 -42 -88 -68t-115 -26q-92 0 -144 50.5t-52 162.5v711h-572v-709q0 -46 12 -78.5t32 -53.5t47.5 -30.5t59.5 -9.5q39 0 68.5 12t50.5 26t34 26t19 12q5 0 11 -6l13 -19q-17 -21 -39.5 -38t-49.5 -29.5t-56 -19.5t-59 -7z" />
<glyph unicode="ttf" horiz-adv-x="1943" d="M1503 1089q0 84 20.5 146.5t58 104t89 61.5t114.5 20q29 0 60.5 -5t53.5 -16l-2 -23q-2 -8 -8 -8.5t-18.5 2t-32.5 6t-48 3.5q-51 0 -94 -15.5t-74.5 -50.5t-49 -90.5t-17.5 -135.5v-140h338v-40h-337v-908h-53v908h-593v-709q0 -46 12 -78.5t32 -53.5t47.5 -30.5 t58.5 -9.5q40 0 69.5 12t50 26t33.5 26t19 12q5 0 7 -2l4 -4l13 -19q-33 -42 -88 -68t-115 -26q-92 0 -144 50.5t-52 162.5v711h-572v-709q0 -46 12 -78.5t32 -53.5t47.5 -30.5t59.5 -9.5q39 0 68.5 12t50.5 26t34 26t19 12q5 0 11 -6l13 -19q-17 -21 -39.5 -38t-49.5 -29.5 t-56 -19.5t-59 -7q-92 0 -144 50.5t-52 162.5v711h-154q-19 0 -19 15v18l174 8l14 379q1 6 5 11.5t11 5.5h22v-397h573l14 380q1 6 5 11.5t11 5.5h22v-397h593v141z" />
<glyph unicode="tt&#x12f;" horiz-adv-x="1731" d="M1517 1274q-28 0 -48.5 20.5t-20.5 47.5q0 28 20.5 48.5t48.5 20.5q27 0 48 -20.5t21 -48.5q0 -27 -21 -47.5t-48 -20.5zM1669 -282q-26 -25 -66.5 -39t-84.5 -14q-70 0 -115 35.5t-45 103.5q0 31 12 59.5t31 53.5t43 46t48 37h-1v908h-585v-709q0 -46 12 -78.5t32 -53.5 t47.5 -30.5t59.5 -9.5q39 0 68.5 12t50.5 26t34 26t19 12q5 0 11 -6l13 -19q-17 -21 -39.5 -38t-49.5 -29.5t-56 -19.5t-59 -7q-92 0 -144 50.5t-52 162.5v711h-572v-709q0 -46 12 -78.5t32.5 -53.5t48 -30.5t58.5 -9.5q40 0 69.5 12t50 26t33.5 26t19 12q7 0 11 -6l13 -19 q-33 -42 -88 -68t-115 -26q-92 0 -144 50.5t-52 162.5v711h-155q-8 0 -13 4t-5 11v18l174 8l14 379q1 6 5 11.5t11 5.5h21v-397h573l15 380q1 6 4.5 11.5t11.5 5.5h21v-397h638v-948h-3q-20 -11 -44.5 -29t-46 -42t-36 -53.5t-14.5 -63.5q0 -53 36 -82t90 -29q31 0 52 6 t35 13.5t22.5 14t13.5 6.5q6 0 10 -6z" />
<glyph unicode="tt&#x131;" horiz-adv-x="1735" d="M1547 0h-53v908h-584v-709q0 -46 12 -78.5t32 -53.5t47.5 -30.5t58.5 -9.5q40 0 69.5 12t50 26t33.5 26t19 12q5 0 7 -2l4 -4l13 -19q-33 -42 -88 -68t-115 -26q-92 0 -144 50.5t-52 162.5v711h-572v-709q0 -46 12 -78.5t32 -53.5t47.5 -30.5t59.5 -9.5q39 0 68.5 12 t50.5 26t34 26t19 12q5 0 11 -6l13 -19q-17 -21 -39.5 -38t-49.5 -29.5t-56 -19.5t-59 -7q-92 0 -144 50.5t-52 162.5v711h-154q-19 0 -19 15v18l174 8l14 379q1 6 5 11.5t11 5.5h22v-397h573l14 380q1 6 5 11.5t11 5.5h22v-397h637v-948z" />
<glyph unicode="f&#x1d0;" horiz-adv-x="1041" d="M234 0v907l-154 6q-19 2 -19 15v20h173v163q0 84 17.5 144.5t49.5 99.5t77 57.5t100 18.5q34 0 57 -6v-27q0 -9 -11.5 -8t-43.5 1q-93 0 -143.5 -67t-50.5 -213v-163h568v-948h-53v908h-514v-908h-53zM596 1406h38q13 0 20 -9l167 -185q2 -3 4 -5.5t4 -5.5l9 11l167 185 q9 9 20 9h37l-211 -236h-44z" />
<glyph unicode="f&#x209;" horiz-adv-x="1041" d="M508 1431q20 0 38 -7t34 -28l183 -237h-27q-16 0 -24 12l-197 220q-115 -2 -172 -69t-57 -211v-163h568v-948h-53v908h-514v-908h-53v907l-154 6q-19 2 -19 15v20h173v163q0 84 19.5 144.5t55.5 99.5t86.5 57.5t112.5 18.5zM776 1422q20 0 29.5 -5.5t19.5 -20.5l159 -237 h-25q-16 0 -24 12l-199 251h40z" />
<glyph unicode="f&#x20b;" horiz-adv-x="1041" d="M234 0v907l-154 6q-19 2 -19 15v20h173v163q0 84 17.5 144.5t49.5 99.5t77 57.5t100 18.5q34 0 57 -6v-27q0 -9 -11.5 -8t-43.5 1q-93 0 -143.5 -67t-50.5 -213v-163h568v-948h-53v908h-514v-908h-53zM828 1416q60 0 102 -18.5t69 -51t39 -75t12 -90.5h-39 q0 39 -9.5 74.5t-31 63t-56.5 43.5t-86 16t-85.5 -16t-56 -43.5t-31 -63t-9.5 -74.5h-39q0 48 12 90.5t38.5 75t68.5 51t102 18.5z" />
<glyph unicode="f&#x1e2f;" horiz-adv-x="1041" d="M741 1200q0 -25 -20 -44t-45 -19q-26 0 -45 19t-19 44q0 26 19 45.5t45 19.5q12 0 24 -5t21 -14t14.5 -21t5.5 -25zM1037 1200q0 -25 -20 -44t-45 -19q-26 0 -45.5 19t-19.5 44q0 26 19.5 45.5t45.5 19.5q12 0 24 -5t21 -14t14.5 -21t5.5 -25zM1048 1571l-205 -245 q-11 -11 -26 -11h-30l159 230q10 15 19 20.5t29 5.5h54zM234 0v907l-154 6q-19 2 -19 15v20h173v163q0 84 17.5 144.5t49.5 99.5t77 57.5t100 18.5q34 0 57 -6v-27q0 -9 -11.5 -8t-43.5 1q-93 0 -143.5 -67t-50.5 -213v-163h568v-948h-53v908h-514v-908h-53z" />
<glyph unicode="ff&#x1d0;" horiz-adv-x="1639" d="M234 0v907l-154 6q-19 2 -19 15v20h173v130q0 84 20.5 146.5t58 104t89.5 61.5t114 20q29 0 60.5 -5t54.5 -16l-3 -23q-2 -8 -8 -8.5t-18.5 2t-32.5 6t-48 3.5q-51 0 -94 -15.5t-74.5 -50.5t-49 -90.5t-17.5 -135.5v-129h546v163q0 84 17.5 144.5t49 99.5t76.5 57.5 t101 18.5q34 0 57 -6v-27q0 -9 -12 -8t-43 1q-94 0 -144.5 -67t-50.5 -213v-163h568v-948h-52v908h-515v-908h-52v908h-545v-908h-53zM1192 1406h37q12 0 21 -9l167 -185q2 -3 4 -5.5t4 -5.5l8 11l168 185q9 9 20 9h37l-211 -236h-44z" />
<glyph unicode="ff&#x209;" horiz-adv-x="1639" d="M234 0v907l-154 6q-19 2 -19 15v20h173v130q0 84 20.5 146.5t58 104t89.5 61.5t114 20q29 0 60.5 -5t54.5 -16l-3 -23q-2 -8 -8 -8.5t-18.5 2t-32.5 6t-48 3.5q-51 0 -94 -15.5t-74.5 -50.5t-49 -90.5t-17.5 -135.5v-129h546v163q0 168 73 244t207 76q20 0 38 -7t34 -28 l183 -237h-27q-14 0 -24 12l-197 220q-115 -2 -175.5 -69t-60.5 -211v-163h568v-948h-52v908h-515v-908h-52v908h-545v-908h-53zM1380 1422q20 0 29.5 -5.5t19.5 -20.5l159 -237h-25q-16 0 -24 12l-199 251h40z" />
<glyph unicode="ff&#x20b;" horiz-adv-x="1639" d="M1399 0v908h-515v-908h-52v908h-545v-908h-53v907l-154 6q-19 2 -19 15v20h173v130q0 84 20.5 146.5t58 104t89.5 61.5t114 20q29 0 60.5 -5t54.5 -16l-3 -23q-2 -8 -8 -8.5t-18.5 2t-32.5 6t-48 3.5q-51 0 -94 -15.5t-74.5 -50.5t-49 -90.5t-17.5 -135.5v-129h546v163 q0 84 17.5 144.5t49 99.5t76.5 57.5t101 18.5q34 0 57 -6v-27q0 -9 -12 -8t-43 1q-94 0 -144.5 -67t-50.5 -213v-163h568v-948h-52zM1426 1416q60 0 102 -18.5t68.5 -51t38.5 -75t12 -90.5h-39q0 39 -9.5 74.5t-31 63t-56 43.5t-85.5 16t-86 -16t-56.5 -43.5t-31 -63 t-9.5 -74.5h-39q0 48 12 90.5t39 75t69 51t102 18.5z" />
<glyph unicode="ff&#x1e2f;" horiz-adv-x="1639" d="M234 0v907l-154 6q-19 2 -19 15v20h173v130q0 84 20.5 146.5t58 104t89.5 61.5t114 20q29 0 60.5 -5t54.5 -16l-3 -23q-2 -8 -8 -8.5t-18.5 2t-32.5 6t-48 3.5q-51 0 -94 -15.5t-74.5 -50.5t-49 -90.5t-17.5 -135.5v-129h546v163q0 84 17.5 144.5t49 99.5t76.5 57.5 t101 18.5q34 0 57 -6v-27q0 -9 -12 -8t-43 1q-94 0 -144.5 -67t-50.5 -213v-163h568v-948h-52v908h-515v-908h-52v908h-545v-908h-53zM1649 1571l-205 -245q-10 -11 -26 -11h-29l158 230q10 15 19.5 20.5t29.5 5.5h53zM1343 1200q0 -25 -20 -44t-45 -19q-26 0 -45.5 19 t-19.5 44q0 26 19.5 45.5t45.5 19.5q12 0 24 -5t21 -14t14.5 -21t5.5 -25zM1638 1200q0 -25 -20 -44t-45 -19q-26 0 -45 19t-19 44q0 26 19 45.5t45 19.5q12 0 24 -5t21 -14t14.5 -21t5.5 -25z" />
<glyph unicode="f&#x237;" horiz-adv-x="1041" d="M234 0v907l-154 6q-19 2 -19 15v20h173v163q0 84 17.5 144.5t49.5 99.5t77 57.5t100 18.5q34 0 57 -6v-27q0 -9 -11.5 -8t-43.5 1q-93 0 -143.5 -67t-50.5 -213v-163h568v-1102q0 -47 -14.5 -87t-41.5 -69t-66.5 -45.5t-90.5 -16.5q-28 0 -48.5 5.5t-40.5 15.5l4 25 q3 8 8.5 8.5t14 -2.5t22 -7t33.5 -4q84 0 125.5 48t41.5 129v1062h-514v-908h-53z" />
<glyph unicode="ff&#x237;" horiz-adv-x="1639" d="M234 0v907l-154 6q-19 2 -19 15v20h173v130q0 84 20.5 146.5t58 104t89.5 61.5t114 20q29 0 60.5 -5t54.5 -16l-3 -23q-2 -8 -8 -8.5t-18.5 2t-32.5 6t-48 3.5q-51 0 -94 -15.5t-74.5 -50.5t-49 -90.5t-17.5 -135.5v-129h546v163q0 84 17.5 144.5t49 99.5t76.5 57.5 t101 18.5q34 0 57 -6v-27q0 -9 -12 -8t-43 1q-94 0 -144.5 -67t-50.5 -213v-163h568v-1102q0 -47 -14 -87t-41.5 -69t-67 -45.5t-90.5 -16.5q-28 0 -48.5 5.5t-40.5 15.5l5 25q3 8 8 8.5t14 -2.5t22.5 -7t33.5 -4q83 0 125 48t42 129v1062h-515v-908h-52v908h-545v-908h-53z " />
<glyph unicode="f&#x135;" horiz-adv-x="1042" d="M234 0v907l-154 6q-19 2 -19 15v20h173v163q0 84 17.5 144.5t49.5 99.5t77 57.5t100 18.5q34 0 57 -6v-27q0 -9 -11.5 -8t-43.5 1q-93 0 -143.5 -67t-50.5 -213v-163h568v-1102q0 -47 -14.5 -87t-41.5 -69t-66.5 -45.5t-90.5 -16.5q-28 0 -48.5 5.5t-40.5 15.5l4 25 q3 8 8.5 8.5t14 -2.5t22 -7t33.5 -4q84 0 125.5 48t41.5 129v1062h-514v-908h-53zM1066 1170h-37q-11 0 -21 10l-170 184l-7 9l-8 -9l-170 -184q-10 -10 -21 -10h-38l214 236h44z" />
<glyph unicode="f&#x13e;" horiz-adv-x="1097" d="M234 0v907l-154 6q-19 2 -19 15v20h173v72q0 90 26 165.5t75.5 129.5t121.5 84t165 30q65 0 127 -6t116 -8h45v-1415h-53v1379q-51 1 -113.5 5.5t-116.5 4.5q-81 0 -144.5 -26t-107 -74t-66.5 -116.5t-23 -152.5v-72h301v-40h-300v-908h-53zM1140 1448q11 0 15 -6t4 -18 q0 -11 -3.5 -29.5t-10 -48t-17.5 -71t-26 -98.5q-3 -8 -8 -13t-16 -5h-16l48 289h30z" />
<glyph unicode="f&#x13c;" horiz-adv-x="1097" d="M234 0v907l-154 6q-19 2 -19 15v20h173v72q0 90 26 165.5t75.5 129.5t121.5 84t165 30q65 0 127 -6t116 -8h45v-1415h-53v1379q-51 1 -113.5 5.5t-116.5 4.5q-81 0 -144.5 -26t-107 -74t-66.5 -116.5t-23 -152.5v-72h301v-40h-300v-908h-53zM892 -107q11 0 15 -6t4 -18 q0 -11 -3 -30t-10 -47.5t-17 -69t-24 -94.5q-3 -9 -7.5 -13.5t-15.5 -4.5h-17l47 283h28z" />
<glyph unicode="f&#x21b;" horiz-adv-x="1284" d="M901 908v-709q0 -46 12 -78.5t32 -53.5t47.5 -30.5t59.5 -9.5q39 0 68.5 12t50.5 26t34 26t19 12q5 0 11 -6l13 -19q-17 -21 -39.5 -38t-49.5 -29.5t-56 -19.5t-59 -7q-92 0 -144 50.5t-52 162.5v711h-564v-908h-53v907l-154 6q-19 2 -19 15v20h173v141q0 84 20.5 146.5 t58 104t89.5 61.5t114 20q30 0 61 -5t54 -16l-3 -23q-1 -8 -7 -8.5t-19 2t-32.5 6t-47.5 3.5q-51 0 -94 -15.5t-74.5 -50.5t-49.5 -90.5t-18 -135.5v-140h565l16 380q0 6 4 11.5t11 5.5h22v-397h326v-40h-326zM1043 -107q11 0 15 -6t4 -18q0 -11 -3 -30t-10 -47.5t-17 -69 t-24 -94.5q-3 -9 -7.5 -13.5t-15.5 -4.5h-17l47 283h28z" />
<glyph unicode="f&#x165;" horiz-adv-x="1284" d="M901 908v-709q0 -46 12 -78.5t32 -53.5t47.5 -30.5t59.5 -9.5q39 0 68.5 12t50.5 26t34 26t19 12q5 0 11 -6l13 -19q-17 -21 -39.5 -38t-49.5 -29.5t-56 -19.5t-59 -7q-92 0 -144 50.5t-52 162.5v711h-564v-908h-53v907l-154 6q-19 2 -19 15v20h173v141q0 84 20.5 146.5 t58 104t89.5 61.5t114 20q30 0 61 -5t54 -16l-3 -23q-1 -8 -7 -8.5t-19 2t-32.5 6t-47.5 3.5q-51 0 -94 -15.5t-74.5 -50.5t-49.5 -90.5t-18 -135.5v-140h565l16 380q0 6 4 11.5t11 5.5h22v-397h326v-40h-326zM1288 1448q11 0 15 -6t4 -18q0 -11 -3.5 -29.5t-10 -48 t-17.5 -71t-26 -98.5q-3 -8 -8 -13t-16 -5h-16l48 289h30z" />
<glyph unicode="f&#x1ecb;" horiz-adv-x="1041" d="M234 0v907l-154 6q-19 2 -19 15v20h173v100q0 92 26 163.5t74.5 121t116.5 75t152 25.5q30 0 63 -5.5t56 -16.5l-3 -24q-2 -6 -7.5 -6t-18 2.5t-32.5 5.5t-49 3q-74 0 -134 -21t-103 -64t-66 -107.5t-23 -152.5v-99h568v-948h-53v908h-514v-908h-53zM894 -269 q0 -26 -20.5 -45t-46.5 -19q-27 0 -46.5 19t-19.5 45q0 27 19.5 47t46.5 20q26 0 46.5 -20t20.5 -47z" />
<glyph unicode="f&#x1e2d;" horiz-adv-x="1041" d="M234 0v907l-154 6q-19 2 -19 15v20h173v100q0 92 26 163.5t74.5 121t116.5 75t152 25.5q30 0 63 -5.5t56 -16.5l-3 -24q-2 -6 -7.5 -6t-18 2.5t-32.5 5.5t-49 3q-74 0 -134 -21t-103 -64t-66 -107.5t-23 -152.5v-99h568v-948h-53v908h-514v-908h-53zM935 -229 q47 0 70 30.5t25 78.5h33q0 -31 -8 -58t-23.5 -47t-39.5 -31.5t-56 -11.5q-33 0 -61.5 17.5t-55 38t-53 38t-54.5 17.5q-45 0 -69 -31.5t-26 -77.5h-35q0 31 8.5 58t25 47t40.5 32t55 12q33 0 62 -17.5t55.5 -38.5t52.5 -38.5t54 -17.5z" />
<glyph unicode="f&#x268;" horiz-adv-x="1071" d="M801 547v361h-514v-908h-53v907l-154 6q-19 2 -19 15v20h173v100q0 92 26 163.5t74.5 121t116.5 75t152 25.5q30 0 63 -5.5t56 -16.5l-3 -24q-2 -6 -7.5 -6t-18 2.5t-32.5 5.5t-49 3q-74 0 -134 -21t-103 -64t-66 -107.5t-23 -152.5v-99h568v-401h174v-40h-174v-507h-53 v507h-184v40h184z" />
<glyph unicode="f&#xed;" horiz-adv-x="1041" d="M234 0v907l-154 6q-19 2 -19 15v20h173v163q0 84 17.5 144.5t49.5 99.5t77 57.5t100 18.5q34 0 57 -6v-27q0 -9 -11.5 -8t-43.5 1q-93 0 -143.5 -67t-50.5 -213v-163h568v-948h-53v908h-514v-908h-53zM1017 1422l-208 -251q-9 -12 -24 -12h-32l162 237q10 15 19 20.5 t29 5.5h54z" />
<glyph unicode="f&#x1ec9;" horiz-adv-x="1042" d="M234 0v907l-154 6q-19 2 -19 15v20h173v163q0 84 17.5 144.5t49.5 99.5t77 57.5t100 18.5q34 0 57 -6v-27q0 -9 -11.5 -8t-43.5 1q-93 0 -143.5 -67t-50.5 -213v-163h568v-948h-53v908h-514v-908h-53zM699 1367q49 40 119 40q67 0 98.5 -30.5t31.5 -72.5q0 -37 -26 -64.5 t-83 -41.5l-6 -78h-29v98q55 8 79.5 30t24.5 52q0 13 -5 27t-16.5 24.5t-29.5 17.5t-44 7q-23 0 -38.5 -4.5t-26 -10.5t-17.5 -10.5t-11 -4.5q-6 0 -9 5z" />
<glyph unicode="ff&#x1ecb;" horiz-adv-x="1639" d="M234 0v907l-154 6q-19 2 -19 15v20h173v130q0 84 20.5 146.5t58 104t89.5 61.5t114 20q29 0 60.5 -5t54.5 -16l-3 -23q-2 -8 -8 -8.5t-18.5 2t-32.5 6t-48 3.5q-51 0 -94 -15.5t-74.5 -50.5t-49 -90.5t-17.5 -135.5v-129h546v100q0 92 26 163.5t74 121t116.5 75 t152.5 25.5q30 0 62.5 -5.5t55.5 -16.5l-3 -24q-2 -6 -7.5 -6t-18 2.5t-32 5.5t-48.5 3q-74 0 -134.5 -21t-103 -64t-66 -107.5t-23.5 -152.5v-99h568v-948h-52v908h-515v-908h-52v908h-545v-908h-53zM1492 -269q0 -26 -20.5 -45t-46.5 -19q-27 0 -46.5 19t-19.5 45 q0 27 19.5 47t46.5 20q26 0 46.5 -20t20.5 -47z" />
<glyph unicode="ff&#x1e2d;" horiz-adv-x="1639" d="M234 0v907l-154 6q-19 2 -19 15v20h173v130q0 84 20.5 146.5t58 104t89.5 61.5t114 20q29 0 60.5 -5t54.5 -16l-3 -23q-2 -8 -8 -8.5t-18.5 2t-32.5 6t-48 3.5q-51 0 -94 -15.5t-74.5 -50.5t-49 -90.5t-17.5 -135.5v-129h546v100q0 92 26 163.5t74 121t116.5 75 t152.5 25.5q30 0 62.5 -5.5t55.5 -16.5l-3 -24q-2 -6 -7.5 -6t-18 2.5t-32 5.5t-48.5 3q-74 0 -134.5 -21t-103 -64t-66 -107.5t-23.5 -152.5v-99h568v-948h-52v908h-515v-908h-52v908h-545v-908h-53zM1533 -229q47 0 70 30.5t25 78.5h33q0 -31 -8 -58t-23.5 -47 t-39.5 -31.5t-56 -11.5q-33 0 -61.5 17.5t-55 38t-53 38t-54.5 17.5q-45 0 -69 -31.5t-26 -77.5h-35q0 31 8.5 58t25 47t40.5 32t55 12q33 0 62 -17.5t55.5 -38.5t52.5 -38.5t54 -17.5z" />
<glyph unicode="ff&#x268;" horiz-adv-x="1669" d="M1399 547v361h-515v-908h-52v908h-545v-908h-53v907l-154 6q-19 2 -19 15v20h173v130q0 84 20.5 146.5t58 104t89.5 61.5t114 20q29 0 60.5 -5t54.5 -16l-3 -23q-2 -8 -8 -8.5t-18.5 2t-32.5 6t-48 3.5q-51 0 -94 -15.5t-74.5 -50.5t-49 -90.5t-17.5 -135.5v-129h546v100 q0 92 26 163.5t74 121t116.5 75t152.5 25.5q30 0 62.5 -5.5t55.5 -16.5l-3 -24q-2 -6 -7.5 -6t-18 2.5t-32 5.5t-48.5 3q-74 0 -134.5 -21t-103 -64t-66 -107.5t-23.5 -152.5v-99h568v-401h175v-40h-175v-507h-52v507h-184v40h184z" />
<glyph unicode="ff&#xed;" horiz-adv-x="1639" d="M234 0v907l-154 6q-19 2 -19 15v20h173v130q0 84 20.5 146.5t58 104t89.5 61.5t114 20q29 0 60.5 -5t54.5 -16l-3 -23q-2 -8 -8 -8.5t-18.5 2t-32.5 6t-48 3.5q-51 0 -94 -15.5t-74.5 -50.5t-49 -90.5t-17.5 -135.5v-129h546v163q0 84 17.5 144.5t49 99.5t76.5 57.5 t101 18.5q34 0 57 -6v-27q0 -9 -12 -8t-43 1q-94 0 -144.5 -67t-50.5 -213v-163h568v-948h-52v908h-515v-908h-52v908h-545v-908h-53zM1616 1422l-208 -251q-9 -12 -24 -12h-32l162 237q10 15 19 20.5t29 5.5h54z" />
<glyph unicode="ff&#x1ec9;" horiz-adv-x="1627" d="M234 0v907l-154 6q-19 2 -19 15v20h173v130q0 84 20.5 146.5t58 104t89.5 61.5t114 20q29 0 60.5 -5t54.5 -16l-3 -23q-2 -8 -8 -8.5t-18.5 2t-32.5 6t-48 3.5q-51 0 -94 -15.5t-74.5 -50.5t-49 -90.5t-17.5 -135.5v-129h546v163q0 84 17.5 144.5t49 99.5t76.5 57.5 t101 18.5q34 0 57 -6v-27q0 -9 -12 -8t-43 1q-94 0 -144.5 -67t-50.5 -213v-163h568v-948h-52v908h-515v-908h-52v908h-545v-908h-53zM1297 1367q49 40 119 40q67 0 98.5 -30.5t31.5 -72.5q0 -37 -26 -64.5t-83 -41.5l-6 -78h-29v98q55 8 79.5 30t24.5 52q0 13 -5 27 t-16.5 24.5t-29.5 17.5t-44 7q-23 0 -38.5 -4.5t-26 -10.5t-17.5 -10.5t-11 -4.5q-6 0 -9 5z" />
<glyph unicode="f&#x13a;" horiz-adv-x="1097" d="M234 0v907l-154 6q-19 2 -19 15v20h173v72q0 90 26 165.5t75.5 129.5t121.5 84t165 30q65 0 127 -6t116 -8h45v-1415h-53v1379q-51 1 -113.5 5.5t-116.5 4.5q-81 0 -144.5 -26t-107 -74t-66.5 -116.5t-23 -152.5v-72h301v-40h-300v-908h-53zM1188 1836l-329 -288 q-10 -9 -26 -9h-34l272 279q10 11 20 14.5t30 3.5h67z" />
<glyph unicode="ti" horiz-adv-x="1131" d="M942 0h-52v908h-605v-709q0 -46 12 -78.5t32 -53.5t47.5 -30.5t59.5 -9.5q39 0 68.5 12t50.5 26t34 26t19 12q5 0 11 -6l13 -19q-17 -21 -39.5 -38t-49.5 -29.5t-56 -19.5t-59 -7q-92 0 -144 50.5t-52 162.5v711h-154q-19 0 -19 15v18l174 8l14 379q1 6 5 11.5t11 5.5h22 v-397h657v-948zM987 1356q0 -13 -6 -25t-15.5 -21.5t-22 -15t-25.5 -5.5q-14 0 -26.5 5.5t-22 15t-15 21.5t-5.5 25q0 28 20.5 48.5t48.5 20.5q13 0 25.5 -5.5t22 -15t15.5 -22t6 -26.5z" />
<glyph unicode="t&#xec;" horiz-adv-x="1131" d="M942 0h-52v908h-605v-709q0 -46 12 -78.5t32 -53.5t47.5 -30.5t59.5 -9.5q39 0 68.5 12t50.5 26t34 26t19 12q5 0 11 -6l13 -19q-17 -21 -39.5 -38t-49.5 -29.5t-56 -19.5t-59 -7q-92 0 -144 50.5t-52 162.5v711h-154q-19 0 -19 15v18l174 8l14 379q1 6 5 11.5t11 5.5h22 v-397h657v-948zM797 1422q20 0 29.5 -5.5t19.5 -20.5l161 -237h-30q-16 0 -25 12l-208 251h53z" />
<glyph unicode="t&#xed;" horiz-adv-x="1126" d="M938 0h-52v908h-605v-709q0 -46 12 -78.5t32 -53.5t47.5 -30.5t59.5 -9.5q39 0 68.5 12t50.5 26t34 26t19 12q5 0 11 -6l13 -19q-17 -21 -39.5 -38t-49.5 -29.5t-56 -19.5t-59 -7q-92 0 -144 50.5t-52 162.5v711h-154q-19 0 -19 15v18l174 8l14 379q1 6 5 11.5t11 5.5h22 v-397h657v-948zM1105 1422l-208 -251q-9 -12 -24 -12h-32l162 237q10 15 19 20.5t29 5.5h54z" />
<glyph unicode="t&#xee;" horiz-adv-x="1130" d="M942 0h-52v908h-605v-709q0 -46 12 -78.5t32 -53.5t47.5 -30.5t59.5 -9.5q39 0 68.5 12t50.5 26t34 26t19 12q5 0 11 -6l13 -19q-17 -21 -39.5 -38t-49.5 -29.5t-56 -19.5t-59 -7q-92 0 -144 50.5t-52 162.5v711h-154q-19 0 -19 15v18l174 8l14 379q1 6 5 11.5t11 5.5h22 v-397h657v-948zM1154 1170h-37q-5 0 -10 2t-11 8l-170 184q-2 2 -3.5 4.5t-3.5 4.5q-2 -2 -4 -4.5t-4 -4.5l-170 -184q-10 -10 -21 -10h-38l214 236h44z" />
<glyph unicode="t&#xef;" horiz-adv-x="1130" d="M942 0h-52v908h-605v-709q0 -46 12 -78.5t32 -53.5t47.5 -30.5t59.5 -9.5q39 0 68.5 12t50.5 26t34 26t19 12q5 0 11 -6l13 -19q-17 -21 -39.5 -38t-49.5 -29.5t-56 -19.5t-59 -7q-92 0 -144 50.5t-52 162.5v711h-154q-19 0 -19 15v18l174 8l14 379q1 6 5 11.5t11 5.5h22 v-397h657v-948zM855 1282q0 -26 -20.5 -45.5t-46.5 -19.5q-27 0 -46.5 19.5t-19.5 45.5q0 27 19.5 46.5t46.5 19.5q26 0 46.5 -19.5t20.5 -46.5zM1114 1282q0 -26 -20 -45.5t-46 -19.5q-27 0 -47 19.5t-20 45.5q0 27 20 46.5t47 19.5q26 0 46 -19.5t20 -46.5z" />
<glyph unicode="t&#x12b;" horiz-adv-x="1131" d="M942 0h-52v908h-605v-709q0 -46 12 -78.5t32 -53.5t47.5 -30.5t59.5 -9.5q39 0 68.5 12t50.5 26t34 26t19 12q5 0 11 -6l13 -19q-17 -21 -39.5 -38t-49.5 -29.5t-56 -19.5t-59 -7q-92 0 -144 50.5t-52 162.5v711h-154q-19 0 -19 15v18l174 8l14 379q1 6 5 11.5t11 5.5h22 v-397h657v-948zM653 1301h530v-38h-530v38z" />
<glyph unicode="t&#x129;" horiz-adv-x="1127" d="M938 0h-52v908h-605v-709q0 -46 12 -78.5t32 -53.5t47.5 -30.5t59.5 -9.5q39 0 68.5 12t50.5 26t34 26t19 12q5 0 11 -6l13 -19q-17 -21 -39.5 -38t-49.5 -29.5t-56 -19.5t-59 -7q-92 0 -144 50.5t-52 162.5v711h-154q-19 0 -19 15v18l174 8l14 379q1 6 5 11.5t11 5.5h22 v-397h657v-948zM1031 1257q47 0 70 30.5t25 78.5h33q0 -31 -8 -58t-23.5 -47t-39.5 -31.5t-56 -11.5q-33 0 -61.5 17.5t-55 38t-53 38t-54.5 17.5q-45 0 -69 -31.5t-26 -77.5h-35q0 31 8.5 58t25 47t40.5 32t55 12q33 0 62 -17.5t55.5 -38.5t52.5 -38.5t54 -17.5z" />
<glyph unicode="t&#x12d;" horiz-adv-x="1130" d="M942 0h-52v908h-605v-709q0 -46 12 -78.5t32 -53.5t47.5 -30.5t59.5 -9.5q39 0 68.5 12t50.5 26t34 26t19 12q5 0 11 -6l13 -19q-17 -21 -39.5 -38t-49.5 -29.5t-56 -19.5t-59 -7q-92 0 -144 50.5t-52 162.5v711h-154q-19 0 -19 15v18l174 8l14 379q1 6 5 11.5t11 5.5h22 v-397h657v-948zM918 1171q-60 0 -102 18.5t-69 51t-39 75t-12 90.5h40q0 -39 9.5 -75t31 -63t56 -43.5t85.5 -16.5t85.5 16.5t56 43.5t31 63t9.5 75h40q0 -48 -12 -90.5t-39 -75t-69 -51t-102 -18.5z" />
<glyph unicode="t&#x1d0;" horiz-adv-x="1130" d="M942 0h-52v908h-605v-709q0 -46 12 -78.5t32 -53.5t47.5 -30.5t59.5 -9.5q39 0 68.5 12t50.5 26t34 26t19 12q5 0 11 -6l13 -19q-17 -21 -39.5 -38t-49.5 -29.5t-56 -19.5t-59 -7q-92 0 -144 50.5t-52 162.5v711h-154q-19 0 -19 15v18l174 8l14 379q1 6 5 11.5t11 5.5h22 v-397h657v-948zM1154 1406l-214 -236h-44l-214 236h38q5 0 10.5 -3t9.5 -6l170 -185q6 -6 8 -9q2 2 4 4.5t4 4.5l171 185q9 9 20 9h37z" />
<glyph unicode="t&#x1e2d;" horiz-adv-x="1127" d="M938 0h-52v908h-605v-709q0 -46 12 -78.5t32 -53.5t47.5 -30.5t59.5 -9.5q39 0 68.5 12t50.5 26t34 26t19 12q5 0 11 -6l13 -19q-17 -21 -39.5 -38t-49.5 -29.5t-56 -19.5t-59 -7q-92 0 -144 50.5t-52 162.5v711h-154q-19 0 -19 15v18l174 8l14 379q1 6 5 11.5t11 5.5h22 v-397h657v-948zM983 1356q0 -13 -6 -25t-15.5 -21.5t-22 -15t-25.5 -5.5q-14 0 -26.5 5.5t-22 15t-15 21.5t-5.5 25q0 28 20.5 48.5t48.5 20.5q13 0 25.5 -5.5t22 -15t15.5 -22t6 -26.5zM1021 -229q47 0 70 30.5t25 78.5h33q0 -31 -8 -58t-23.5 -47t-39.5 -31.5t-56 -11.5 q-33 0 -61.5 17.5t-55 38t-53 38t-54.5 17.5q-45 0 -69 -31.5t-26 -77.5h-35q0 31 8.5 58t25 47t40.5 32t55 12q33 0 62 -17.5t55.5 -38.5t52.5 -38.5t54 -17.5z" />
<glyph unicode="t&#x1e2f;" horiz-adv-x="1126" d="M938 0h-52v908h-605v-709q0 -46 12 -78.5t32 -53.5t47.5 -30.5t59.5 -9.5q39 0 68.5 12t50.5 26t34 26t19 12q5 0 11 -6l13 -19q-17 -21 -39.5 -38t-49.5 -29.5t-56 -19.5t-59 -7q-92 0 -144 50.5t-52 162.5v711h-154q-19 0 -19 15v18l174 8l14 379q1 6 5 11.5t11 5.5h22 v-397h657v-948zM1154 1720l-208 -251q-9 -12 -24 -12h-32l162 237q10 15 19 20.5t29 5.5h54zM812 1282q0 -26 -20.5 -45.5t-46.5 -19.5q-27 0 -46.5 19.5t-19.5 45.5q0 27 19.5 46.5t46.5 19.5q26 0 46.5 -19.5t20.5 -46.5zM1149 1282q0 -26 -20 -45.5t-46 -19.5 q-27 0 -47 19.5t-20 45.5q0 27 20 46.5t47 19.5q26 0 46 -19.5t20 -46.5z" />
<glyph unicode="t&#x268;" horiz-adv-x="1164" d="M918 1289q-14 0 -26.5 5.5t-22 15t-15 21.5t-5.5 25q0 28 20.5 48.5t48.5 20.5q13 0 25.5 -5.5t22 -15t15.5 -22t6 -26.5q0 -13 -6 -25t-15.5 -21.5t-22 -15t-25.5 -5.5zM1117 507h-175v-507h-52v507h-184v40h184v361h-605v-709q0 -46 12 -78.5t32 -53.5t47.5 -30.5 t59.5 -9.5q39 0 68.5 12t50.5 26t34 26t19 12q5 0 11 -6l13 -19q-17 -21 -39.5 -38t-49.5 -29.5t-56 -19.5t-59 -7q-92 0 -144 50.5t-52 162.5v711h-154q-19 0 -19 15v18l174 8l14 379q1 6 5 11.5t11 5.5h22v-397h657v-401h175v-40z" />
<glyph unicode="t&#x20b;" horiz-adv-x="1130" d="M942 0h-52v908h-605v-709q0 -46 12 -78.5t32 -53.5t47.5 -30.5t59.5 -9.5q39 0 68.5 12t50.5 26t34 26t19 12q5 0 11 -6l13 -19q-17 -21 -39.5 -38t-49.5 -29.5t-56 -19.5t-59 -7q-92 0 -144 50.5t-52 162.5v711h-154q-19 0 -19 15v18l174 8l14 379q1 6 5 11.5t11 5.5h22 v-397h657v-948zM918 1421q60 0 102 -18.5t69 -51t39 -75t12 -90.5h-40q0 39 -9.5 74.5t-31 63t-56 43.5t-85.5 16t-85.5 -16t-56 -43.5t-31 -63t-9.5 -74.5h-40q0 48 12 90.5t39 75t69 51t102 18.5z" />
<glyph unicode="t&#x209;" horiz-adv-x="1130" d="M942 0h-52v908h-605v-709q0 -46 12 -78.5t32 -53.5t47.5 -30.5t59.5 -9.5q39 0 68.5 12t50.5 26t34 26t19 12q5 0 11 -6l13 -19q-17 -21 -39.5 -38t-49.5 -29.5t-56 -19.5t-59 -7q-92 0 -144 50.5t-52 162.5v711h-154q-19 0 -19 15v18l174 8l14 379q1 6 5 11.5t11 5.5h22 v-397h657v-948zM871 1422q20 0 29.5 -5.5t19.5 -20.5l159 -237h-25q-16 0 -24 12l-199 251h40zM626 1422q20 0 29 -5.5t20 -20.5l183 -237h-27q-16 0 -24 12l-226 251h45z" />
<glyph unicode="tti" horiz-adv-x="1735" d="M1547 0h-53v908h-584v-709q0 -46 12 -78.5t32 -53.5t47.5 -30.5t58.5 -9.5q40 0 69.5 12t50 26t33.5 26t19 12q5 0 7 -2l4 -4l13 -19q-33 -42 -88 -68t-115 -26q-92 0 -144 50.5t-52 162.5v711h-572v-709q0 -46 12 -78.5t32 -53.5t47.5 -30.5t59.5 -9.5q39 0 68.5 12 t50.5 26t34 26t19 12q5 0 11 -6l13 -19q-17 -21 -39.5 -38t-49.5 -29.5t-56 -19.5t-59 -7q-92 0 -144 50.5t-52 162.5v711h-154q-19 0 -19 15v18l174 8l14 379q1 6 5 11.5t11 5.5h22v-397h573l14 380q1 6 5 11.5t11 5.5h22v-397h637v-948zM1592 1356q0 -13 -6 -25 t-15.5 -21.5t-22 -15t-25.5 -5.5q-14 0 -26.5 5.5t-22 15t-15 21.5t-5.5 25q0 28 20.5 48.5t48.5 20.5q13 0 25.5 -5.5t22 -15t15.5 -22t6 -26.5z" />
<glyph unicode="tt&#xec;" horiz-adv-x="1735" d="M1547 0h-53v908h-584v-709q0 -46 12 -78.5t32 -53.5t47.5 -30.5t58.5 -9.5q40 0 69.5 12t50 26t33.5 26t19 12q5 0 7 -2l4 -4l13 -19q-33 -42 -88 -68t-115 -26q-92 0 -144 50.5t-52 162.5v711h-572v-709q0 -46 12 -78.5t32 -53.5t47.5 -30.5t59.5 -9.5q39 0 68.5 12 t50.5 26t34 26t19 12q5 0 11 -6l13 -19q-17 -21 -39.5 -38t-49.5 -29.5t-56 -19.5t-59 -7q-92 0 -144 50.5t-52 162.5v711h-154q-19 0 -19 15v18l174 8l14 379q1 6 5 11.5t11 5.5h22v-397h573l14 380q1 6 5 11.5t11 5.5h22v-397h637v-948zM1402 1422q20 0 29.5 -5.5 t19.5 -20.5l161 -237h-30q-16 0 -25 12l-208 251h53z" />
<glyph unicode="tt&#xed;" horiz-adv-x="1731" d="M1543 0h-53v908h-584v-709q0 -46 12 -78.5t32 -53.5t47.5 -30.5t58.5 -9.5q40 0 69.5 12t50 26t33.5 26t19 12q5 0 7 -2l4 -4l13 -19q-33 -42 -88 -68t-115 -26q-92 0 -144 50.5t-52 162.5v711h-572v-709q0 -46 12 -78.5t32 -53.5t47.5 -30.5t59.5 -9.5q39 0 68.5 12 t50.5 26t34 26t19 12q5 0 11 -6l13 -19q-17 -21 -39.5 -38t-49.5 -29.5t-56 -19.5t-59 -7q-92 0 -144 50.5t-52 162.5v711h-154q-19 0 -19 15v18l174 8l14 379q1 6 5 11.5t11 5.5h22v-397h573l14 380q1 6 5 11.5t11 5.5h22v-397h637v-948zM1710 1422l-208 -251 q-9 -12 -24 -12h-32l162 237q10 15 19 20.5t29 5.5h54z" />
<glyph unicode="tt&#xee;" horiz-adv-x="1735" d="M1547 0h-53v908h-584v-709q0 -46 12 -78.5t32 -53.5t47.5 -30.5t58.5 -9.5q40 0 69.5 12t50 26t33.5 26t19 12q5 0 7 -2l4 -4l13 -19q-33 -42 -88 -68t-115 -26q-92 0 -144 50.5t-52 162.5v711h-572v-709q0 -46 12 -78.5t32 -53.5t47.5 -30.5t59.5 -9.5q39 0 68.5 12 t50.5 26t34 26t19 12q5 0 11 -6l13 -19q-17 -21 -39.5 -38t-49.5 -29.5t-56 -19.5t-59 -7q-92 0 -144 50.5t-52 162.5v711h-154q-19 0 -19 15v18l174 8l14 379q1 6 5 11.5t11 5.5h22v-397h573l14 380q1 6 5 11.5t11 5.5h22v-397h637v-948zM1759 1170h-37q-5 0 -10 2t-11 8 l-170 184q-2 2 -3.5 4.5t-3.5 4.5q-2 -2 -4 -4.5t-4 -4.5l-170 -184q-10 -10 -21 -10h-38l214 236h44z" />
<glyph unicode="tt&#xef;" horiz-adv-x="1735" d="M1547 0h-53v908h-584v-709q0 -46 12 -78.5t32 -53.5t47.5 -30.5t58.5 -9.5q40 0 69.5 12t50 26t33.5 26t19 12q5 0 7 -2l4 -4l13 -19q-33 -42 -88 -68t-115 -26q-92 0 -144 50.5t-52 162.5v711h-572v-709q0 -46 12 -78.5t32 -53.5t47.5 -30.5t59.5 -9.5q39 0 68.5 12 t50.5 26t34 26t19 12q5 0 11 -6l13 -19q-17 -21 -39.5 -38t-49.5 -29.5t-56 -19.5t-59 -7q-92 0 -144 50.5t-52 162.5v711h-154q-19 0 -19 15v18l174 8l14 379q1 6 5 11.5t11 5.5h22v-397h573l14 380q1 6 5 11.5t11 5.5h22v-397h637v-948zM1460 1282q0 -26 -20.5 -45.5 t-46.5 -19.5q-27 0 -46.5 19.5t-19.5 45.5q0 27 19.5 46.5t46.5 19.5q26 0 46.5 -19.5t20.5 -46.5zM1719 1282q0 -26 -20 -45.5t-46 -19.5q-27 0 -47 19.5t-20 45.5q0 27 20 46.5t47 19.5q26 0 46 -19.5t20 -46.5z" />
<glyph unicode="tt&#x12b;" horiz-adv-x="1735" d="M1547 0h-53v908h-584v-709q0 -46 12 -78.5t32 -53.5t47.5 -30.5t58.5 -9.5q40 0 69.5 12t50 26t33.5 26t19 12q5 0 7 -2l4 -4l13 -19q-33 -42 -88 -68t-115 -26q-92 0 -144 50.5t-52 162.5v711h-572v-709q0 -46 12 -78.5t32 -53.5t47.5 -30.5t59.5 -9.5q39 0 68.5 12 t50.5 26t34 26t19 12q5 0 11 -6l13 -19q-17 -21 -39.5 -38t-49.5 -29.5t-56 -19.5t-59 -7q-92 0 -144 50.5t-52 162.5v711h-154q-19 0 -19 15v18l174 8l14 379q1 6 5 11.5t11 5.5h22v-397h573l14 380q1 6 5 11.5t11 5.5h22v-397h637v-948zM1258 1301h530v-38h-530v38z" />
<glyph unicode="tt&#x129;" horiz-adv-x="1731" d="M1543 0h-53v908h-584v-709q0 -46 12 -78.5t32 -53.5t47.5 -30.5t58.5 -9.5q40 0 69.5 12t50 26t33.5 26t19 12q5 0 7 -2l4 -4l13 -19q-33 -42 -88 -68t-115 -26q-92 0 -144 50.5t-52 162.5v711h-572v-709q0 -46 12 -78.5t32 -53.5t47.5 -30.5t59.5 -9.5q39 0 68.5 12 t50.5 26t34 26t19 12q5 0 11 -6l13 -19q-17 -21 -39.5 -38t-49.5 -29.5t-56 -19.5t-59 -7q-92 0 -144 50.5t-52 162.5v711h-154q-19 0 -19 15v18l174 8l14 379q1 6 5 11.5t11 5.5h22v-397h573l14 380q1 6 5 11.5t11 5.5h22v-397h637v-948zM1636 1257q47 0 70 30.5t25 78.5 h33q0 -31 -8 -58t-23.5 -47t-39.5 -31.5t-56 -11.5q-33 0 -61.5 17.5t-55 38t-53 38t-54.5 17.5q-45 0 -69 -31.5t-26 -77.5h-35q0 31 8.5 58t25 47t40.5 32t55 12q33 0 62 -17.5t55.5 -38.5t52.5 -38.5t54 -17.5z" />
<glyph unicode="tt&#x12d;" horiz-adv-x="1735" d="M1547 0h-53v908h-584v-709q0 -46 12 -78.5t32 -53.5t47.5 -30.5t58.5 -9.5q40 0 69.5 12t50 26t33.5 26t19 12q5 0 7 -2l4 -4l13 -19q-33 -42 -88 -68t-115 -26q-92 0 -144 50.5t-52 162.5v711h-572v-709q0 -46 12 -78.5t32 -53.5t47.5 -30.5t59.5 -9.5q39 0 68.5 12 t50.5 26t34 26t19 12q5 0 11 -6l13 -19q-17 -21 -39.5 -38t-49.5 -29.5t-56 -19.5t-59 -7q-92 0 -144 50.5t-52 162.5v711h-154q-19 0 -19 15v18l174 8l14 379q1 6 5 11.5t11 5.5h22v-397h573l14 380q1 6 5 11.5t11 5.5h22v-397h637v-948zM1523 1171q-60 0 -102 18.5t-69 51 t-39 75t-12 90.5h40q0 -39 9.5 -75t31 -63t56 -43.5t85.5 -16.5t85.5 16.5t56 43.5t31 63t9.5 75h40q0 -48 -12 -90.5t-39 -75t-69 -51t-102 -18.5z" />
<glyph unicode="tt&#x1d0;" horiz-adv-x="1735" d="M1547 0h-53v908h-584v-709q0 -46 12 -78.5t32 -53.5t47.5 -30.5t58.5 -9.5q40 0 69.5 12t50 26t33.5 26t19 12q5 0 7 -2l4 -4l13 -19q-33 -42 -88 -68t-115 -26q-92 0 -144 50.5t-52 162.5v711h-572v-709q0 -46 12 -78.5t32 -53.5t47.5 -30.5t59.5 -9.5q39 0 68.5 12 t50.5 26t34 26t19 12q5 0 11 -6l13 -19q-17 -21 -39.5 -38t-49.5 -29.5t-56 -19.5t-59 -7q-92 0 -144 50.5t-52 162.5v711h-154q-19 0 -19 15v18l174 8l14 379q1 6 5 11.5t11 5.5h22v-397h573l14 380q1 6 5 11.5t11 5.5h22v-397h637v-948zM1759 1406l-214 -236h-44l-214 236 h38q5 0 10.5 -3t9.5 -6l170 -185q6 -6 8 -9q2 2 4 4.5t4 4.5l171 185q9 9 20 9h37z" />
<glyph unicode="tt&#x1e2d;" horiz-adv-x="1731" d="M1543 0h-53v908h-584v-709q0 -46 12 -78.5t32 -53.5t47.5 -30.5t58.5 -9.5q40 0 69.5 12t50 26t33.5 26t19 12q5 0 7 -2l4 -4l13 -19q-33 -42 -88 -68t-115 -26q-92 0 -144 50.5t-52 162.5v711h-572v-709q0 -46 12 -78.5t32 -53.5t47.5 -30.5t59.5 -9.5q39 0 68.5 12 t50.5 26t34 26t19 12q5 0 11 -6l13 -19q-17 -21 -39.5 -38t-49.5 -29.5t-56 -19.5t-59 -7q-92 0 -144 50.5t-52 162.5v711h-154q-19 0 -19 15v18l174 8l14 379q1 6 5 11.5t11 5.5h22v-397h573l14 380q1 6 5 11.5t11 5.5h22v-397h637v-948zM1627 -229q47 0 70 30.5t25 78.5 h33q0 -31 -8 -58t-23.5 -47t-39.5 -31.5t-56 -11.5q-33 0 -61.5 17.5t-55 38t-53 38t-54.5 17.5q-45 0 -69 -31.5t-26 -77.5h-35q0 31 8.5 58t25 47t40.5 32t55 12q33 0 62 -17.5t55.5 -38.5t52.5 -38.5t54 -17.5zM1588 1356q0 -13 -6 -25t-15.5 -21.5t-22 -15t-25.5 -5.5 q-14 0 -26.5 5.5t-22 15t-15 21.5t-5.5 25q0 28 20.5 48.5t48.5 20.5q13 0 25.5 -5.5t22 -15t15.5 -22t6 -26.5z" />
<glyph unicode="tt&#x1e2f;" horiz-adv-x="1731" d="M1543 0h-53v908h-584v-709q0 -46 12 -78.5t32 -53.5t47.5 -30.5t58.5 -9.5q40 0 69.5 12t50 26t33.5 26t19 12q5 0 7 -2l4 -4l13 -19q-33 -42 -88 -68t-115 -26q-92 0 -144 50.5t-52 162.5v711h-572v-709q0 -46 12 -78.5t32 -53.5t47.5 -30.5t59.5 -9.5q39 0 68.5 12 t50.5 26t34 26t19 12q5 0 11 -6l13 -19q-17 -21 -39.5 -38t-49.5 -29.5t-56 -19.5t-59 -7q-92 0 -144 50.5t-52 162.5v711h-154q-19 0 -19 15v18l174 8l14 379q1 6 5 11.5t11 5.5h22v-397h573l14 380q1 6 5 11.5t11 5.5h22v-397h637v-948zM1759 1720l-208 -251 q-9 -12 -24 -12h-32l162 237q10 15 19 20.5t29 5.5h54zM1417 1282q0 -26 -20.5 -45.5t-46.5 -19.5q-27 0 -46.5 19.5t-19.5 45.5q0 27 19.5 46.5t46.5 19.5q26 0 46.5 -19.5t20.5 -46.5zM1754 1282q0 -26 -20 -45.5t-46 -19.5q-27 0 -47 19.5t-20 45.5q0 27 20 46.5t47 19.5 q26 0 46 -19.5t20 -46.5z" />
<glyph unicode="tt&#x268;" horiz-adv-x="1768" d="M1523 1289q-14 0 -26.5 5.5t-22 15t-15 21.5t-5.5 25q0 28 20.5 48.5t48.5 20.5q13 0 25.5 -5.5t22 -15t15.5 -22t6 -26.5q0 -13 -6 -25t-15.5 -21.5t-22 -15t-25.5 -5.5zM1722 507h-175v-507h-53v507h-183v40h183v361h-584v-709q0 -46 12 -78.5t32 -53.5t47.5 -30.5 t58.5 -9.5q40 0 69.5 12t50 26t33.5 26t19 12q5 0 7 -2l4 -4l13 -19q-33 -42 -88 -68t-115 -26q-92 0 -144 50.5t-52 162.5v711h-572v-709q0 -46 12 -78.5t32 -53.5t47.5 -30.5t59.5 -9.5q39 0 68.5 12t50.5 26t34 26t19 12q5 0 11 -6l13 -19q-17 -21 -39.5 -38t-49.5 -29.5 t-56 -19.5t-59 -7q-92 0 -144 50.5t-52 162.5v711h-154q-19 0 -19 15v18l174 8l14 379q1 6 5 11.5t11 5.5h22v-397h573l14 380q1 6 5 11.5t11 5.5h22v-397h637v-401h175v-40z" />
<glyph unicode="tt&#x20b;" horiz-adv-x="1735" d="M1547 0h-53v908h-584v-709q0 -46 12 -78.5t32 -53.5t47.5 -30.5t58.5 -9.5q40 0 69.5 12t50 26t33.5 26t19 12q5 0 7 -2l4 -4l13 -19q-33 -42 -88 -68t-115 -26q-92 0 -144 50.5t-52 162.5v711h-572v-709q0 -46 12 -78.5t32 -53.5t47.5 -30.5t59.5 -9.5q39 0 68.5 12 t50.5 26t34 26t19 12q5 0 11 -6l13 -19q-17 -21 -39.5 -38t-49.5 -29.5t-56 -19.5t-59 -7q-92 0 -144 50.5t-52 162.5v711h-154q-19 0 -19 15v18l174 8l14 379q1 6 5 11.5t11 5.5h22v-397h573l14 380q1 6 5 11.5t11 5.5h22v-397h637v-948zM1523 1421q60 0 102 -18.5t69 -51 t39 -75t12 -90.5h-40q0 39 -9.5 74.5t-31 63t-56 43.5t-85.5 16t-85.5 -16t-56 -43.5t-31 -63t-9.5 -74.5h-40q0 48 12 90.5t39 75t69 51t102 18.5z" />
<glyph unicode="tt&#x209;" horiz-adv-x="1735" d="M1547 0h-53v908h-584v-709q0 -46 12 -78.5t32 -53.5t47.5 -30.5t58.5 -9.5q40 0 69.5 12t50 26t33.5 26t19 12q5 0 7 -2l4 -4l13 -19q-33 -42 -88 -68t-115 -26q-92 0 -144 50.5t-52 162.5v711h-572v-709q0 -46 12 -78.5t32 -53.5t47.5 -30.5t59.5 -9.5q39 0 68.5 12 t50.5 26t34 26t19 12q5 0 11 -6l13 -19q-17 -21 -39.5 -38t-49.5 -29.5t-56 -19.5t-59 -7q-92 0 -144 50.5t-52 162.5v711h-154q-19 0 -19 15v18l174 8l14 379q1 6 5 11.5t11 5.5h22v-397h573l14 380q1 6 5 11.5t11 5.5h22v-397h637v-948zM1476 1422q20 0 29.5 -5.5 t19.5 -20.5l159 -237h-25q-16 0 -24 12l-199 251h40zM1231 1422q20 0 29 -5.5t20 -20.5l183 -237h-27q-16 0 -24 12l-226 251h45z" />
<glyph />
<glyph />
<glyph unicode=" "  horiz-adv-x="559" />
<glyph unicode="&#x09;" horiz-adv-x="559" />
<glyph unicode="&#xa0;" horiz-adv-x="559" />
<glyph unicode="!" horiz-adv-x="494" d="M275 1406v-572q0 -44 -0.5 -83t-1.5 -80t-3 -87t-4 -104h-36q-2 58 -4 104t-3 87t-1.5 80t-0.5 83v572h54zM169 59q0 32 21.5 54.5t53.5 22.5t54.5 -22.5t22.5 -54.5t-22.5 -53.5t-54.5 -21.5t-53.5 21.5t-21.5 53.5z" />
<glyph unicode="&#x22;" horiz-adv-x="651" d="M214 1406v-293l-5 -153q-2 -19 -18 -19t-18 19l-4 153v293h45zM483 1406v-293l-5 -153q-2 -19 -18 -19t-18 19l-4 153v293h45z" />
<glyph unicode="#" horiz-adv-x="1160" d="M784 914h-325l-91 -422h324zM1065 953l-3 -19q-2 -20 -26 -20h-207l-92 -422h249q23 0 20 -23l-1 -16h-274l-99 -453h-19q-11 0 -17.5 6.5t-2.5 20.5l93 426h-324l-93 -427q-3 -14 -10.5 -20t-18.5 -6h-22l99 453h-202q-10 0 -16 5.5t-4 18.5l1 15h227l91 422h-265l2 19 q2 20 26 20h243l93 428q4 25 30 25h21l-99 -453h325l98 453h23q11 0 16 -7.5t1 -21.5l-93 -424h230z" />
<glyph unicode="$" horiz-adv-x="1160" d="M582 29q87 4 155.5 34t116 79t72 113.5t24.5 137.5q0 76 -28.5 127t-76 85.5t-109 57.5t-126.5 44zM600 1376q-81 -3 -142.5 -28.5t-103.5 -67t-63 -95.5t-21 -112q0 -70 25 -118.5t67 -82.5t97.5 -58t115.5 -44zM612 758q71 -23 140.5 -48t124 -64t88.5 -97.5t34 -146.5 q0 -85 -28 -159.5t-81.5 -131t-131.5 -90t-178 -37.5l-9 -229q0 -22 -19 -22h-20l10 251q-67 1 -122.5 14.5t-102.5 37t-87 56.5t-76 75l13 18q5 5 8.5 7.5t10.5 2.5t19.5 -12t31.5 -30t46.5 -39t65 -40t85.5 -32t110 -14l29 691q-67 21 -130 46.5t-112.5 64.5t-79.5 96.5 t-30 143.5q0 67 25 129.5t73.5 110.5t119.5 78t163 32l7 180q0 22 19 22h20l-8 -202q99 -5 174.5 -39.5t140.5 -102.5l-11 -17q-6 -10 -16 -10q-11 0 -29.5 18.5t-52 41t-84 42.5t-124.5 23z" />
<glyph unicode="%" horiz-adv-x="1537" d="M680 1068q0 -89 -23 -155t-62 -109.5t-91 -65t-110 -21.5q-60 0 -112 21.5t-91 65t-61.5 109.5t-22.5 155q0 90 22.5 156.5t61.5 110.5t91 65.5t112 21.5q59 0 111 -21.5t91 -65.5t61.5 -110.5t22.5 -156.5zM637 1068q0 83 -19.5 143t-52.5 98.5t-77.5 57t-93.5 18.5 q-50 0 -94.5 -18.5t-77.5 -57t-52.5 -98.5t-19.5 -143t19.5 -142.5t52.5 -97.5t77.5 -56t94.5 -18q49 0 93.5 18t77.5 56t52.5 97.5t19.5 142.5zM1234 1394q5 6 10 9t14 3h35l-999 -1394q-8 -12 -23 -12h-36zM1430 335q0 -89 -23 -155t-62.5 -109.5t-91.5 -65t-110 -21.5 q-59 0 -111.5 21.5t-91.5 65t-61.5 109.5t-22.5 155q0 90 22.5 156.5t61.5 110t91.5 65t111.5 21.5t111 -21.5t91 -65t62 -110t23 -156.5zM1387 335q0 83 -19.5 143t-52.5 98.5t-77.5 57t-94.5 18.5t-94 -18.5t-77 -57t-52.5 -98.5t-19.5 -143t19.5 -142.5t52.5 -98 t77 -56.5t94 -18t94.5 18t77.5 56.5t52.5 98t19.5 142.5z" />
<glyph unicode="&#x26;" horiz-adv-x="1383" d="M498 753q-73 -26 -133 -67t-103.5 -93t-67.5 -112.5t-24 -126.5q0 -83 32.5 -144.5t83.5 -102t112.5 -60.5t119.5 -20q79 0 148 19t128 53t107.5 79t87.5 98l-471 457zM1343 0h-45q-13 0 -21 2t-19 13l-238 231q-43 -55 -96.5 -103t-117.5 -83t-137.5 -55.5t-156.5 -20.5 q-73 0 -143.5 24t-126.5 70.5t-90.5 115t-34.5 157.5q0 74 27 141t75 122.5t112.5 98t139.5 68.5q-79 83 -118 159t-39 168q0 68 25 125.5t70 99.5t108 65.5t140 23.5q62 0 118.5 -22t100 -59.5t69.5 -86.5t27 -104l-25 -4q-7 -1 -13.5 3.5t-9.5 15.5q-3 27 -20.5 64 t-50 70.5t-81.5 57t-115 23.5q-65 0 -119 -20t-92.5 -56t-60 -86t-21.5 -110q0 -89 46.5 -170t141.5 -172l465 -450q48 75 76 154.5t36 152.5q2 10 5.5 15t13.5 5h27q-2 -81 -34.5 -175t-92.5 -183z" />
<glyph unicode="'" horiz-adv-x="382" d="M214 1406v-293l-5 -153q-2 -19 -18 -19t-18 19l-4 153v293h45z" />
<glyph unicode="(" horiz-adv-x="507" d="M168 631q0 -230 63 -437.5t191 -402.5q7 -11 5 -17.5t-7 -9.5l-23 -14q-78 118 -130.5 228t-85 217t-46.5 214.5t-14 221.5t14 221.5t46.5 215t85 217t130.5 228.5l23 -14q5 -3 7 -9.5t-5 -17.5q-127 -195 -190.5 -403.5t-63.5 -437.5z" />
<glyph unicode=")" horiz-adv-x="507" d="M340 631q0 229 -64 437.5t-191 403.5q-7 11 -5 17.5t7 9.5l23 14q78 -119 130.5 -228.5t85 -217t46.5 -215t14 -221.5t-14 -221.5t-46.5 -214.5t-85 -217t-130.5 -228l-23 14q-5 3 -7 9.5t5 17.5q128 195 191.5 402.5t63.5 437.5z" />
<glyph unicode="*" horiz-adv-x="850" d="M687 1068l-16 -29l-198 115q-13 8 -20 13t-21 21q4 -18 6 -27.5t2 -23.5v-223h-32v223q0 14 2.5 24t7.5 26h-1q-12 -14 -20 -19.5t-20 -13.5l-196 -114l-16 28l196 115q12 8 22 10t27 6v1q-18 5 -27.5 7.5t-21.5 10.5l-198 115l16 28l198 -114q6 -4 10.5 -7.5t9 -7.5 t9 -9t12.5 -12q-5 18 -7.5 28.5t-2.5 24.5v222h32v-222q0 -14 -1.5 -24.5t-6.5 -28.5q12 14 20 21t21 15l196 114l16 -28l-196 -115q-12 -8 -22 -12t-28 -7l28.5 -6t21.5 -10z" />
<glyph unicode="+" horiz-adv-x="1160" d="M1045 650h-444v-465h-43v465h-442v41h442v462h43v-462h444v-41z" />
<glyph unicode="," horiz-adv-x="430" d="M151 -236q-5 5 -5 11q0 3 5 10q8 10 24.5 30.5t33 49t29.5 64t16 75.5q-17 -11 -41 -11q-29 0 -48 20t-19 52q0 29 19.5 50t51.5 21q33 0 53 -23.5t20 -65.5q0 -80 -36 -156.5t-95 -134.5z" />
<glyph unicode="-" horiz-adv-x="739" d="M144 612h450v-44h-450v44z" />
<glyph unicode="&#xad;" horiz-adv-x="739" d="M144 612h450v-44h-450v44z" />
<glyph unicode="." horiz-adv-x="465" d="M157 59q0 32 21.5 54.5t53.5 22.5t54.5 -22.5t22.5 -54.5t-22.5 -53.5t-54.5 -21.5t-53.5 21.5t-21.5 53.5z" />
<glyph unicode="/" horiz-adv-x="852" d="M138 -58q-5 -12 -15 -17t-21 -5h-20l632 1504q11 22 34 22h22z" />
<glyph unicode="0" horiz-adv-x="1160" d="M1080 703q0 -185 -39.5 -320t-107.5 -223t-159 -131t-194 -43t-194 43t-159 131t-107.5 223t-39.5 320q0 184 39.5 319.5t107.5 224.5t159 132t194 43t194 -43t159 -132t107.5 -224.5t39.5 -319.5zM1025 703q0 177 -35.5 304.5t-96.5 210t-142 121.5t-171 39 q-91 0 -172 -39t-142 -121.5t-97 -210t-36 -304.5t36 -304.5t97 -209t142 -120.5t172 -39q90 0 171 39t142 120.5t96.5 209t35.5 304.5z" />
<glyph unicode="1" horiz-adv-x="1160" d="M986 41v-41h-709v41h334v1238q0 15 1 31t3 32l-343 -308q-8 -8 -17 -6.5t-15 8.5l-15 20l400 357h38v-1372h323z" />
<glyph unicode="2" horiz-adv-x="1160" d="M998 49q19 0 19 -19v-30h-890v19q0 8 3.5 14.5t8.5 11.5l496 502q61 62 114 121t93 119.5t63 124.5t23 137q0 86 -29 148t-77 102.5t-109.5 59.5t-127.5 19q-74 0 -135.5 -22.5t-109 -63t-78 -97t-42.5 -124.5q-7 -26 -30 -23l-25 3q12 87 47.5 155.5t90.5 116.5 t127 73.5t157 25.5q76 0 147 -22t126 -67.5t88 -116t33 -166.5q0 -80 -25 -149t-67.5 -132t-98.5 -123t-118 -122l-474 -484q26 4 56.5 6.5t64.5 2.5h679z" />
<glyph unicode="3" horiz-adv-x="1160" d="M170 1051q12 87 47.5 155.5t90.5 116.5t127 73.5t157 25.5q76 0 145.5 -21t123 -64.5t85.5 -110t32 -157.5q0 -69 -24 -126t-65 -100.5t-95.5 -72t-114.5 -41.5q82 -11 145 -41t106 -75.5t64.5 -105t21.5 -129.5q0 -81 -33.5 -153t-92.5 -125.5t-140 -84.5t-177 -31 q-83 0 -146 16t-110 43t-79.5 63t-55 75.5t-36.5 80.5t-23 78l17 8q8 3 20 1.5t18 -18.5q3 -8 10.5 -34t23 -59.5t42.5 -70.5t70 -68t103.5 -51t144.5 -20q98 0 171.5 32.5t122.5 83.5t73.5 113t24.5 120q0 69 -23.5 128.5t-75 103.5t-133 69t-198.5 26v37q92 3 165 27 t123.5 66.5t77 100.5t26.5 128q0 82 -28 142t-74.5 98t-107 56.5t-126.5 18.5q-74 0 -136 -22.5t-109.5 -63t-78.5 -97t-43 -124.5q-4 -14 -10 -19.5t-18 -3.5z" />
<glyph unicode="4" horiz-adv-x="1160" d="M764 464v819q0 13 1 26t3 27l-659 -872h655zM1092 464v-25q0 -17 -20 -17h-261v-422h-47v422h-685q-12 0 -17 4t-7 11l-5 24l719 947h42v-944h281z" />
<glyph unicode="5" horiz-adv-x="1160" d="M282 835q72 19 136.5 27.5t122.5 8.5q109 0 192.5 -31t139 -86.5t84 -132t28.5 -168.5q0 -111 -38 -198t-103.5 -147.5t-151.5 -92t-182 -31.5q-56 0 -107 9.5t-96 25.5t-82.5 36.5t-65.5 41.5l15 20q6 10 19 10q10 0 34 -15t63.5 -32.5t94.5 -32.5t127 -15 q87 0 163 27.5t133 81t90 132t33 180.5q0 82 -24 150.5t-72.5 118.5t-123.5 78t-177 28q-117 0 -270 -39l-35 12l107 605h615v-22q0 -11 -7.5 -18.5t-23.5 -7.5h-544z" />
<glyph unicode="6" horiz-adv-x="1160" d="M579 28q94 0 168.5 28.5t126.5 79.5t79.5 121t27.5 153q0 87 -27.5 157t-77 119t-118 75.5t-151.5 26.5q-96 0 -171.5 -33.5t-127.5 -86.5t-79 -118.5t-27 -130.5q0 -85 26.5 -156.5t76 -123.5t119 -81.5t155.5 -29.5zM385 847q-42 -57 -74 -104.5t-55 -92.5q29 42 68 75 t85.5 56t98.5 35.5t108 12.5q94 0 171 -30.5t132 -85.5t85 -131.5t30 -168.5q0 -95 -33.5 -174t-94 -135.5t-144 -88t-183.5 -31.5q-95 0 -173.5 30.5t-135 88.5t-88 142.5t-31.5 192.5q0 78 42.5 181.5t139.5 236.5l398 537q9 13 28 13h45z" />
<glyph unicode="7" horiz-adv-x="1160" d="M1060 1406v-24q0 -9 -2.5 -16.5t-5.5 -12.5l-677 -1332q-10 -21 -36 -21h-33l680 1330q5 8 9 15t9 13h-851q-18 0 -18 18v30h925z" />
<glyph unicode="8" horiz-adv-x="1160" d="M580 26q87 0 159.5 24t124.5 68t81 107t29 140q0 68 -18 120.5t-48.5 91t-70.5 64.5t-83.5 41.5t-88.5 22t-85 6.5t-85 -6.5t-88.5 -22t-83.5 -41.5t-70.5 -64.5t-48.5 -91t-18 -120.5q0 -77 29 -140t81 -107t124.5 -68t159.5 -24zM235 1068q0 -61 21 -118t64 -100.5 t108 -69.5t152 -26t152 26t108 69.5t64 100.5t21 118q0 67 -23.5 124t-68 99t-108.5 65.5t-145 23.5t-145 -23.5t-108.5 -65.5t-68 -99t-23.5 -124zM700 734q68 -13 128 -41t104.5 -73t70 -108.5t25.5 -147.5q0 -88 -33 -158.5t-92.5 -119.5t-141.5 -75.5t-181 -26.5 t-181 26.5t-141.5 75.5t-92.5 119.5t-33 158.5q0 84 25.5 147.5t70 108.5t104.5 73t128 41q-66 16 -117.5 47t-87 74.5t-53.5 97.5t-18 116q0 73 27 137.5t78 112.5t124.5 75.5t166.5 27.5t166.5 -27.5t124.5 -75.5t78 -112.5t27 -137.5q0 -62 -18 -116t-53.5 -97.5 t-87 -74.5t-117.5 -47z" />
<glyph unicode="9" horiz-adv-x="1160" d="M556 651q93 0 165 32t121.5 82.5t75.5 113t26 124.5q0 82 -27 151t-75.5 118.5t-114.5 77.5t-144 28q-85 0 -156 -26.5t-122 -75t-79 -116t-28 -148.5q0 -84 26 -150.5t73 -113.5t113 -72t146 -25zM773 591q38 56 69.5 101.5t54.5 90.5q-29 -41 -67 -73t-83.5 -54.5 t-96 -34.5t-103.5 -12q-90 0 -164.5 29.5t-127 82.5t-81.5 126.5t-29 162.5t33.5 164.5t92 130.5t138.5 86t174 31q89 0 164.5 -31t130.5 -88t86 -137t31 -178q0 -51 -12 -98.5t-34.5 -96t-55 -101t-74.5 -113.5l-382 -566q-9 -13 -27 -13h-47z" />
<glyph unicode=":" horiz-adv-x="471" d="M160 59q0 32 21.5 54.5t53.5 22.5t54.5 -22.5t22.5 -54.5t-22.5 -53.5t-54.5 -21.5t-53.5 21.5t-21.5 53.5zM160 881q0 32 21.5 54.5t53.5 22.5t54.5 -22.5t22.5 -54.5t-22.5 -53.5t-54.5 -21.5t-53.5 21.5t-21.5 53.5z" />
<glyph unicode=";" horiz-adv-x="490" d="M179 -236q-5 5 -5 11q0 3 5 10q8 10 24.5 30.5t33 49t29.5 64t16 75.5q-17 -11 -41 -11q-29 0 -48 20t-19 52q0 29 19.5 50t51.5 21q33 0 53 -23.5t20 -65.5q0 -80 -36 -156.5t-95 -134.5zM170 881q0 32 21.5 54.5t53.5 22.5t54.5 -22.5t22.5 -54.5t-22.5 -53.5 t-54.5 -21.5t-53.5 21.5t-21.5 53.5z" />
<glyph unicode="&#x3c;" horiz-adv-x="1160" d="M289 693q-29 -15 -60 -22q33 -8 60 -23l608 -308q22 -11 22 -26v-33l-738 378v23l738 378v-33q0 -15 -22 -27z" />
<glyph unicode="=" horiz-adv-x="1160" d="M174 546h811v-41h-811v41zM174 848h811v-41h-811v41z" />
<glyph unicode="&#x3e;" horiz-adv-x="1160" d="M979 682v-23l-738 -378v33q0 15 22 26l608 308q14 7 28.5 12.5t31.5 9.5q-31 7 -60 23l-608 307q-22 12 -22 27v33z" />
<glyph unicode="?" horiz-adv-x="848" d="M101 1285q25 26 56.5 50.5t70.5 44t85 31t100 11.5q65 0 124.5 -20t105 -57.5t72.5 -91.5t27 -122q0 -57 -14 -102t-37 -81t-52.5 -65t-60.5 -53.5t-61 -45.5t-54 -42.5t-39 -43.5t-16 -49l-8 -169h-35l-3 173q-1 40 23 71t61 60t79.5 60t79.5 70.5t61.5 91.5t24.5 123 q0 59 -23.5 105.5t-62.5 78.5t-89.5 49t-105.5 17q-69 0 -119.5 -19t-85 -42t-53.5 -42t-24 -19q-9 0 -14 7zM307 59q0 32 21.5 54.5t53.5 22.5t54.5 -22.5t22.5 -54.5t-22.5 -53.5t-54.5 -21.5t-53.5 21.5t-21.5 53.5z" />
<glyph unicode="@" horiz-adv-x="1649" d="M1103 858q-28 8 -55 12t-67 4q-98 0 -177 -39.5t-134.5 -102t-85 -140.5t-29.5 -156q0 -42 10.5 -79t32.5 -64.5t54.5 -43.5t76.5 -16q39 0 80.5 13t80.5 47.5t72.5 94t57.5 151.5zM1064 539q-26 -100 -24.5 -161.5t21 -95t52.5 -45t69 -11.5q61 0 117.5 31t99.5 89 t68.5 140.5t25.5 186.5q0 154 -51 268t-137 189t-200 111.5t-240 36.5q-92 0 -179.5 -24.5t-164.5 -70t-141.5 -111.5t-110.5 -148t-72 -179t-26 -206q0 -180 58 -317.5t157 -230.5t231 -140.5t280 -47.5q290 0 505 141q9 6 16 4t10 -10l10 -21q-113 -75 -247 -114.5 t-294 -39.5t-300 51t-244.5 149.5t-164.5 243t-60 332.5q0 112 26.5 213.5t75 188t116 156t149.5 118t175.5 75t194.5 26.5q87 0 171 -18t158.5 -53.5t137 -89t107.5 -125t70.5 -161t25.5 -196.5q0 -109 -28.5 -198.5t-77 -153t-114 -98t-139.5 -34.5q-96 0 -136.5 55 t-35.5 150q-54 -104 -126 -151.5t-159 -47.5q-54 0 -93.5 18.5t-65.5 51t-38.5 76.5t-12.5 95q0 85 32.5 170t94 153t150 110.5t200.5 42.5q46 0 90 -8t77 -24z" />
<glyph unicode="A" horiz-adv-x="1289" d="M987 504l-322 783q-11 27 -21 60q-9 -33 -21 -60l-322 -783h686zM1253 0h-43q-15 0 -22 17l-183 445h-722l-183 -445q-5 -17 -23 -17h-41l582 1406h53z" />
<glyph unicode="B" horiz-adv-x="1249" d="M657 45q197 0 302.5 84.5t105.5 246.5q0 73 -28.5 131t-81 99t-128 63t-169.5 22h-380v-646h379zM278 1362v-629h333q106 0 180.5 28.5t122 74t69 102t21.5 111.5q0 151 -98.5 232t-301.5 81h-326zM604 1406q230 0 342 -92t112 -261q0 -59 -22 -113.5t-61.5 -99.5 t-96 -77t-125.5 -45q86 -9 154 -36.5t115.5 -71t72.5 -103t25 -132.5q0 -90 -31 -159.5t-90.5 -117.5t-145.5 -73t-196 -25h-434v1406h381z" />
<glyph unicode="C" horiz-adv-x="1360" d="M1252 209q4 0 11 -5l21 -22q-44 -44 -95 -80.5t-112 -62.5t-133.5 -40.5t-159.5 -14.5q-143 0 -263.5 50.5t-207.5 144t-136 226.5t-49 298q0 161 49 293.5t138.5 227t214 146.5t274.5 52q141 0 250 -43t203 -124l-15 -22q-4 -7 -16 -7q-6 0 -20.5 11t-38 27.5t-57 36 t-78.5 36t-102 27.5t-126 11q-136 0 -250 -47t-196 -134t-127.5 -211.5t-45.5 -279.5q0 -158 45.5 -282.5t126.5 -211t191 -132.5t239 -46q81 0 145 11t117.5 33t99 54t90.5 73q7 7 13 7z" />
<glyph unicode="D" horiz-adv-x="1519" d="M1388 703q0 -165 -48 -295.5t-135 -221t-208 -138.5t-267 -48h-507v1406h507q146 0 267 -48t208 -138.5t135 -221t48 -295.5zM1330 703q0 157 -43.5 279.5t-123 206.5t-190 128t-243.5 44h-452v-1316h452q133 0 243.5 44t190 128t123 206.5t43.5 279.5z" />
<glyph unicode="E" horiz-adv-x="1163" d="M1055 47l-2 -47h-830v1406h830v-47h-775v-623h653v-46h-653v-643h777z" />
<glyph unicode="F" horiz-adv-x="1128" d="M278 1359v-644h675v-47h-675v-668h-55v1406h830v-47h-775z" />
<glyph unicode="G" horiz-adv-x="1476" d="M1336 618v-480q-104 -71 -224 -112.5t-271 -41.5q-165 0 -297 50.5t-224.5 144t-141.5 226.5t-49 298t48.5 297.5t139.5 226.5t220 144.5t290 50.5q79 0 145.5 -10t123.5 -30.5t107.5 -51.5t97.5 -72l-14 -21q-8 -12 -23 -8q-10 3 -36.5 26t-77.5 49.5t-130.5 48.5 t-193.5 22q-147 0 -265.5 -46t-202 -133t-128.5 -211.5t-45 -281.5q0 -156 45 -281t129.5 -212.5t206 -134t274.5 -46.5q69 0 128.5 9t112.5 26t103 41.5t101 55.5v413h-297q-7 0 -12 5t-5 11v28h365z" />
<glyph unicode="H" horiz-adv-x="1502" d="M1279 1406v-1406h-56v691h-945v-691h-55v1406h55v-671h945v671h56z" />
<glyph unicode="I" horiz-adv-x="501" d="M278 0h-55v1406h55v-1406z" />
<glyph unicode="J" horiz-adv-x="821" d="M613 460q0 -118 -29 -207t-82.5 -149t-129 -90t-167.5 -30q-85 0 -178 30q1 6 2 12.5t2 13.5q2 5 4.5 10t13.5 5q9 0 22 -4t31 -8.5t42 -8.5t57 -4q82 0 148 26.5t112 80t71 134t25 188.5v947h56v-946z" />
<glyph unicode="K" horiz-adv-x="1241" d="M278 739h90q19 0 32.5 1t25 5t21 11t20.5 18l620 611q12 12 22.5 16.5t24.5 4.5h40l-655 -645q-18 -17 -30.5 -26t-30.5 -14q19 -5 33 -14t29 -26l694 -681h-40q-19 0 -28 4.5t-17 14.5l-652 635q-11 11 -20 18.5t-20 12.5t-26.5 7.5t-39.5 2.5h-93v-695h-55v1406h55 v-667z" />
<glyph unicode="L" horiz-adv-x="1005" d="M975 48v-48h-752v1406h55v-1358h697z" />
<glyph unicode="M" horiz-adv-x="1796" d="M1573 1406v-1406h-48v1286q0 8 0.5 16t0.5 16l-590 -1035q-10 -17 -24 -17h-10q-15 0 -25 17l-608 1037q1 -9 1.5 -17.5t0.5 -16.5v-1286h-48v1406h33q8 0 13.5 -2.5t10.5 -10.5l610 -1036q9 -19 17 -37q4 9 8 18.5t9 19.5l592 1035q5 8 10.5 10.5t13.5 2.5h33z" />
<glyph unicode="N" horiz-adv-x="1502" d="M1279 1406v-1406h-23q-13 0 -22 12l-965 1304q1 -9 1.5 -18.5t0.5 -17.5v-1280h-48v1406h25q8 0 13 -2.5t11 -10.5l961 -1299q-1 9 -1.5 18t-0.5 17v1277h48z" />
<glyph unicode="O" horiz-adv-x="1574" d="M1445 703q0 -165 -48 -297.5t-135 -226t-208 -143.5t-268 -50q-145 0 -266 50t-208 143.5t-135 226t-48 297.5q0 164 48 297t135 226.5t208 144.5t266 51q147 0 268 -50.5t208 -144t135 -226.5t48 -298zM1387 703q0 157 -43.5 281.5t-123 211.5t-190 133t-244.5 46 q-132 0 -242.5 -46t-190 -133t-124 -211.5t-44.5 -281.5t44.5 -281.5t124 -210.5t190 -132t242.5 -46q134 0 244.5 46t190 132t123 210.5t43.5 281.5z" />
<glyph unicode="P" horiz-adv-x="1133" d="M559 633q99 0 178.5 28t135 77t85.5 116t30 144q0 178 -107 271t-322 93h-281v-729h281zM559 1406q238 0 361.5 -102t123.5 -306q0 -89 -34.5 -164.5t-98.5 -130t-153.5 -85t-198.5 -30.5h-281v-588h-55v1406h336z" />
<glyph unicode="Q" horiz-adv-x="1574" d="M185 703q0 -157 44.5 -281.5t124 -210.5t190 -132t242.5 -46q134 0 244.5 46t190 132t123 210.5t43.5 281.5t-43.5 281.5t-123 211.5t-190 133t-244.5 46q-132 0 -242.5 -46t-190 -133t-124 -211.5t-44.5 -281.5zM1498 -320h-47q-24 0 -38 14l-331 355q-66 -31 -140 -47 t-156 -16q-145 0 -266 50t-208 143.5t-135 226t-48 297.5q0 164 48 297t135 226.5t208 144.5t266 51q147 0 268 -50.5t208 -144t135 -226.5t48 -298q0 -110 -22 -206.5t-63 -176t-99.5 -142t-132.5 -105.5z" />
<glyph unicode="R" horiz-adv-x="1194" d="M278 704h268q99 0 178.5 23.5t135 68t85 107.5t29.5 142q0 163 -106 240t-306 77h-284v-658zM1156 0h-45q-11 0 -19.5 3t-16.5 14l-496 607q-8 11 -16.5 18t-19 11.5t-25 6.5t-35.5 2h-205v-662h-55v1406h339q229 0 348 -89t119 -270q0 -83 -31 -150.5t-87 -117t-136 -79 t-177 -35.5q18 -10 35 -30z" />
<glyph unicode="S" horiz-adv-x="1063" d="M887 1260q-6 -10 -17 -10t-30.5 19.5t-54.5 43.5t-90 43.5t-136 19.5q-82 0 -145.5 -24.5t-106.5 -66.5t-65 -96.5t-22 -114.5q0 -77 31 -128.5t82 -86.5t115.5 -59t132.5 -46.5t132.5 -48t115.5 -64.5t82 -96.5t31 -142.5q0 -87 -29.5 -163.5t-86 -133t-138 -89 t-185.5 -32.5q-71 0 -128.5 12.5t-106 36t-89 57.5t-77.5 77l13 20q5 5 8.5 7.5t10.5 2.5t19.5 -12.5t32.5 -31t48 -40t66.5 -40t89 -31t114.5 -12.5q91 0 163 28.5t121.5 78t75.5 115.5t26 141q0 80 -31 132t-81.5 87t-115.5 58.5t-132.5 45t-132.5 47t-115.5 65t-81.5 98 t-31 146.5q0 69 26 132t75.5 111.5t122 77.5t166.5 29q106 0 187.5 -34t152.5 -106z" />
<glyph unicode="T" horiz-adv-x="1146" d="M1117 1358h-515v-1358h-55v1358h-518v48h1088v-48z" />
<glyph unicode="U" horiz-adv-x="1446" d="M723 32q109 0 194.5 38.5t145 105.5t91 157.5t31.5 194.5v878h56v-878q0 -114 -36 -213.5t-103.5 -173.5t-163 -116.5t-215.5 -42.5t-216 42.5t-163 116.5t-103 173.5t-36 213.5v878h55v-876q0 -104 31.5 -195t91 -158.5t145.5 -106t195 -38.5z" />
<glyph unicode="V" horiz-adv-x="1289" d="M1253 1406l-584 -1406h-49l-584 1406h43q17 0 22 -17l522 -1259q6 -16 11.5 -32.5t10.5 -33.5q9 34 21 66l521 1259q5 17 24 17h42z" />
<glyph unicode="W" horiz-adv-x="2015" d="M1959 1406l-445 -1406h-49l-446 1298q-7 20 -11 40q-4 -20 -11 -40l-448 -1298h-48l-445 1406h45q17 0 22 -17l388 -1249q10 -34 17 -72q4 20 8.5 38t9.5 34l433 1249q5 17 24 17h13q17 0 22 -17l433 -1249q10 -31 18 -71q4 20 8 37.5t9 33.5l388 1249q5 17 24 17h41z " />
<glyph unicode="X" horiz-adv-x="1219" d="M1167 0h-54q-10 0 -15 6.5t-10 11.5l-479 677q-3 -12 -10 -20l-472 -657q-6 -6 -11.5 -12t-13.5 -6h-51l520 720l-497 686h54q10 0 14.5 -5.5t9.5 -10.5l459 -643q2 5 4.5 10.5t6.5 11.5l447 620q4 6 9.5 11.5t13.5 5.5h52l-495 -682z" />
<glyph unicode="Y" horiz-adv-x="1160" d="M608 591v-591h-56v591l-522 815h47q9 0 14 -3.5t10 -11.5l445 -698q10 -17 19 -33t15 -32q7 17 15.5 32.5t18.5 32.5l445 698q8 15 23 15h48z" />
<glyph unicode="Z" horiz-adv-x="1191" d="M1106 1390q0 -13 -10 -29l-944 -1314h950v-47h-1025v17q0 8 2 13.5t7 11.5l945 1317h-933v47h1008v-16z" />
<glyph unicode="[" horiz-adv-x="584" d="M259 1471v-1685h225q20 0 20 -19v-18h-291v1759h291v-18q0 -19 -20 -19h-225z" />
<glyph unicode="\" horiz-adv-x="852" d="M82 1446h22q24 0 33 -22l633 -1504h-20q-11 0 -21 5t-15 17z" />
<glyph unicode="]" horiz-adv-x="584" d="M371 -251h-291v18q0 19 20 19h226v1685h-226q-20 0 -20 19v18h291v-1759z" />
<glyph unicode="^" horiz-adv-x="1160" d="M966 725h-35q-8 0 -15 5t-11 13l-303 560q-7 14 -12.5 26t-9.5 26q-5 -14 -10 -26t-12 -26l-302 -560q-3 -6 -9 -12t-16 -6h-37l370 681h31z" />
<glyph unicode="_" horiz-adv-x="892" d="M840 -226v-40h-788v40h788z" />
<glyph unicode="`" horiz-adv-x="800" d="M279 1422q20 0 29.5 -5.5t19.5 -20.5l161 -237h-30q-16 0 -25 12l-208 251h53z" />
<glyph unicode="a" horiz-adv-x="955" d="M737 494q-302 -10 -446.5 -75t-144.5 -183q0 -55 18.5 -95t49 -66.5t69.5 -39t80 -12.5q64 0 117 14.5t98 39.5t84 59t75 72v286zM147 846q74 76 155 116t185 40q77 0 134 -24.5t94.5 -70.5t55.5 -111.5t18 -147.5v-648h-18q-20 0 -23 21l-10 146q-41 -42 -82 -76 t-87 -57.5t-99 -36.5t-117 -13q-47 0 -93 14t-83 44t-59.5 77.5t-22.5 114.5q0 65 37.5 118t116.5 91.5t200 61t288 26.5v117q0 148 -64 230t-190 82q-75 0 -129 -21.5t-90 -48t-57.5 -48t-32.5 -21.5q-10 0 -18 11z" />
<glyph unicode="b" horiz-adv-x="1093" d="M229 205q61 -97 137 -136.5t172 -39.5q98 0 170.5 35.5t120 99.5t71 154t23.5 200q0 219 -88.5 330.5t-249.5 111.5q-117 0 -203.5 -57t-152.5 -158v-540zM229 797q66 95 155.5 150t211.5 55q90 0 161 -32t120 -93.5t74.5 -151t25.5 -204.5q0 -120 -28 -218.5t-83 -168 t-135 -108t-184 -38.5q-211 0 -320 169l-5 -139q-1 -7 -4.5 -12.5t-13.5 -5.5h-28v1446h53v-649z" />
<glyph unicode="c" horiz-adv-x="937" d="M827 878q-3 -3 -6 -5.5t-8 -2.5q-8 0 -25 14t-47 31t-76 31t-111 14q-92 0 -163.5 -32.5t-121 -93.5t-75.5 -147t-26 -194q0 -111 26.5 -197.5t75 -145.5t117 -90t152.5 -31q76 0 127.5 17.5t85.5 39t52 39t26 17.5t13 -6l12 -15q-18 -25 -49.5 -49t-73 -42.5t-92 -30 t-107.5 -11.5q-95 0 -172 34t-131.5 99t-84.5 159t-30 213q0 114 29.5 208t85.5 160.5t137 103.5t185 37q92 0 164 -29.5t124 -77.5z" />
<glyph unicode="d" horiz-adv-x="1093" d="M864 787q-62 95 -137 134.5t-172 39.5t-169 -35.5t-120 -98.5t-72 -149t-24 -187q0 -235 88.5 -348t258.5 -113q104 0 192.5 57t154.5 158v542zM917 1446v-1446h-24q-20 0 -21 20l-6 176q-66 -97 -157.5 -152.5t-202.5 -55.5q-188 0 -289 124t-101 379q0 108 27.5 201 t82 162t135 108.5t186.5 39.5t183.5 -40.5t133.5 -121.5v606h53z" />
<glyph unicode="e" horiz-adv-x="1036" d="M885 588q0 89 -25.5 158.5t-70 117.5t-105.5 73t-132 25q-84 0 -150.5 -26.5t-114.5 -75.5t-77.5 -118t-38.5 -154h714zM907 121q-20 -25 -56 -49t-82.5 -42.5t-101 -30t-111.5 -11.5q-101 0 -182.5 35.5t-139 102.5t-88.5 164.5t-31 222.5q0 108 29.5 197.5t85.5 154.5 t137 101t184 36q80 0 149.5 -28t121.5 -82.5t81.5 -134.5t29.5 -183q0 -21 -18 -21h-747q-1 -10 -1 -19.5v-20.5q0 -118 28 -208t79 -151t123.5 -92.5t161.5 -31.5q79 0 137 17.5t97 38.5t60.5 38.5t27.5 17.5q8 0 13 -6z" />
<glyph unicode="f" horiz-adv-x="671" d="M231 0v907l-154 6q-19 2 -19 15v20h173v141q0 84 20.5 146.5t58 104t89.5 61.5t114 20q30 0 61 -5t54 -16l-3 -23q-1 -8 -7 -8.5t-19 2t-32.5 6t-47.5 3.5q-51 0 -94 -15.5t-74.5 -50.5t-49.5 -90.5t-18 -135.5v-140h338v-40h-337v-908h-53z" />
<glyph unicode="g" horiz-adv-x="1011" d="M487 411q69 0 123.5 20t92 56.5t57 87t19.5 112.5q0 61 -20 112t-57.5 87t-92 56t-122.5 20t-122 -20t-91.5 -56t-57.5 -87t-20 -112q0 -62 20 -112.5t57.5 -87t91.5 -56.5t122 -20zM886 -74q0 52 -26.5 84t-70 49.5t-100.5 24.5t-118.5 10l-123 6t-114.5 13 q-44 -16 -80.5 -37.5t-63 -48.5t-41.5 -60t-15 -72q0 -48 25 -90t72.5 -72.5t115.5 -48.5t154 -18q78 0 148 19t123 53.5t84 82.5t31 105zM949 940v-16q0 -8 -6 -13t-15 -6l-177 -7q37 -41 57 -94t20 -116q0 -71 -24.5 -129t-69 -99.5t-107.5 -64t-140 -22.5q-94 0 -166 33 q-47 -27 -75.5 -65.5t-28.5 -73.5q0 -47 31 -72t81 -37t114.5 -15.5t132 -6.5t132 -11t114.5 -29t81 -60t31 -104q0 -60 -30.5 -115.5t-87.5 -97.5t-137.5 -67.5t-179.5 -25.5q-101 0 -178.5 21t-130 57.5t-79 84.5t-26.5 102q0 81 55 140.5t150 91.5q-54 16 -86.5 47 t-32.5 88q0 20 8.5 42.5t24 44t37.5 41.5t50 35q-69 40 -107 108.5t-38 158.5q0 70 24 127.5t68.5 99t107.5 64.5t141 23q65 0 119.5 -16t96.5 -46h246z" />
<glyph unicode="h" horiz-adv-x="1092" d="M229 798q69 93 164 148.5t207 55.5q82 0 143.5 -25.5t102 -73t61 -116.5t20.5 -156v-631h-53v631q0 77 -17 138t-52.5 103.5t-88.5 65t-125 22.5q-108 0 -199.5 -56.5t-162.5 -156.5v-747h-53v1446h53v-648z" />
<glyph unicode="i" horiz-adv-x="428" d="M240 986v-986h-52v986h52zM283 1342q0 -14 -6 -26t-15.5 -21.5t-22 -15t-25.5 -5.5q-28 0 -48.5 20.5t-20.5 47.5q0 28 20.5 48.5t48.5 20.5q13 0 25.5 -5.5t22 -15t15.5 -22t6 -26.5z" />
<glyph unicode="j" horiz-adv-x="428" d="M240 986v-1140q0 -47 -14 -87t-41.5 -69t-67 -45.5t-90.5 -16.5q-28 0 -48.5 5.5t-40.5 15.5l5 25q3 8 8 8.5t14 -2.5t22.5 -7t33.5 -4q83 0 125 48t42 129v1140h52zM282 1342q0 -14 -6 -26t-15.5 -21.5t-22 -15t-25.5 -5.5q-28 0 -48.5 20.5t-20.5 47.5q0 28 20.5 48.5 t48.5 20.5q13 0 25.5 -5.5t22 -15t15.5 -22t6 -26.5z" />
<glyph unicode="k" horiz-adv-x="919" d="M229 1446v-897h46q11 0 23 3t27 17l439 397q9 10 18.5 15t24.5 5h44l-473 -427q-8 -8 -15.5 -13.5t-15.5 -10.5q14 -5 25 -13.5t21 -18.5l496 -503h-45q-10 0 -18.5 3t-16.5 13l-463 467q-17 17 -31 23t-44 6h-42v-512h-53v1446h53z" />
<glyph unicode="l" horiz-adv-x="426" d="M239 1446v-1446h-52v1446h52z" />
<glyph unicode="m" horiz-adv-x="1591" d="M176 0v986h25q19 0 20 -20l6 -166q58 92 136.5 147t173.5 55q113 0 179 -68t86 -191q15 66 46.5 114.5t73.5 81t92 48t103 15.5q71 0 128.5 -24.5t97.5 -71.5t61.5 -116t21.5 -159v-631h-53v631q0 160 -68.5 244.5t-195.5 84.5q-56 0 -107.5 -20.5t-91 -62t-63.5 -103 t-24 -143.5v-631h-53v631q0 157 -62 243t-182 86q-90 0 -165 -56t-132 -154v-750h-53z" />
<glyph unicode="n" horiz-adv-x="1092" d="M227 795q69 95 164.5 151t208.5 56q82 0 143.5 -25.5t102 -73t61 -116.5t20.5 -156v-631h-53v631q0 77 -17 138t-52.5 103.5t-88.5 65t-125 22.5q-108 0 -199.5 -56.5t-162.5 -156.5v-747h-53v986h25q19 0 20 -20z" />
<glyph unicode="o" horiz-adv-x="1107" d="M553 1002q105 0 186.5 -36.5t137.5 -103t85 -160.5t29 -209t-29 -208.5t-85 -159.5t-137.5 -101.5t-186.5 -35.5t-186.5 35.5t-137.5 101.5t-85 159.5t-29 208.5t29 209t85 160.5t137.5 103t186.5 36.5zM553 30q96 0 168 33t120.5 94t72.5 146t24 190t-24 191 t-72.5 147.5t-120.5 95t-168 33.5t-168 -33.5t-120.5 -95t-72.5 -147.5t-24 -191t24 -190t72.5 -146t120.5 -94t168 -33z" />
<glyph unicode="p" horiz-adv-x="1093" d="M229 205q61 -97 136 -136.5t173 -39.5q97 0 169 35.5t120 98.5t72 149t24 187q0 235 -89 348t-258 113q-104 0 -192.5 -57t-154.5 -158v-540zM227 794q66 97 157.5 152.5t202.5 55.5q187 0 288.5 -124t101.5 -379q0 -108 -27.5 -201t-82 -162t-135 -108.5t-186.5 -39.5 q-208 0 -317 163v-508h-53v1343h25q19 0 20 -20z" />
<glyph unicode="q" horiz-adv-x="1091" d="M864 787q-58 93 -134.5 133.5t-174.5 40.5q-97 0 -169 -35.5t-120 -98.5t-72 -149t-24 -187q0 -235 88.5 -348t258.5 -113q104 0 192.5 57t154.5 158v542zM917 986v-1343h-53v551q-66 -96 -157 -151t-201 -55q-188 0 -289 124t-101 379q0 108 27.5 201t82 162t135 108.5 t186.5 39.5t184.5 -41t134.5 -124l6 129q1 20 21 20h24z" />
<glyph unicode="r" horiz-adv-x="695" d="M227 722q22 67 52 119t69.5 88t89.5 54.5t113 18.5q29 0 59.5 -4.5t54.5 -18.5l-6 -31q-4 -11 -14 -11q-11 0 -33.5 7.5t-66.5 7.5q-62 0 -110.5 -19.5t-86 -57.5t-66.5 -95t-53 -133v-647h-53v986h24q20 0 21 -22z" />
<glyph unicode="s" horiz-adv-x="842" d="M700 885q-5 -9 -15 -9q-9 0 -25.5 13.5t-45.5 29t-72.5 29t-107.5 13.5q-59 0 -107.5 -17.5t-83.5 -46.5t-54 -68t-19 -81q0 -50 24.5 -84t64.5 -57.5t91 -40t104 -33t104 -35.5t91 -47t64.5 -69t24.5 -101q0 -62 -22 -116t-64.5 -94.5t-104 -63.5t-140.5 -23 q-53 0 -96 8.5t-80 24t-69 37.5t-62 49l13 17q4 5 7.5 7.5t11.5 2.5q10 0 28.5 -16.5t50 -36.5t79.5 -36.5t118 -16.5q69 0 121.5 19.5t88 53.5t53.5 79.5t18 96.5q0 54 -24.5 90t-64.5 60.5t-91 41.5t-104 33t-104 34.5t-91 46t-64.5 67.5t-24.5 100q0 50 22.5 96.5 t63.5 82t98.5 56.5t128.5 21q86 0 152 -24t125 -76z" />
<glyph unicode="t" horiz-adv-x="668" d="M428 -16q-92 0 -144 50.5t-52 162.5v711h-154q-19 0 -19 15v18l173 7l15 380q1 6 5 11.5t11 5.5h22v-397h326v-40h-326v-709q0 -46 12 -78.5t32 -53.5t47.5 -30.5t59.5 -9.5q39 0 68.5 12t50.5 26t34 26t19 12q5 0 11 -6l13 -19q-17 -21 -39.5 -38t-49.5 -29.5t-56 -19.5 t-59 -7z" />
<glyph unicode="u" horiz-adv-x="1090" d="M916 986v-986h-24q-18 0 -21 20l-5 172q-70 -95 -165 -151.5t-209 -56.5q-82 0 -143.5 25.5t-102 73t-61 116.5t-20.5 156v631h53v-631q0 -77 17 -138t52.5 -103.5t89 -65t125.5 -22.5q107 0 198.5 56.5t163.5 156.5v747h52z" />
<glyph unicode="v" horiz-adv-x="988" d="M940 986l-424 -986h-44l-424 986h39q10 0 16 -6t8 -12l366 -853q6 -14 10 -28.5t7 -28.5q4 14 8 28.5t10 28.5l366 853q4 8 10 13t15 5h37z" />
<glyph unicode="w" horiz-adv-x="1508" d="M1449 986l-334 -986h-35q-11 0 -16 14l-297 871q-7 20 -12 41q-5 -21 -12 -41l-301 -871q-5 -14 -15 -14h-33l-335 986h37q11 0 17 -6t8 -12l281 -853q5 -16 8.5 -30.5t6.5 -29.5q4 15 8.5 29.5t9.5 30.5l294 862q5 14 17 14h19q13 0 18 -14l291 -862q5 -16 9.5 -31 t7.5 -30q4 15 8 29.5t9 31.5l281 853q3 8 9.5 13t14.5 5h36z" />
<glyph unicode="x" horiz-adv-x="908" d="M854 0h-50q-10 0 -15 6.5t-9 11.5l-327 462q-3 -13 -11 -23l-316 -439q-5 -6 -10.5 -12t-14.5 -6h-47l364 503l-350 483h50q10 0 14.5 -5.5t8.5 -10.5l315 -443q2 6 4.5 12t7.5 12l301 418q4 6 9.5 11.5t13.5 5.5h48l-350 -479z" />
<glyph unicode="y" horiz-adv-x="989" d="M943 986l-575 -1317q-5 -10 -12 -18t-20 -8h-35l170 381l-422 962h40q11 0 17.5 -6t8.5 -12l368 -844q10 -22 15 -46q7 21 17 46l366 844q4 8 10.5 13t14.5 5h37z" />
<glyph unicode="z" horiz-adv-x="878" d="M806 986v-22q0 -6 -2.5 -11t-7.5 -11l-661 -900h643v-42h-709v19q0 6 2.5 11t7.5 12l662 902h-638v42h703z" />
<glyph unicode="{" horiz-adv-x="584" d="M445 1471q-45 0 -83 -16.5t-66 -46.5t-43.5 -72.5t-15.5 -94.5q0 -57 10 -112t22 -109t22 -108.5t10 -109.5q0 -38 -13 -67.5t-34 -51.5t-47.5 -35.5t-53.5 -18.5q27 -5 53.5 -19t47.5 -36t34 -52t13 -67q0 -55 -10 -109.5t-22 -108.5t-22 -109t-10 -112 q0 -53 15.5 -95.5t43.5 -72.5t66 -46t83 -16h40q7 0 12 -4t5 -11v-22h-56q-59 0 -106 20.5t-80.5 57t-51.5 85.5t-18 106q0 58 10 112t22.5 107t22.5 107t10 111q0 34 -12.5 62.5t-34.5 49.5t-52.5 32.5t-66.5 11.5v36q36 0 66.5 11.5t52.5 32t34.5 49t12.5 62.5 q0 57 -10 110.5t-22.5 107t-22.5 107.5t-10 112q0 57 18 106t51.5 85.5t80.5 57t106 20.5h56v-21q0 -8 -5 -12t-12 -4h-40z" />
<glyph unicode="|" horiz-adv-x="464" d="M211 1508h42v-1867h-42v1867z" />
<glyph unicode="}" horiz-adv-x="584" d="M495 611q-36 0 -66.5 -11.5t-52.5 -32.5t-34.5 -49.5t-12.5 -62.5q0 -57 10 -111t22.5 -107t22.5 -107t10 -112q0 -57 -18 -106t-51.5 -85.5t-81 -57t-105.5 -20.5h-56v22q0 7 5 11t12 4h40q45 0 83 16t66 46t43.5 72.5t15.5 95.5q0 57 -10 112t-22 109t-22 108.5 t-10 109.5q0 37 13 67t34 52t47.5 36t53.5 19q-27 5 -53.5 18.5t-47.5 35.5t-34 51.5t-13 67.5q0 55 10 109.5t22 108.5t22 109t10 112q0 52 -15.5 94.5t-43.5 72.5t-66 46.5t-83 16.5h-40q-7 0 -12 4t-5 12v21h56q58 0 105.5 -20.5t81 -57t51.5 -85.5t18 -106 q0 -58 -10 -112t-22.5 -107.5t-22.5 -107t-10 -110.5q0 -34 12.5 -62.5t34.5 -49t52.5 -32t66.5 -11.5v-36z" />
<glyph unicode="~" horiz-adv-x="1160" d="M792 544q40 0 72.5 14.5t55 40.5t35 60.5t13.5 75.5h43q0 -48 -14.5 -90.5t-42.5 -74.5t-68 -51t-92 -19q-51 0 -106 21.5t-109.5 47t-106.5 47t-98 21.5q-41 0 -73 -14.5t-54.5 -40.5t-35 -61t-13.5 -76h-43q0 48 14.5 90.5t42 75t68 51t92.5 18.5q34 0 70 -10t72.5 -25 t73 -33t71.5 -33t68.5 -25t64.5 -10z" />
<glyph unicode="&#xa1;" horiz-adv-x="437" d="M193 -357v555q0 44 0.5 83t1.5 80t3 87t4 104h35q2 -58 4 -104t3.5 -87t2 -80t0.5 -83v-555h-54zM140 927q0 32 22 53.5t54 21.5t54.5 -21.5t22.5 -53.5t-22.5 -54.5t-54.5 -22.5t-54 22.5t-22 54.5z" />
<glyph unicode="&#xa2;" horiz-adv-x="1160" d="M651 960q-100 -1 -178 -34t-132 -93.5t-82.5 -146.5t-28.5 -193t27 -191t77.5 -143t121.5 -92t158 -37zM988 121q-18 -24 -50.5 -47.5t-76 -42t-97 -30.5t-113.5 -13l-9 -228q-2 -22 -19 -22h-21l10 250q-98 4 -178 40t-137 100.5t-88 156.5t-31 208q0 114 32 207.5 t92.5 160t149 103.5t201.5 38l9 220q0 22 19 22h20l-10 -243q89 -5 159 -33.5t121 -72.5l-14 -17q-5 -7 -13 -7q-7 0 -24 12.5t-47 28t-75 30t-108 17.5l-37 -930q81 1 136 19t91 39t55.5 38t27.5 17t13 -7z" />
<glyph unicode="&#xa3;" horiz-adv-x="1160" d="M67 659q0 10 7 15.5t16 5.5h181v311q0 93 25.5 171.5t75.5 135.5t124.5 89.5t173.5 32.5q75 0 132 -18t99 -49t71.5 -72.5t49.5 -87.5l-21 -10q-10 -4 -17 -2t-15 13q-20 34 -43.5 67t-57.5 58.5t-82 41t-116 15.5q-85 0 -149.5 -28.5t-108 -79.5t-65.5 -121.5 t-22 -155.5v-311h499v-21q0 -8 -6 -12.5t-14 -4.5h-479v-337q0 -98 -42 -160.5t-113 -104.5q39 6 78 6h844v-22q0 -8 -7 -16t-19 -8h-973v39q35 15 67 36t57 52t39.5 72t14.5 97v346h-204v17z" />
<glyph unicode="&#xa4;" horiz-adv-x="1160" d="M286 670q0 -60 23.5 -113.5t63.5 -93.5t93.5 -63.5t113.5 -23.5q61 0 115 23.5t94 63.5t63.5 93.5t23.5 113.5q0 61 -23.5 115.5t-63.5 94.5t-94 63.5t-115 23.5q-60 0 -113.5 -23.5t-93.5 -63.5t-63.5 -94.5t-23.5 -115.5zM832 895q40 -45 62.5 -102t22.5 -123 q0 -65 -22.5 -121.5t-62.5 -101.5l155 -155l-28 -28l-155 155q-45 -39 -102 -61.5t-122 -22.5q-64 0 -120.5 22.5t-101.5 61.5l-157 -156l-28 28l157 157q-40 45 -62.5 101.5t-22.5 120.5q0 65 22.5 121.5t61.5 101.5l-156 156l28 28l156 -156q45 41 101.5 63.5t121.5 22.5 t122 -22.5t102 -61.5l155 155l28 -29z" />
<glyph unicode="&#xa5;" horiz-adv-x="1160" d="M618 611h367v-35h-379v-124h379v-35h-379v-417h-52v417h-380v35h380v124h-380v35h368l-430 795h43q16 0 24 -15l382 -716q6 -13 10.5 -24t8.5 -22q4 11 8.5 22t10.5 24l382 716q8 15 23 15h44z" />
<glyph unicode="&#xa6;" horiz-adv-x="470" d="M214 1508h42v-768h-42v768zM214 411h42v-768h-42v768z" />
<glyph unicode="&#xa7;" horiz-adv-x="959" d="M171 728q0 -46 21.5 -81.5t58 -64t84 -52.5t99.5 -46.5t104 -46t98 -50.5q79 36 114 89t35 121q0 50 -19.5 88.5t-52.5 69t-76.5 54.5t-90.5 45t-96 42t-92 45q-103 -41 -145 -94t-42 -119zM776 1305q-6 -9 -15 -9t-25.5 13.5t-45.5 29t-73 29t-107 13.5 q-60 0 -109 -17.5t-84 -47t-54 -68.5t-19 -81q0 -50 25.5 -87t66.5 -66.5t94 -53.5t108 -48.5t108 -51.5t94 -63t66.5 -82t25.5 -109q0 -84 -42.5 -144t-122.5 -95q54 -38 88.5 -86.5t34.5 -117.5q0 -62 -22 -116t-64.5 -94.5t-104 -63.5t-140.5 -23q-53 0 -96 8.5t-79.5 24 t-68.5 37.5t-62 49l13 17q7 10 18 10q10 0 28.5 -16.5t50 -36.5t80 -36.5t118.5 -16.5q68 0 120.5 19.5t88.5 53.5t54.5 79.5t18.5 97.5q0 54 -26.5 94.5t-70 72t-99 57t-114 50t-114 51.5t-99 60.5t-70 77.5t-26.5 103q0 37 11 71.5t35 65t62 56t93 45.5q-56 36 -92.5 85 t-36.5 120q0 51 22.5 97.5t64 82t99 56.5t127.5 21q86 0 152 -24t125 -76z" />
<glyph unicode="&#xa8;" horiz-adv-x="800" d="M298 1282q0 -26 -20.5 -45.5t-46.5 -19.5q-27 0 -46.5 19.5t-19.5 45.5q0 27 19.5 46.5t46.5 19.5q26 0 46.5 -19.5t20.5 -46.5zM635 1282q0 -26 -20 -45.5t-46 -19.5q-27 0 -47 19.5t-20 45.5q0 27 20 46.5t47 19.5q26 0 46 -19.5t20 -46.5z" />
<glyph unicode="&#xa9;" horiz-adv-x="1692" d="M1155 401q5 1 7.5 0.5t4.5 -1.5l21 -20q-59 -55 -138 -89t-195 -34q-95 0 -175 31.5t-138 89.5t-90 140.5t-32 184.5q0 100 33 182.5t92 142t142 92t182 32.5q52 0 94 -7t78 -20.5t68 -33t64 -45.5l-12 -17q-4 -7 -14 -7q-8 0 -24.5 14t-48 30.5t-81 30.5t-122.5 14 q-89 0 -163 -28.5t-127 -81.5t-82.5 -128.5t-29.5 -169.5q0 -96 29 -171t81 -127t122.5 -79.5t154.5 -27.5q56 0 99 7t77.5 20.5t63.5 32.5t59 43zM129 703q0 99 25.5 190.5t72.5 171.5t112 145t145 112t171.5 72.5t190.5 25.5t190.5 -25.5t171 -72.5t145 -112t112.5 -145 t72.5 -171.5t25.5 -190.5t-25.5 -190.5t-72.5 -171.5t-112.5 -145t-145 -112t-171 -72.5t-190.5 -25.5t-190.5 25.5t-171.5 72.5t-145 112t-112 145t-72.5 171.5t-25.5 190.5zM167 703q0 -94 24 -181t68 -163t106 -138t137.5 -106t162.5 -68.5t181 -24.5t181 24.5 t162.5 68.5t138 106t106.5 138t68.5 163t24.5 181t-24.5 181.5t-68.5 163.5t-106.5 138.5t-138 106.5t-162.5 68.5t-181 24.5t-181 -24.5t-162.5 -68.5t-137.5 -106.5t-106 -138.5t-68 -163.5t-24 -181.5z" />
<glyph unicode="&#xaa;" horiz-adv-x="736" d="M529 1122q-183 -7 -268 -44t-85 -101q0 -31 11 -52.5t29 -35.5t41.5 -20.5t48.5 -6.5q37 0 68.5 8t58 22.5t50 33.5t46.5 40v156zM169 1328q45 46 94.5 68.5t113.5 22.5q97 0 145.5 -55t48.5 -152v-374h-18q-12 0 -16 14l-7 80q-51 -49 -104.5 -76t-128.5 -27 q-30 0 -59.5 8t-52 25.5t-36.5 45t-14 66.5q0 37 22.5 69.5t70.5 56t122.5 37.5t178.5 16v59q0 83 -37 127t-118 44q-45 0 -76.5 -11.5t-53 -26t-34 -26t-20.5 -11.5q-5 0 -8.5 2.5t-5.5 4.5z" />
<glyph unicode="&#xab;" horiz-adv-x="761" d="M376 178q8 -11 5.5 -19.5t-10.5 -13.5l-15 -9l-237 374v7l237 374l15 -9q19 -10 5 -33l-195 -311q-13 -20 -20 -24q8 -6 20 -25zM610 178q8 -11 5.5 -19.5t-10.5 -13.5l-15 -9l-237 374v7l237 374l15 -9q19 -10 5 -33l-195 -311q-13 -20 -20 -24q8 -6 20 -25z" />
<glyph unicode="&#xac;" horiz-adv-x="1160" d="M989 352h-46v298h-766v41h812v-339z" />
<glyph unicode="&#xae;" horiz-adv-x="1692" d="M808 711q126 0 193 53t67 152q0 100 -60.5 145t-186.5 45h-178v-395h165zM821 1144q143 0 219 -55t76 -170q0 -51 -18.5 -93t-52.5 -72.5t-83 -49.5t-109 -24q19 -11 33 -32l315 -386h-44q-7 0 -12 2t-10 9l-306 377q-8 10 -20 16.5t-40 6.5h-126v-411h-48v882h226z M846 22q94 0 181 24.5t162.5 68.5t138 106t106.5 138t68.5 163t24.5 181t-24.5 181.5t-68.5 163.5t-106.5 138.5t-138 106.5t-162.5 68.5t-181 24.5t-181 -24.5t-162.5 -68.5t-137.5 -106.5t-106 -138.5t-68 -163.5t-24 -181.5t24 -181t68 -163t106 -138t137.5 -106 t162.5 -68.5t181 -24.5zM846 1420q99 0 190.5 -25.5t171 -72.5t145 -112t112.5 -145t72.5 -171.5t25.5 -190.5t-25.5 -190.5t-72.5 -171.5t-112.5 -145t-145 -112t-171 -72.5t-190.5 -25.5t-190.5 25.5t-171.5 72.5t-145 112t-112 145t-72.5 171.5t-25.5 190.5t25.5 190.5 t72.5 171.5t112 145t145 112t171.5 72.5t190.5 25.5z" />
<glyph unicode="&#xaf;" horiz-adv-x="800" d="M135 1301h530v-38h-530v38z" />
<glyph unicode="&#xb0;" horiz-adv-x="827" d="M125 1138q0 59 22.5 111t61.5 90.5t91.5 60.5t112.5 22t113 -22t92 -60.5t61.5 -90.5t22.5 -111t-22.5 -111t-61.5 -91t-92 -61.5t-113 -22.5t-112.5 22.5t-91.5 61.5t-61.5 91t-22.5 111zM168 1138q0 -51 19 -96t52.5 -78.5t78 -52.5t95.5 -19t96 19t78.5 52.5 t52.5 78.5t19 96t-19 96t-52.5 78t-78.5 52.5t-96 19.5t-95.5 -19.5t-78 -52.5t-52.5 -78t-19 -96z" />
<glyph unicode="&#xb1;" horiz-adv-x="1160" d="M116 121h928v-41h-928v41zM1044 707v-41h-443v-421h-44v421h-441v41h441v420h44v-420h443z" />
<glyph unicode="&#xb2;" horiz-adv-x="668" d="M543 938q14 0 14 -14v-24h-455v14q0 11 9 20l243 246q30 30 56 58.5t45.5 58t30.5 61t11 66.5q0 40 -13.5 69.5t-36 48.5t-51.5 28t-60 9q-70 0 -114.5 -39.5t-58.5 -104.5q-5 -14 -23 -13l-21 4q6 45 24.5 80t47 59t65.5 37t81 13q40 0 76.5 -11.5t64.5 -35t44.5 -59.5 t16.5 -84q0 -40 -12.5 -74.5t-33.5 -66t-49 -61t-58 -60.5l-228 -231q30 6 68 6h317z" />
<glyph unicode="&#xb3;" horiz-adv-x="668" d="M120 1426q13 90 71.5 139.5t145.5 49.5q40 0 76 -11t63 -33.5t43 -55.5t16 -78q0 -34 -11 -62t-30 -50t-45 -37t-56 -22q79 -14 120 -59t41 -114q0 -43 -17.5 -80t-48 -64t-72 -42t-89.5 -15q-61 0 -101.5 16.5t-66 42.5t-39.5 57.5t-23 62.5l16 8q7 3 15.5 2t12.5 -12 q3 -7 10 -30t26.5 -48t55 -44.5t93.5 -19.5q46 0 80.5 15t58 39t35 53t11.5 57q0 34 -11.5 62.5t-36 49.5t-64 32.5t-95.5 11.5v29q92 3 141 44.5t49 110.5q0 38 -13 66t-35 46t-50.5 27t-59.5 9q-70 0 -114.5 -40t-58.5 -104q-5 -14 -21 -13z" />
<glyph unicode="&#xb4;" horiz-adv-x="800" d="M591 1422l-208 -251q-9 -12 -24 -12h-32l162 237q10 15 19 20.5t29 5.5h54z" />
<glyph unicode="&#xb5;" horiz-adv-x="1259" d="M1187 33v-22q0 -8 -14.5 -13.5t-44.5 -5.5q-41 0 -79 12t-67 37.5t-47.5 65t-21.5 95.5q-68 -100 -162.5 -157t-206.5 -57q-116 0 -187 50t-102 144q2 -46 3.5 -95.5t1.5 -90.5v-353h-26q-12 0 -18.5 6.5t-6.5 17.5v1319h53v-625q0 -77 17 -138.5t52.5 -104t89 -65 t125.5 -22.5q110 0 202 58t160 163v734h52v-767q0 -49 14.5 -84t40 -57.5t61 -33.5t77.5 -11h34z" />
<glyph unicode="&#xb6;" horiz-adv-x="1268" d="M1198 1360h-228v-1544h-49v1544h-354v-1544h-49v903q-103 0 -184 26.5t-137.5 74t-86.5 112t-30 139.5q0 77 30 139t86.5 105.5t137.5 67t184 23.5h680v-46z" />
<glyph unicode="&#xb7;" horiz-adv-x="466" d="M157 591q0 32 22.5 55t51.5 23q32 0 55.5 -23t23.5 -55q0 -15 -6.5 -28.5t-17 -24t-25 -16.5t-30.5 -6q-15 0 -28 6t-23.5 16.5t-16.5 24t-6 28.5z" />
<glyph unicode="&#xb8;" horiz-adv-x="800" d="M391 -103q43 -7 78 -17t59 -25t37 -37t13 -52q0 -59 -47 -91.5t-120 -32.5q-41 0 -81 13.5t-64 34.5l7 14q6 8 12 8q5 0 13.5 -6.5t23.5 -14t37.5 -13.5t54.5 -6q57 0 88.5 24.5t31.5 67.5q0 29 -14.5 47.5t-39.5 30.5t-59 18.5t-73 11.5l42 133h34z" />
<glyph unicode="&#xb9;" horiz-adv-x="668" d="M543 930v-30h-364v30h165v592l4 35l-164 -146q-5 -5 -11.5 -4t-10.5 5l-12 18l204 181h33v-681h156z" />
<glyph unicode="&#xba;" horiz-adv-x="811" d="M406 1419q65 0 116 -21t86 -60t53.5 -94t18.5 -122q0 -68 -18.5 -122.5t-53.5 -93t-86 -59.5t-116 -21q-66 0 -117 21t-86 59.5t-53.5 93t-18.5 122.5q0 67 18.5 122t53.5 94t86 60t117 21zM406 859q57 0 100.5 18.5t73 53t44 83t14.5 108.5t-14.5 108.5t-44 83t-73 53.5 t-100.5 19q-58 0 -101.5 -19t-73 -53.5t-44 -83t-14.5 -108.5t14.5 -108.5t44 -83t73 -53t101.5 -18.5z" />
<glyph unicode="&#xbb;" horiz-adv-x="763" d="M410 517v-7l-237 -374l-15 9q-8 5 -10.5 13.5t5.5 19.5l195 311q12 19 20 25q-7 4 -20 24l-195 311q-14 23 5 33l15 9zM644 517v-7l-237 -374l-15 9q-8 5 -10.5 13.5t5.5 19.5l195 311q12 19 20 25q-7 4 -20 24l-195 311q-14 23 5 33l15 9z" />
<glyph unicode="&#xbc;" horiz-adv-x="1434" d="M356 20q-8 -12 -16.5 -16t-18.5 -4h-23l791 1385q10 21 34 21h24zM505 729v-30h-364v30h165v592l4 35l-164 -146q-5 -5 -11.5 -4t-10.5 5l-12 18l204 181h33v-681h156zM1177 237v384q0 17 3 38l-317 -422h314zM1349 237v-20q0 -12 -13 -12h-122v-205h-37v205h-337 q-17 0 -17 10l-4 19l357 473h38v-470h135z" />
<glyph unicode="&#xbd;" horiz-adv-x="1414" d="M311 20q-8 -12 -16.5 -16t-18.5 -4h-23l791 1385q10 21 34 21h24zM509 729v-30h-364v30h165v592l4 35l-164 -146q-5 -5 -11.5 -4t-10.5 5l-12 18l204 181h33v-681h156zM1297 38q14 0 14 -14v-24h-455v14q0 11 9 20l243 246q30 30 56 58.5t45.5 58t30.5 61t11 66.5 q0 40 -13.5 69.5t-36 48.5t-51.5 28t-60 9q-70 0 -114.5 -39.5t-58.5 -104.5q-5 -14 -23 -13l-21 4q6 45 24.5 80t47 59t65.5 37t81 13q40 0 76.5 -11.5t64.5 -35t44.5 -59.5t16.5 -84q0 -40 -12.5 -74.5t-33.5 -66t-49 -61t-58 -60.5l-228 -231q30 6 68 6h317z" />
<glyph unicode="&#xbe;" horiz-adv-x="1455" d="M386 20q-8 -12 -16.5 -16t-18.5 -4h-23l791 1385q10 21 34 21h24zM132 1225q13 90 71.5 139.5t145.5 49.5q40 0 76 -11t63 -33.5t43 -55.5t16 -78q0 -34 -11 -62t-30 -50t-45 -37t-56 -22q79 -14 120 -59t41 -114q0 -43 -17.5 -80t-48 -64t-72 -42t-89.5 -15 q-61 0 -101.5 16.5t-66 42.5t-39.5 57.5t-23 62.5l16 8q7 3 15.5 2t12.5 -12q3 -7 10 -30t26.5 -48t55 -44.5t93.5 -19.5q46 0 80.5 15t58 39t35 53t11.5 57q0 34 -11.5 62.5t-36 49.5t-64 32.5t-95.5 11.5v29q92 3 141 44.5t49 110.5q0 38 -13 66t-35 46t-50.5 27t-59.5 9 q-70 0 -114.5 -40t-58.5 -104q-5 -14 -21 -13zM1197 237v384q0 17 3 38l-317 -422h314zM1369 237v-20q0 -12 -13 -12h-122v-205h-37v205h-337q-17 0 -17 10l-4 19l357 473h38v-470h135z" />
<glyph unicode="&#xbf;" horiz-adv-x="825" d="M737 -230q-25 -26 -56.5 -51t-70.5 -44t-85 -30.5t-100 -11.5q-65 0 -124.5 19.5t-105 57t-72.5 91.5t-27 122q0 75 24 129t61 93t79.5 68t79.5 55t62 52.5t27 62.5l9 169h35l2 -173q1 -30 -13 -54t-37 -45t-52.5 -40.5t-60.5 -41t-61 -47t-53 -58t-37.5 -73.5t-14.5 -94 q0 -59 23.5 -105.5t62.5 -78.5t90 -49t106 -17q69 0 119.5 19t85 42t53.5 42t24 19q8 0 14 -8zM381 925q0 32 21.5 54.5t53.5 22.5t54.5 -22.5t22.5 -54.5t-22.5 -53.5t-54.5 -21.5t-53.5 21.5t-21.5 53.5z" />
<glyph unicode="&#xc0;" horiz-adv-x="1289" d="M987 504l-322 783q-11 27 -21 60q-9 -33 -21 -60l-322 -783h686zM1253 0h-43q-15 0 -22 17l-183 445h-722l-183 -445q-5 -17 -23 -17h-41l582 1406h53zM443 1836q20 0 30 -3.5t19 -14.5l245 -279h-33q-8 0 -14 1.5t-12 7.5l-300 288h65z" />
<glyph unicode="&#xc1;" horiz-adv-x="1289" d="M987 504l-322 783q-11 27 -21 60q-9 -33 -21 -60l-322 -783h686zM1253 0h-43q-15 0 -22 17l-183 445h-722l-183 -445q-5 -17 -23 -17h-41l582 1406h53zM945 1836l-329 -288q-10 -9 -26 -9h-34l272 279q10 11 20 14.5t30 3.5h67z" />
<glyph unicode="&#xc2;" horiz-adv-x="1289" d="M987 504l-322 783q-11 27 -21 60q-9 -33 -21 -60l-322 -783h686zM1253 0h-43q-15 0 -22 17l-183 445h-722l-183 -445q-5 -17 -23 -17h-41l582 1406h53zM899 1539h-40q-6 0 -13.5 2t-14.5 10l-182 209q-4 3 -5 8q-2 -5 -5 -8l-182 -209q-7 -8 -14.5 -10t-13.5 -2h-39 l233 266h43z" />
<glyph unicode="&#xc3;" horiz-adv-x="1289" d="M987 504l-322 783q-11 27 -21 60q-9 -33 -21 -60l-322 -783h686zM1253 0h-43q-15 0 -22 17l-183 445h-722l-183 -445q-5 -17 -23 -17h-41l582 1406h53zM772 1592q49 0 77 32.5t30 78.5h33q0 -30 -9 -57t-26.5 -47.5t-43 -32.5t-58.5 -12q-35 0 -66.5 18t-62 39t-59.5 39 t-58 18q-24 0 -43.5 -9t-33.5 -24.5t-21.5 -36t-8.5 -42.5h-35q0 30 9.5 57t27.5 48t43.5 33t57.5 12q35 0 67 -18t62.5 -39t59.5 -39t58 -18z" />
<glyph unicode="&#xc4;" horiz-adv-x="1289" d="M987 504l-322 783q-11 27 -21 60q-9 -33 -21 -60l-322 -783h686zM1253 0h-43q-15 0 -22 17l-183 445h-722l-183 -445q-5 -17 -23 -17h-41l582 1406h53zM521 1664q0 -25 -20 -44.5t-46 -19.5q-13 0 -25 5.5t-21 14.5t-14.5 20.5t-5.5 23.5q0 27 20 47t46 20t46 -20t20 -47 zM899 1664q0 -25 -20.5 -44.5t-45.5 -19.5q-27 0 -46.5 19.5t-19.5 44.5q0 27 19.5 47t46.5 20q25 0 45.5 -20t20.5 -47z" />
<glyph unicode="&#xc5;" horiz-adv-x="1289" d="M987 504l-322 783q-11 27 -21 60q-9 -33 -21 -60l-322 -783h686zM1253 0h-43q-15 0 -22 17l-183 445h-722l-183 -445q-5 -17 -23 -17h-41l582 1406h53zM488 1678q0 32 12.5 59.5t33.5 47.5t49.5 31.5t60.5 11.5t60.5 -11.5t49.5 -31.5t33.5 -47.5t12.5 -59.5t-12.5 -59.5 t-33.5 -47.5t-49.5 -31t-60.5 -11t-60.5 11t-49.5 31t-33.5 47.5t-12.5 59.5zM523 1678q0 -26 9 -48t25 -38.5t38.5 -25.5t48.5 -9t48.5 9t38.5 25.5t25 38.5t9 48q0 53 -34 87.5t-87 34.5t-87 -34.5t-34 -87.5z" />
<glyph unicode="&#xc6;" horiz-adv-x="1852" d="M950 504l-110 858q-6 -19 -13.5 -35.5t-17.5 -34.5l-446 -788h587zM1744 47l-2 -47h-727l-59 462h-616l-253 -447q-8 -15 -24 -15h-44l795 1406h928v-47h-850l80 -623h648v-46h-642l83 -643h683z" />
<glyph unicode="&#xc7;" horiz-adv-x="1360" d="M778 -103q43 -7 78 -17t59 -25t37 -37t13 -52q0 -59 -47 -91.5t-120 -32.5q-41 0 -81 13.5t-64 34.5l7 14q6 8 12 8q5 0 13.5 -6.5t23.5 -14t37.5 -13.5t54.5 -6q57 0 88.5 24.5t31.5 67.5q0 29 -14.5 47.5t-39.5 30.5t-59 18.5t-73 11.5l35 112q-140 3 -258 54.5 t-203.5 144.5t-133 225t-47.5 295q0 161 49 293.5t138.5 227t214 146.5t274.5 52q141 0 250 -43t203 -124l-15 -22q-4 -7 -16 -7q-6 0 -20.5 11t-38 27.5t-57 36t-78.5 36t-102 27.5t-126 11q-136 0 -250 -47t-196 -134t-127.5 -211.5t-45.5 -279.5q0 -158 45.5 -282.5 t126.5 -211t191 -132.5t239 -46q81 0 145 11t117.5 33t99 54t90.5 73q7 7 13 7q4 0 11 -5l21 -22q-43 -43 -92 -78.5t-107.5 -61.5t-127.5 -41t-152 -17z" />
<glyph unicode="&#xc8;" horiz-adv-x="1163" d="M1055 47l-2 -47h-830v1406h830v-47h-775v-623h653v-46h-653v-643h777zM445 1836q20 0 30 -3.5t19 -14.5l245 -279h-33q-8 0 -14 1.5t-12 7.5l-300 288h65z" />
<glyph unicode="&#xc9;" horiz-adv-x="1163" d="M1055 47l-2 -47h-830v1406h830v-47h-775v-623h653v-46h-653v-643h777zM947 1836l-329 -288q-10 -9 -26 -9h-34l272 279q10 11 20 14.5t30 3.5h67z" />
<glyph unicode="&#xca;" horiz-adv-x="1163" d="M1055 47l-2 -47h-830v1406h830v-47h-775v-623h653v-46h-653v-643h777zM901 1539h-40q-6 0 -13.5 2t-14.5 10l-182 209q-4 3 -5 8q-2 -5 -5 -8l-182 -209q-7 -8 -14.5 -10t-13.5 -2h-39l233 266h43z" />
<glyph unicode="&#xcb;" horiz-adv-x="1163" d="M1055 47l-2 -47h-830v1406h830v-47h-775v-623h653v-46h-653v-643h777zM523 1664q0 -25 -20 -44.5t-46 -19.5q-13 0 -25 5.5t-21 14.5t-14.5 20.5t-5.5 23.5q0 27 20 47t46 20t46 -20t20 -47zM901 1664q0 -25 -20.5 -44.5t-45.5 -19.5q-27 0 -46.5 19.5t-19.5 44.5 q0 27 19.5 47t46.5 20q25 0 45.5 -20t20.5 -47z" />
<glyph unicode="&#xcc;" horiz-adv-x="501" d="M278 0h-55v1406h55v-1406zM52 1836q20 0 30 -3.5t19 -14.5l245 -279h-33q-8 0 -14 1.5t-12 7.5l-300 288h65z" />
<glyph unicode="&#xcd;" horiz-adv-x="501" d="M278 0h-55v1406h55v-1406zM554 1836l-329 -288q-10 -9 -26 -9h-34l272 279q10 11 20 14.5t30 3.5h67z" />
<glyph unicode="&#xce;" horiz-adv-x="501" d="M278 0h-55v1406h55v-1406zM508 1539h-40q-6 0 -13.5 2t-14.5 10l-182 209q-4 3 -5 8q-2 -5 -5 -8l-182 -209q-7 -8 -14.5 -10t-13.5 -2h-39l233 266h43z" />
<glyph unicode="&#xcf;" horiz-adv-x="501" d="M278 0h-55v1406h55v-1406zM130 1664q0 -25 -20 -44.5t-46 -19.5q-13 0 -25 5.5t-21 14.5t-14.5 20.5t-5.5 23.5q0 27 20 47t46 20t46 -20t20 -47zM508 1664q0 -25 -20.5 -44.5t-45.5 -19.5q-27 0 -46.5 19.5t-19.5 44.5q0 27 19.5 47t46.5 20q25 0 45.5 -20t20.5 -47z " />
<glyph unicode="&#xd0;" horiz-adv-x="1531" d="M741 45q134 0 244.5 44t190 128t123 206.5t43.5 279.5t-43.5 279.5t-123 206.5t-190 128t-244.5 44h-451v-628h334v-38h-334v-650h451zM741 1406q147 0 268 -48t208 -138.5t135 -221t48 -295.5t-48 -295.5t-135 -221t-208 -138.5t-268 -48h-506v695h-226v38h226v673h506z " />
<glyph unicode="&#xd1;" horiz-adv-x="1502" d="M1279 1406v-1406h-23q-13 0 -22 12l-965 1304q1 -9 1.5 -18.5t0.5 -17.5v-1280h-48v1406h25q8 0 13 -2.5t11 -10.5l961 -1299q-1 9 -1.5 18t-0.5 17v1277h48zM905 1590q49 0 77 32.5t30 78.5h33q0 -30 -9 -57t-26.5 -47.5t-43 -32.5t-58.5 -12q-35 0 -66.5 18t-62 39 t-59.5 39t-58 18q-24 0 -43.5 -9t-33.5 -24.5t-21.5 -36t-8.5 -42.5h-35q0 30 9.5 57t27.5 48t43.5 33t57.5 12q35 0 67 -18t62.5 -39t59.5 -39t58 -18z" />
<glyph unicode="&#xd2;" horiz-adv-x="1574" d="M1445 703q0 -165 -48 -297.5t-135 -226t-208 -143.5t-268 -50q-145 0 -266 50t-208 143.5t-135 226t-48 297.5q0 164 48 297t135 226.5t208 144.5t266 51q147 0 268 -50.5t208 -144t135 -226.5t48 -298zM1387 703q0 157 -43.5 281.5t-123 211.5t-190 133t-244.5 46 q-132 0 -242.5 -46t-190 -133t-124 -211.5t-44.5 -281.5t44.5 -281.5t124 -210.5t190 -132t242.5 -46q134 0 244.5 46t190 132t123 210.5t43.5 281.5zM587 1836q20 0 30 -3.5t19 -14.5l245 -279h-33q-8 0 -14 1.5t-12 7.5l-300 288h65z" />
<glyph unicode="&#xd3;" horiz-adv-x="1574" d="M1445 703q0 -165 -48 -297.5t-135 -226t-208 -143.5t-268 -50q-145 0 -266 50t-208 143.5t-135 226t-48 297.5q0 164 48 297t135 226.5t208 144.5t266 51q147 0 268 -50.5t208 -144t135 -226.5t48 -298zM1387 703q0 157 -43.5 281.5t-123 211.5t-190 133t-244.5 46 q-132 0 -242.5 -46t-190 -133t-124 -211.5t-44.5 -281.5t44.5 -281.5t124 -210.5t190 -132t242.5 -46q134 0 244.5 46t190 132t123 210.5t43.5 281.5zM1089 1836l-329 -288q-10 -9 -26 -9h-34l272 279q10 11 20 14.5t30 3.5h67z" />
<glyph unicode="&#xd4;" horiz-adv-x="1574" d="M1445 703q0 -165 -48 -297.5t-135 -226t-208 -143.5t-268 -50q-145 0 -266 50t-208 143.5t-135 226t-48 297.5q0 164 48 297t135 226.5t208 144.5t266 51q147 0 268 -50.5t208 -144t135 -226.5t48 -298zM1387 703q0 157 -43.5 281.5t-123 211.5t-190 133t-244.5 46 q-132 0 -242.5 -46t-190 -133t-124 -211.5t-44.5 -281.5t44.5 -281.5t124 -210.5t190 -132t242.5 -46q134 0 244.5 46t190 132t123 210.5t43.5 281.5zM1043 1539h-40q-6 0 -13.5 2t-14.5 10l-182 209q-4 3 -5 8q-2 -5 -5 -8l-182 -209q-7 -8 -14.5 -10t-13.5 -2h-39l233 266 h43z" />
<glyph unicode="&#xd5;" horiz-adv-x="1574" d="M1445 703q0 -165 -48 -297.5t-135 -226t-208 -143.5t-268 -50q-145 0 -266 50t-208 143.5t-135 226t-48 297.5q0 164 48 297t135 226.5t208 144.5t266 51q147 0 268 -50.5t208 -144t135 -226.5t48 -298zM1387 703q0 157 -43.5 281.5t-123 211.5t-190 133t-244.5 46 q-132 0 -242.5 -46t-190 -133t-124 -211.5t-44.5 -281.5t44.5 -281.5t124 -210.5t190 -132t242.5 -46q134 0 244.5 46t190 132t123 210.5t43.5 281.5zM916 1592q49 0 77 32.5t30 78.5h33q0 -30 -9 -57t-26.5 -47.5t-43 -32.5t-58.5 -12q-35 0 -66.5 18t-62 39t-59.5 39 t-58 18q-24 0 -43.5 -9t-33.5 -24.5t-21.5 -36t-8.5 -42.5h-35q0 30 9.5 57t27.5 48t43.5 33t57.5 12q35 0 67 -18t62.5 -39t59.5 -39t58 -18z" />
<glyph unicode="&#xd6;" horiz-adv-x="1574" d="M1445 703q0 -165 -48 -297.5t-135 -226t-208 -143.5t-268 -50q-145 0 -266 50t-208 143.5t-135 226t-48 297.5q0 164 48 297t135 226.5t208 144.5t266 51q147 0 268 -50.5t208 -144t135 -226.5t48 -298zM1387 703q0 157 -43.5 281.5t-123 211.5t-190 133t-244.5 46 q-132 0 -242.5 -46t-190 -133t-124 -211.5t-44.5 -281.5t44.5 -281.5t124 -210.5t190 -132t242.5 -46q134 0 244.5 46t190 132t123 210.5t43.5 281.5zM665 1664q0 -25 -20 -44.5t-46 -19.5q-13 0 -25 5.5t-21 14.5t-14.5 20.5t-5.5 23.5q0 27 20 47t46 20t46 -20t20 -47z M1043 1664q0 -25 -20.5 -44.5t-45.5 -19.5q-27 0 -46.5 19.5t-19.5 44.5q0 27 19.5 47t46.5 20q25 0 45.5 -20t20.5 -47z" />
<glyph unicode="&#xd7;" horiz-adv-x="1160" d="M963 259l-382 381l-384 -383l-29 29l383 384l-381 380l31 31l380 -381l378 379l31 -31l-379 -378l381 -382z" />
<glyph unicode="&#xd8;" horiz-adv-x="1574" d="M413 156q75 -60 169 -91.5t204 -31.5q134 0 244.5 46t190 132t123 210.5t43.5 281.5q0 166 -48 294.5t-136 216.5zM1174 1241q-76 66 -174 100t-214 34q-132 0 -242.5 -46t-190 -133t-124 -211.5t-44.5 -281.5q0 -172 52 -303t146 -218zM1235 1255q100 -94 155 -233.5 t55 -318.5q0 -165 -48 -297.5t-135 -226t-208 -143.5t-268 -50q-118 0 -220 33.5t-184 96.5l-148 -199q-8 -11 -18 -15.5t-20 -4.5h-26l182 244q-106 94 -164.5 236t-58.5 326q0 164 48 297t135 226.5t208 144.5t266 51q125 0 230 -36t189 -104l126 169q8 10 14 14.5t18 4.5 h32z" />
<glyph unicode="&#xd9;" horiz-adv-x="1446" d="M723 32q109 0 194.5 38.5t145 105.5t91 157.5t31.5 194.5v878h56v-878q0 -114 -36 -213.5t-103.5 -173.5t-163 -116.5t-215.5 -42.5t-216 42.5t-163 116.5t-103 173.5t-36 213.5v878h55v-876q0 -104 31.5 -195t91 -158.5t145.5 -106t195 -38.5zM522 1836q20 0 30 -3.5 t19 -14.5l245 -279h-33q-8 0 -14 1.5t-12 7.5l-300 288h65z" />
<glyph unicode="&#xda;" horiz-adv-x="1446" d="M723 32q109 0 194.5 38.5t145 105.5t91 157.5t31.5 194.5v878h56v-878q0 -114 -36 -213.5t-103.5 -173.5t-163 -116.5t-215.5 -42.5t-216 42.5t-163 116.5t-103 173.5t-36 213.5v878h55v-876q0 -104 31.5 -195t91 -158.5t145.5 -106t195 -38.5zM1024 1836l-329 -288 q-10 -9 -26 -9h-34l272 279q10 11 20 14.5t30 3.5h67z" />
<glyph unicode="&#xdb;" horiz-adv-x="1446" d="M723 32q109 0 194.5 38.5t145 105.5t91 157.5t31.5 194.5v878h56v-878q0 -114 -36 -213.5t-103.5 -173.5t-163 -116.5t-215.5 -42.5t-216 42.5t-163 116.5t-103 173.5t-36 213.5v878h55v-876q0 -104 31.5 -195t91 -158.5t145.5 -106t195 -38.5zM978 1539h-40 q-6 0 -13.5 2t-14.5 10l-182 209q-4 3 -5 8q-2 -5 -5 -8l-182 -209q-7 -8 -14.5 -10t-13.5 -2h-39l233 266h43z" />
<glyph unicode="&#xdc;" horiz-adv-x="1446" d="M723 32q109 0 194.5 38.5t145 105.5t91 157.5t31.5 194.5v878h56v-878q0 -114 -36 -213.5t-103.5 -173.5t-163 -116.5t-215.5 -42.5t-216 42.5t-163 116.5t-103 173.5t-36 213.5v878h55v-876q0 -104 31.5 -195t91 -158.5t145.5 -106t195 -38.5zM600 1664q0 -25 -20 -44.5 t-46 -19.5q-13 0 -25 5.5t-21 14.5t-14.5 20.5t-5.5 23.5q0 27 20 47t46 20t46 -20t20 -47zM978 1664q0 -25 -20.5 -44.5t-45.5 -19.5q-27 0 -46.5 19.5t-19.5 44.5q0 27 19.5 47t46.5 20q25 0 45.5 -20t20.5 -47z" />
<glyph unicode="&#xdd;" horiz-adv-x="1160" d="M608 591v-591h-56v591l-522 815h47q9 0 14 -3.5t10 -11.5l445 -698q10 -17 19 -33t15 -32q7 17 15.5 32.5t18.5 32.5l445 698q8 15 23 15h48zM881 1836l-329 -288q-10 -9 -26 -9h-34l272 279q10 11 20 14.5t30 3.5h67z" />
<glyph unicode="&#xde;" horiz-adv-x="1133" d="M559 338q99 0 178.5 28t135 77t85.5 116t30 144q0 178 -107 271t-322 93h-281v-729h281zM559 1111q238 0 361.5 -102t123.5 -306q0 -89 -34.5 -164.5t-98.5 -130t-153.5 -85t-198.5 -30.5h-281v-293h-55v1406h55v-295h281z" />
<glyph unicode="&#xdf;" horiz-adv-x="1079" d="M595 1421q76 0 137.5 -22.5t104 -60t65.5 -85t23 -97.5q0 -63 -24.5 -110t-62 -84t-80.5 -66.5t-80.5 -58.5t-62 -60.5t-24.5 -71.5q0 -39 17.5 -64.5t45.5 -44.5t64 -33t74 -29t74 -34t64 -48t45.5 -70.5t17.5 -100.5q0 -63 -23 -117.5t-65.5 -94t-103.5 -62.5t-137 -23 q-52 0 -94 8.5t-78 24t-67.5 37.5t-61.5 49l12 17q5 5 8.5 7.5t10.5 2.5q10 0 28 -16.5t49.5 -36.5t79 -36.5t116.5 -16.5q67 0 118.5 19.5t87 53.5t54 80t18.5 98q0 73 -30 116t-75 69.5t-98 44.5t-98 40.5t-75 57.5t-30 96q0 46 25 81.5t62.5 66.5t81.5 60.5t81.5 65.5 t62.5 80.5t25 104.5q0 30 -14.5 69t-48 73t-87.5 57.5t-133 23.5q-72 0 -138.5 -21.5t-116.5 -67t-80 -116.5t-30 -170v-1006h-53v1007q0 100 32 177t88 129.5t133 80t166 27.5z" />
<glyph unicode="&#xe0;" horiz-adv-x="955" d="M737 494q-302 -10 -446.5 -75t-144.5 -183q0 -55 18.5 -95t49 -66.5t69.5 -39t80 -12.5q64 0 117 14.5t98 39.5t84 59t75 72v286zM147 846q74 76 155 116t185 40q77 0 134 -24.5t94.5 -70.5t55.5 -111.5t18 -147.5v-648h-18q-20 0 -23 21l-10 146q-41 -42 -82 -76 t-87 -57.5t-99 -36.5t-117 -13q-47 0 -93 14t-83 44t-59.5 77.5t-22.5 114.5q0 65 37.5 118t116.5 91.5t200 61t288 26.5v117q0 148 -64 230t-190 82q-75 0 -129 -21.5t-90 -48t-57.5 -48t-32.5 -21.5q-10 0 -18 11zM348 1422q20 0 29.5 -5.5t19.5 -20.5l161 -237h-30 q-16 0 -25 12l-208 251h53z" />
<glyph unicode="&#xe1;" horiz-adv-x="955" d="M737 494q-302 -10 -446.5 -75t-144.5 -183q0 -55 18.5 -95t49 -66.5t69.5 -39t80 -12.5q64 0 117 14.5t98 39.5t84 59t75 72v286zM147 846q74 76 155 116t185 40q77 0 134 -24.5t94.5 -70.5t55.5 -111.5t18 -147.5v-648h-18q-20 0 -23 21l-10 146q-41 -42 -82 -76 t-87 -57.5t-99 -36.5t-117 -13q-47 0 -93 14t-83 44t-59.5 77.5t-22.5 114.5q0 65 37.5 118t116.5 91.5t200 61t288 26.5v117q0 148 -64 230t-190 82q-75 0 -129 -21.5t-90 -48t-57.5 -48t-32.5 -21.5q-10 0 -18 11zM660 1422l-208 -251q-9 -12 -24 -12h-32l162 237 q10 15 19 20.5t29 5.5h54z" />
<glyph unicode="&#xe2;" horiz-adv-x="955" d="M737 494q-302 -10 -446.5 -75t-144.5 -183q0 -55 18.5 -95t49 -66.5t69.5 -39t80 -12.5q64 0 117 14.5t98 39.5t84 59t75 72v286zM147 846q74 76 155 116t185 40q77 0 134 -24.5t94.5 -70.5t55.5 -111.5t18 -147.5v-648h-18q-20 0 -23 21l-10 146q-41 -42 -82 -76 t-87 -57.5t-99 -36.5t-117 -13q-47 0 -93 14t-83 44t-59.5 77.5t-22.5 114.5q0 65 37.5 118t116.5 91.5t200 61t288 26.5v117q0 148 -64 230t-190 82q-75 0 -129 -21.5t-90 -48t-57.5 -48t-32.5 -21.5q-10 0 -18 11zM705 1170h-37q-11 0 -21 10l-170 184q-2 2 -3.5 4.5 t-3.5 4.5q-2 -2 -4 -4.5t-4 -4.5l-170 -184q-10 -10 -21 -10h-38l214 236h44z" />
<glyph unicode="&#xe3;" horiz-adv-x="955" d="M737 494q-302 -10 -446.5 -75t-144.5 -183q0 -55 18.5 -95t49 -66.5t69.5 -39t80 -12.5q64 0 117 14.5t98 39.5t84 59t75 72v286zM147 846q74 76 155 116t185 40q77 0 134 -24.5t94.5 -70.5t55.5 -111.5t18 -147.5v-648h-18q-20 0 -23 21l-10 146q-41 -42 -82 -76 t-87 -57.5t-99 -36.5t-117 -13q-47 0 -93 14t-83 44t-59.5 77.5t-22.5 114.5q0 65 37.5 118t116.5 91.5t200 61t288 26.5v117q0 148 -64 230t-190 82q-75 0 -129 -21.5t-90 -48t-57.5 -48t-32.5 -21.5q-10 0 -18 11zM586 1257q47 0 70 30.5t25 78.5h33q0 -31 -8 -58 t-23.5 -47t-39.5 -31.5t-56 -11.5q-33 0 -61.5 17.5t-55 38t-53 38t-54.5 17.5q-45 0 -69 -31.5t-26 -77.5h-35q0 31 8.5 58t25 47t40.5 32t55 12q33 0 62 -17.5t55.5 -38.5t52.5 -38.5t54 -17.5z" />
<glyph unicode="&#xe4;" horiz-adv-x="955" d="M737 494q-302 -10 -446.5 -75t-144.5 -183q0 -55 18.5 -95t49 -66.5t69.5 -39t80 -12.5q64 0 117 14.5t98 39.5t84 59t75 72v286zM147 846q74 76 155 116t185 40q77 0 134 -24.5t94.5 -70.5t55.5 -111.5t18 -147.5v-648h-18q-20 0 -23 21l-10 146q-41 -42 -82 -76 t-87 -57.5t-99 -36.5t-117 -13q-47 0 -93 14t-83 44t-59.5 77.5t-22.5 114.5q0 65 37.5 118t116.5 91.5t200 61t288 26.5v117q0 148 -64 230t-190 82q-75 0 -129 -21.5t-90 -48t-57.5 -48t-32.5 -21.5q-10 0 -18 11zM367 1282q0 -26 -20.5 -45.5t-46.5 -19.5 q-27 0 -46.5 19.5t-19.5 45.5q0 27 19.5 46.5t46.5 19.5q26 0 46.5 -19.5t20.5 -46.5zM704 1282q0 -26 -20 -45.5t-46 -19.5q-27 0 -47 19.5t-20 45.5q0 27 20 46.5t47 19.5q26 0 46 -19.5t20 -46.5z" />
<glyph unicode="&#xe5;" horiz-adv-x="955" d="M737 494q-302 -10 -446.5 -75t-144.5 -183q0 -55 18.5 -95t49 -66.5t69.5 -39t80 -12.5q64 0 117 14.5t98 39.5t84 59t75 72v286zM147 846q74 76 155 116t185 40q77 0 134 -24.5t94.5 -70.5t55.5 -111.5t18 -147.5v-648h-18q-20 0 -23 21l-10 146q-41 -42 -82 -76 t-87 -57.5t-99 -36.5t-117 -13q-47 0 -93 14t-83 44t-59.5 77.5t-22.5 114.5q0 65 37.5 118t116.5 91.5t200 61t288 26.5v117q0 148 -64 230t-190 82q-75 0 -129 -21.5t-90 -48t-57.5 -48t-32.5 -21.5q-10 0 -18 11zM311 1295q0 33 12.5 60.5t34 48t50 32t61.5 11.5 t61.5 -11.5t50 -32t34 -48t12.5 -60.5t-12.5 -60.5t-34 -48t-50 -32t-61.5 -11.5t-61.5 11.5t-50 32t-34 48t-12.5 60.5zM348 1295q0 -53 34 -87.5t87 -34.5t87 34.5t34 87.5q0 26 -9 48t-25 38.5t-38.5 25.5t-48.5 9t-48.5 -9t-38.5 -25.5t-25 -38.5t-9 -48z" />
<glyph unicode="&#xe6;" horiz-adv-x="1593" d="M1440 568q0 96 -23.5 169.5t-64 123.5t-95.5 75.5t-118 25.5q-78 0 -140 -28t-106.5 -80t-70.5 -124.5t-32 -161.5h650zM739 532q-151 -5 -262 -27t-183.5 -58t-108 -84.5t-35.5 -107.5q0 -62 18.5 -106t51.5 -72t78 -41t98 -13q71 0 133.5 24.5t109 70t73.5 111 t27 147.5v156zM149 846q74 76 153.5 116t183.5 40q66 0 117 -19.5t87 -56.5t57 -90t28 -120q19 66 52.5 118.5t79.5 90t104 57.5t128 20q72 0 135 -29t110.5 -85.5t74.5 -140t27 -193.5q0 -21 -16 -21h-682v-20q0 -118 25.5 -208t72.5 -151t112.5 -92.5t146.5 -31.5 q72 0 124 17.5t87 38.5t54.5 38.5t26.5 17.5q8 0 13 -7l12 -14q-18 -25 -51 -49t-75.5 -42.5t-92 -30t-101.5 -11.5q-140 0 -236 81t-135 234q-13 -90 -54 -151t-96 -98.5t-117 -53.5t-116 -16q-59 0 -111.5 14.5t-92 46.5t-62.5 83t-23 125q0 65 37.5 121t115.5 98 t199 67.5t288 29.5v79q0 148 -64 230.5t-190 82.5q-75 0 -129 -22t-90 -48t-57.5 -48t-32.5 -22q-10 0 -18 11z" />
<glyph unicode="&#xe7;" horiz-adv-x="937" d="M855 121q-17 -24 -45.5 -46.5t-66.5 -40.5t-83.5 -30t-97.5 -15l-28 -92q43 -7 78 -17t59 -25t37 -37t13 -52q0 -59 -47 -91.5t-120 -32.5q-41 0 -80.5 13.5t-63.5 34.5l6 14q6 8 13 8q4 0 13 -6.5t24 -14t37 -13.5t54 -6q57 0 88.5 24.5t31.5 67.5q0 29 -14.5 47.5 t-39.5 30.5t-59 18.5t-73 11.5l38 116q-94 1 -170.5 35.5t-130.5 99.5t-83.5 158t-29.5 212q0 114 29.5 208t85.5 160.5t137 103.5t185 37q92 0 164 -29.5t124 -77.5l-13 -17q-3 -3 -6 -5.5t-8 -2.5q-8 0 -25 14t-47 31t-76 31t-111 14q-92 0 -163.5 -32.5t-121 -93.5 t-75.5 -147t-26 -194q0 -111 26.5 -197.5t75 -145.5t117 -90t152.5 -31q76 0 127.5 17.5t85.5 39t52 39t26 17.5t13 -6z" />
<glyph unicode="&#xe8;" horiz-adv-x="1036" d="M885 588q0 89 -25.5 158.5t-70 117.5t-105.5 73t-132 25q-84 0 -150.5 -26.5t-114.5 -75.5t-77.5 -118t-38.5 -154h714zM907 121q-20 -25 -56 -49t-82.5 -42.5t-101 -30t-111.5 -11.5q-101 0 -182.5 35.5t-139 102.5t-88.5 164.5t-31 222.5q0 108 29.5 197.5t85.5 154.5 t137 101t184 36q80 0 149.5 -28t121.5 -82.5t81.5 -134.5t29.5 -183q0 -21 -18 -21h-747q-1 -10 -1 -19.5v-20.5q0 -118 28 -208t79 -151t123.5 -92.5t161.5 -31.5q79 0 137 17.5t97 38.5t60.5 38.5t27.5 17.5q8 0 13 -6zM429 1422q20 0 29.5 -5.5t19.5 -20.5l161 -237h-30 q-16 0 -25 12l-208 251h53z" />
<glyph unicode="&#xe9;" horiz-adv-x="1036" d="M885 588q0 89 -25.5 158.5t-70 117.5t-105.5 73t-132 25q-84 0 -150.5 -26.5t-114.5 -75.5t-77.5 -118t-38.5 -154h714zM907 121q-20 -25 -56 -49t-82.5 -42.5t-101 -30t-111.5 -11.5q-101 0 -182.5 35.5t-139 102.5t-88.5 164.5t-31 222.5q0 108 29.5 197.5t85.5 154.5 t137 101t184 36q80 0 149.5 -28t121.5 -82.5t81.5 -134.5t29.5 -183q0 -21 -18 -21h-747q-1 -10 -1 -19.5v-20.5q0 -118 28 -208t79 -151t123.5 -92.5t161.5 -31.5q79 0 137 17.5t97 38.5t60.5 38.5t27.5 17.5q8 0 13 -6zM741 1422l-208 -251q-9 -12 -24 -12h-32l162 237 q10 15 19 20.5t29 5.5h54z" />
<glyph unicode="&#xea;" horiz-adv-x="1036" d="M885 588q0 89 -25.5 158.5t-70 117.5t-105.5 73t-132 25q-84 0 -150.5 -26.5t-114.5 -75.5t-77.5 -118t-38.5 -154h714zM907 121q-20 -25 -56 -49t-82.5 -42.5t-101 -30t-111.5 -11.5q-101 0 -182.5 35.5t-139 102.5t-88.5 164.5t-31 222.5q0 108 29.5 197.5t85.5 154.5 t137 101t184 36q80 0 149.5 -28t121.5 -82.5t81.5 -134.5t29.5 -183q0 -21 -18 -21h-747q-1 -10 -1 -19.5v-20.5q0 -118 28 -208t79 -151t123.5 -92.5t161.5 -31.5q79 0 137 17.5t97 38.5t60.5 38.5t27.5 17.5q8 0 13 -6zM786 1170h-37q-11 0 -21 10l-170 184q-2 2 -3.5 4.5 t-3.5 4.5q-2 -2 -4 -4.5t-4 -4.5l-170 -184q-10 -10 -21 -10h-38l214 236h44z" />
<glyph unicode="&#xeb;" horiz-adv-x="1036" d="M885 588q0 89 -25.5 158.5t-70 117.5t-105.5 73t-132 25q-84 0 -150.5 -26.5t-114.5 -75.5t-77.5 -118t-38.5 -154h714zM907 121q-20 -25 -56 -49t-82.5 -42.5t-101 -30t-111.5 -11.5q-101 0 -182.5 35.5t-139 102.5t-88.5 164.5t-31 222.5q0 108 29.5 197.5t85.5 154.5 t137 101t184 36q80 0 149.5 -28t121.5 -82.5t81.5 -134.5t29.5 -183q0 -21 -18 -21h-747q-1 -10 -1 -19.5v-20.5q0 -118 28 -208t79 -151t123.5 -92.5t161.5 -31.5q79 0 137 17.5t97 38.5t60.5 38.5t27.5 17.5q8 0 13 -6zM448 1282q0 -26 -20.5 -45.5t-46.5 -19.5 q-27 0 -46.5 19.5t-19.5 45.5q0 27 19.5 46.5t46.5 19.5q26 0 46.5 -19.5t20.5 -46.5zM785 1282q0 -26 -20 -45.5t-46 -19.5q-27 0 -47 19.5t-20 45.5q0 27 20 46.5t47 19.5q26 0 46 -19.5t20 -46.5z" />
<glyph unicode="&#xec;" horiz-adv-x="428" d="M240 986v-986h-52v986h52zM94 1422q20 0 29.5 -5.5t19.5 -20.5l161 -237h-30q-16 0 -25 12l-208 251h53z" />
<glyph unicode="&#xed;" horiz-adv-x="428" d="M240 986v-986h-52v986h52zM406 1422l-208 -251q-9 -12 -24 -12h-32l162 237q10 15 19 20.5t29 5.5h54z" />
<glyph unicode="&#xee;" horiz-adv-x="428" d="M240 986v-986h-52v986h52zM451 1170h-37q-11 0 -21 10l-170 184q-2 2 -3.5 4.5t-3.5 4.5q-2 -2 -4 -4.5t-4 -4.5l-170 -184q-10 -10 -21 -10h-38l214 236h44z" />
<glyph unicode="&#xef;" horiz-adv-x="428" d="M240 986v-986h-52v986h52zM152 1282q0 -26 -20.5 -45.5t-46.5 -19.5q-27 0 -46.5 19.5t-19.5 45.5q0 27 19.5 46.5t46.5 19.5q26 0 46.5 -19.5t20.5 -46.5zM411 1282q0 -26 -20 -45.5t-46 -19.5q-27 0 -47 19.5t-20 45.5q0 27 20 46.5t47 19.5q26 0 46 -19.5t20 -46.5z " />
<glyph unicode="&#xf0;" horiz-adv-x="1116" d="M540 31q96 0 168.5 38t121.5 108t75.5 167t29.5 216q-15 55 -45.5 111.5t-78 102t-112.5 74t-148 28.5q-95 0 -166.5 -33t-119.5 -90.5t-72 -135.5t-24 -168q0 -99 30 -176.5t81 -131t118 -82t142 -28.5zM688 1239q64 -45 118 -105.5t93 -139.5t61 -178t22 -220 q0 -135 -27 -247t-81.5 -192t-138 -124t-195.5 -44q-87 0 -164.5 32t-135 92t-91 145t-33.5 192q0 97 28.5 182.5t83 149t134 100t182.5 36.5q54 0 111.5 -15.5t110.5 -48.5t98 -84.5t74 -124.5q-5 105 -27 191.5t-58.5 156t-86 123.5t-108.5 95l-155 -152l-9 13 q-6 6 -6.5 13.5t7.5 13.5l133 131q-66 40 -140.5 66t-154.5 40q-7 2 -14 8t-3 18l5 18q88 -14 174.5 -43t164.5 -78l143 142l10 -14q9 -14 -5 -29z" />
<glyph unicode="&#xf1;" horiz-adv-x="1092" d="M227 795q69 95 164.5 151t208.5 56q82 0 143.5 -25.5t102 -73t61 -116.5t20.5 -156v-631h-53v631q0 77 -17 138t-52.5 103.5t-88.5 65t-125 22.5q-108 0 -199.5 -56.5t-162.5 -156.5v-747h-53v986h25q19 0 20 -20zM663 1257q47 0 70 30.5t25 78.5h33q0 -31 -8 -58 t-23.5 -47t-39.5 -31.5t-56 -11.5q-33 0 -61.5 17.5t-55 38t-53 38t-54.5 17.5q-45 0 -69 -31.5t-26 -77.5h-35q0 31 8.5 58t25 47t40.5 32t55 12q33 0 62 -17.5t55.5 -38.5t52.5 -38.5t54 -17.5z" />
<glyph unicode="&#xf2;" horiz-adv-x="1107" d="M553 1002q105 0 186.5 -36.5t137.5 -103t85 -160.5t29 -209t-29 -208.5t-85 -159.5t-137.5 -101.5t-186.5 -35.5t-186.5 35.5t-137.5 101.5t-85 159.5t-29 208.5t29 209t85 160.5t137.5 103t186.5 36.5zM553 30q96 0 168 33t120.5 94t72.5 146t24 190t-24 191 t-72.5 147.5t-120.5 95t-168 33.5t-168 -33.5t-120.5 -95t-72.5 -147.5t-24 -191t24 -190t72.5 -146t120.5 -94t168 -33zM434 1422q20 0 29.5 -5.5t19.5 -20.5l161 -237h-30q-16 0 -25 12l-208 251h53z" />
<glyph unicode="&#xf3;" horiz-adv-x="1107" d="M553 1002q105 0 186.5 -36.5t137.5 -103t85 -160.5t29 -209t-29 -208.5t-85 -159.5t-137.5 -101.5t-186.5 -35.5t-186.5 35.5t-137.5 101.5t-85 159.5t-29 208.5t29 209t85 160.5t137.5 103t186.5 36.5zM553 30q96 0 168 33t120.5 94t72.5 146t24 190t-24 191 t-72.5 147.5t-120.5 95t-168 33.5t-168 -33.5t-120.5 -95t-72.5 -147.5t-24 -191t24 -190t72.5 -146t120.5 -94t168 -33zM746 1422l-208 -251q-9 -12 -24 -12h-32l162 237q10 15 19 20.5t29 5.5h54z" />
<glyph unicode="&#xf4;" horiz-adv-x="1107" d="M553 1002q105 0 186.5 -36.5t137.5 -103t85 -160.5t29 -209t-29 -208.5t-85 -159.5t-137.5 -101.5t-186.5 -35.5t-186.5 35.5t-137.5 101.5t-85 159.5t-29 208.5t29 209t85 160.5t137.5 103t186.5 36.5zM553 30q96 0 168 33t120.5 94t72.5 146t24 190t-24 191 t-72.5 147.5t-120.5 95t-168 33.5t-168 -33.5t-120.5 -95t-72.5 -147.5t-24 -191t24 -190t72.5 -146t120.5 -94t168 -33zM791 1170h-37q-11 0 -21 10l-170 184q-2 2 -3.5 4.5t-3.5 4.5q-2 -2 -4 -4.5t-4 -4.5l-170 -184q-10 -10 -21 -10h-38l214 236h44z" />
<glyph unicode="&#xf5;" horiz-adv-x="1107" d="M553 1002q105 0 186.5 -36.5t137.5 -103t85 -160.5t29 -209t-29 -208.5t-85 -159.5t-137.5 -101.5t-186.5 -35.5t-186.5 35.5t-137.5 101.5t-85 159.5t-29 208.5t29 209t85 160.5t137.5 103t186.5 36.5zM553 30q96 0 168 33t120.5 94t72.5 146t24 190t-24 191 t-72.5 147.5t-120.5 95t-168 33.5t-168 -33.5t-120.5 -95t-72.5 -147.5t-24 -191t24 -190t72.5 -146t120.5 -94t168 -33zM672 1257q47 0 70 30.5t25 78.5h33q0 -31 -8 -58t-23.5 -47t-39.5 -31.5t-56 -11.5q-33 0 -61.5 17.5t-55 38t-53 38t-54.5 17.5q-45 0 -69 -31.5 t-26 -77.5h-35q0 31 8.5 58t25 47t40.5 32t55 12q33 0 62 -17.5t55.5 -38.5t52.5 -38.5t54 -17.5z" />
<glyph unicode="&#xf6;" horiz-adv-x="1107" d="M553 1002q105 0 186.5 -36.5t137.5 -103t85 -160.5t29 -209t-29 -208.5t-85 -159.5t-137.5 -101.5t-186.5 -35.5t-186.5 35.5t-137.5 101.5t-85 159.5t-29 208.5t29 209t85 160.5t137.5 103t186.5 36.5zM553 30q96 0 168 33t120.5 94t72.5 146t24 190t-24 191 t-72.5 147.5t-120.5 95t-168 33.5t-168 -33.5t-120.5 -95t-72.5 -147.5t-24 -191t24 -190t72.5 -146t120.5 -94t168 -33zM453 1282q0 -26 -20.5 -45.5t-46.5 -19.5q-27 0 -46.5 19.5t-19.5 45.5q0 27 19.5 46.5t46.5 19.5q26 0 46.5 -19.5t20.5 -46.5zM790 1282 q0 -26 -20 -45.5t-46 -19.5q-27 0 -47 19.5t-20 45.5q0 27 20 46.5t47 19.5q26 0 46 -19.5t20 -46.5z" />
<glyph unicode="&#xf7;" horiz-adv-x="1160" d="M115 691h928v-41h-928v41zM503 1024q0 32 21.5 54.5t53.5 22.5t54.5 -22.5t22.5 -54.5t-22.5 -53.5t-54.5 -21.5t-53.5 21.5t-21.5 53.5zM503 312q0 32 21.5 54.5t53.5 22.5t54.5 -22.5t22.5 -54.5t-22.5 -53.5t-54.5 -21.5t-53.5 21.5t-21.5 53.5z" />
<glyph unicode="&#xf8;" horiz-adv-x="1104" d="M308 110q47 -39 108 -60t137 -21q96 0 168.5 33.5t121 94t73 146t24.5 190.5t-23.5 190t-71.5 146zM820 858q-48 50 -114.5 76.5t-152.5 26.5q-96 0 -168.5 -34t-121 -95.5t-73 -147.5t-24.5 -191q0 -115 28.5 -205t85.5 -152zM873 867q58 -67 88 -161.5t30 -212.5 q0 -115 -29 -208.5t-85 -159.5t-137.5 -101.5t-186.5 -35.5q-83 0 -150.5 22t-120.5 64l-97 -129q-8 -11 -18 -15t-20 -4h-24l130 174q-68 66 -103 165.5t-35 227.5q0 115 29 209t85 160.5t137.5 103t186.5 36.5q92 0 165.5 -27.5t128.5 -79.5l97 130q7 10 13 14.5t18 4.5 h30z" />
<glyph unicode="&#xf9;" horiz-adv-x="1090" d="M916 986v-986h-24q-18 0 -21 20l-5 172q-70 -95 -165 -151.5t-209 -56.5q-82 0 -143.5 25.5t-102 73t-61 116.5t-20.5 156v631h53v-631q0 -77 17 -138t52.5 -103.5t89 -65t125.5 -22.5q107 0 198.5 56.5t163.5 156.5v747h52zM426 1422q20 0 29.5 -5.5t19.5 -20.5 l161 -237h-30q-16 0 -25 12l-208 251h53z" />
<glyph unicode="&#xfa;" horiz-adv-x="1090" d="M916 986v-986h-24q-18 0 -21 20l-5 172q-70 -95 -165 -151.5t-209 -56.5q-82 0 -143.5 25.5t-102 73t-61 116.5t-20.5 156v631h53v-631q0 -77 17 -138t52.5 -103.5t89 -65t125.5 -22.5q107 0 198.5 56.5t163.5 156.5v747h52zM738 1422l-208 -251q-9 -12 -24 -12h-32 l162 237q10 15 19 20.5t29 5.5h54z" />
<glyph unicode="&#xfb;" horiz-adv-x="1090" d="M916 986v-986h-24q-18 0 -21 20l-5 172q-70 -95 -165 -151.5t-209 -56.5q-82 0 -143.5 25.5t-102 73t-61 116.5t-20.5 156v631h53v-631q0 -77 17 -138t52.5 -103.5t89 -65t125.5 -22.5q107 0 198.5 56.5t163.5 156.5v747h52zM783 1170h-37q-11 0 -21 10l-170 184 q-2 2 -3.5 4.5t-3.5 4.5q-2 -2 -4 -4.5t-4 -4.5l-170 -184q-10 -10 -21 -10h-38l214 236h44z" />
<glyph unicode="&#xfc;" horiz-adv-x="1090" d="M916 986v-986h-24q-18 0 -21 20l-5 172q-70 -95 -165 -151.5t-209 -56.5q-82 0 -143.5 25.5t-102 73t-61 116.5t-20.5 156v631h53v-631q0 -77 17 -138t52.5 -103.5t89 -65t125.5 -22.5q107 0 198.5 56.5t163.5 156.5v747h52zM445 1282q0 -26 -20.5 -45.5t-46.5 -19.5 q-27 0 -46.5 19.5t-19.5 45.5q0 27 19.5 46.5t46.5 19.5q26 0 46.5 -19.5t20.5 -46.5zM782 1282q0 -26 -20 -45.5t-46 -19.5q-27 0 -47 19.5t-20 45.5q0 27 20 46.5t47 19.5q26 0 46 -19.5t20 -46.5z" />
<glyph unicode="&#xfd;" horiz-adv-x="989" d="M943 986l-575 -1317q-5 -10 -12 -18t-20 -8h-35l170 381l-422 962h40q11 0 17.5 -6t8.5 -12l368 -844q10 -22 15 -46q7 21 17 46l366 844q4 8 10.5 13t14.5 5h37zM714 1422l-208 -251q-9 -12 -24 -12h-32l162 237q10 15 19 20.5t29 5.5h54z" />
<glyph unicode="&#xfe;" horiz-adv-x="1093" d="M229 205q61 -97 136 -136.5t173 -39.5q97 0 169 35.5t120 98.5t72 149t24 187q0 235 -89 348t-258 113q-104 0 -192.5 -57t-154.5 -158v-540zM229 796q66 96 157 151t201 55q187 0 288.5 -124t101.5 -379q0 -108 -27.5 -201t-82 -162t-135 -108.5t-186.5 -39.5 q-208 0 -317 166v-511h-53v1803h53v-650z" />
<glyph unicode="&#xff;" horiz-adv-x="989" d="M943 986l-575 -1317q-5 -10 -12 -18t-20 -8h-35l170 381l-422 962h40q11 0 17.5 -6t8.5 -12l368 -844q10 -22 15 -46q7 21 17 46l366 844q4 8 10.5 13t14.5 5h37zM421 1282q0 -26 -20.5 -45.5t-46.5 -19.5q-27 0 -46.5 19.5t-19.5 45.5q0 27 19.5 46.5t46.5 19.5 q26 0 46.5 -19.5t20.5 -46.5zM758 1282q0 -26 -20 -45.5t-46 -19.5q-27 0 -47 19.5t-20 45.5q0 27 20 46.5t47 19.5q26 0 46 -19.5t20 -46.5z" />
<glyph unicode="&#x100;" horiz-adv-x="1289" d="M987 504l-322 783q-11 27 -21 60q-9 -33 -21 -60l-322 -783h686zM1253 0h-43q-15 0 -22 17l-183 445h-722l-183 -445q-5 -17 -23 -17h-41l582 1406h53zM405 1660h478v-36h-478v36z" />
<glyph unicode="&#x101;" horiz-adv-x="955" d="M737 494q-302 -10 -446.5 -75t-144.5 -183q0 -55 18.5 -95t49 -66.5t69.5 -39t80 -12.5q64 0 117 14.5t98 39.5t84 59t75 72v286zM147 846q74 76 155 116t185 40q77 0 134 -24.5t94.5 -70.5t55.5 -111.5t18 -147.5v-648h-18q-20 0 -23 21l-10 146q-41 -42 -82 -76 t-87 -57.5t-99 -36.5t-117 -13q-47 0 -93 14t-83 44t-59.5 77.5t-22.5 114.5q0 65 37.5 118t116.5 91.5t200 61t288 26.5v117q0 148 -64 230t-190 82q-75 0 -129 -21.5t-90 -48t-57.5 -48t-32.5 -21.5q-10 0 -18 11zM204 1301h530v-38h-530v38z" />
<glyph unicode="&#x102;" horiz-adv-x="1289" d="M987 504l-322 783q-11 27 -21 60q-9 -33 -21 -60l-322 -783h686zM1253 0h-43q-15 0 -22 17l-183 445h-722l-183 -445q-5 -17 -23 -17h-41l582 1406h53zM643 1542q-127 0 -185 60.5t-58 185.5h44q0 -50 10.5 -89t34 -66t61.5 -41t93 -14t93 14t62 41t34.5 66t10.5 89h43 q0 -122 -58 -184t-185 -62z" />
<glyph unicode="&#x103;" horiz-adv-x="955" d="M737 494q-302 -10 -446.5 -75t-144.5 -183q0 -55 18.5 -95t49 -66.5t69.5 -39t80 -12.5q64 0 117 14.5t98 39.5t84 59t75 72v286zM147 846q74 76 155 116t185 40q77 0 134 -24.5t94.5 -70.5t55.5 -111.5t18 -147.5v-648h-18q-20 0 -23 21l-10 146q-41 -42 -82 -76 t-87 -57.5t-99 -36.5t-117 -13q-47 0 -93 14t-83 44t-59.5 77.5t-22.5 114.5q0 65 37.5 118t116.5 91.5t200 61t288 26.5v117q0 148 -64 230t-190 82q-75 0 -129 -21.5t-90 -48t-57.5 -48t-32.5 -21.5q-10 0 -18 11zM469 1171q-60 0 -102 18.5t-69 51t-39 75t-12 90.5h40 q0 -39 9.5 -75t31 -63t56 -43.5t85.5 -16.5t85.5 16.5t56 43.5t31 63t9.5 75h40q0 -48 -12 -90.5t-39 -75t-69 -51t-102 -18.5z" />
<glyph unicode="&#x104;" horiz-adv-x="1289" d="M987 504l-322 783q-11 27 -21 60q-9 -33 -21 -60l-322 -783h686zM1373 -282q-26 -25 -66.5 -39t-84.5 -14q-70 0 -115 35.5t-45 103.5q0 32 12.5 61t32 54.5t44.5 46.5t49 37q-5 2 -7.5 5.5t-4.5 8.5l-183 445h-722l-183 -445q-5 -17 -23 -17h-41l582 1406h53l582 -1406 h-8q-20 -11 -44.5 -29t-46 -42t-36 -53.5t-14.5 -63.5q0 -53 36 -82t90 -29q31 0 52 6t35 13.5t22.5 14t13.5 6.5q6 0 10 -6z" />
<glyph unicode="&#x105;" horiz-adv-x="955" d="M737 494q-302 -10 -446.5 -75t-144.5 -183q0 -55 18.5 -95t49 -66.5t69.5 -39t80 -12.5q64 0 117 14.5t98 39.5t84 59t75 72v286zM917 -282q-26 -25 -66.5 -39t-84.5 -14q-70 0 -115 35.5t-45 103.5q0 33 13.5 63.5t34.5 56.5t47 47t52 37q-3 4 -5 13l-10 146 q-41 -42 -82 -76t-87 -57.5t-99 -36.5t-117 -13q-47 0 -93 14t-83 44t-59.5 77.5t-22.5 114.5q0 65 37.5 118t116.5 91.5t200 61t288 26.5v117q0 148 -64 230t-190 82q-75 0 -129 -21.5t-90 -48t-57.5 -48t-32.5 -21.5q-10 0 -18 11l-9 14q74 76 155 116t185 40 q77 0 134 -24.5t94.5 -70.5t55.5 -111.5t18 -147.5v-648q-20 -11 -44.5 -29t-46 -42t-36 -53.5t-14.5 -63.5q0 -53 36 -82t90 -29q31 0 52 6t35 13.5t22.5 14t13.5 6.5q6 0 10 -6z" />
<glyph unicode="&#x106;" horiz-adv-x="1360" d="M1252 209q4 0 11 -5l21 -22q-44 -44 -95 -80.5t-112 -62.5t-133.5 -40.5t-159.5 -14.5q-143 0 -263.5 50.5t-207.5 144t-136 226.5t-49 298q0 161 49 293.5t138.5 227t214 146.5t274.5 52q141 0 250 -43t203 -124l-15 -22q-4 -7 -16 -7q-6 0 -20.5 11t-38 27.5t-57 36 t-78.5 36t-102 27.5t-126 11q-136 0 -250 -47t-196 -134t-127.5 -211.5t-45.5 -279.5q0 -158 45.5 -282.5t126.5 -211t191 -132.5t239 -46q81 0 145 11t117.5 33t99 54t90.5 73q7 7 13 7zM1114 1836l-329 -288q-10 -9 -26 -9h-34l272 279q10 11 20 14.5t30 3.5h67z" />
<glyph unicode="&#x107;" horiz-adv-x="937" d="M827 878q-3 -3 -6 -5.5t-8 -2.5q-8 0 -25 14t-47 31t-76 31t-111 14q-92 0 -163.5 -32.5t-121 -93.5t-75.5 -147t-26 -194q0 -111 26.5 -197.5t75 -145.5t117 -90t152.5 -31q76 0 127.5 17.5t85.5 39t52 39t26 17.5t13 -6l12 -15q-18 -25 -49.5 -49t-73 -42.5t-92 -30 t-107.5 -11.5q-95 0 -172 34t-131.5 99t-84.5 159t-30 213q0 114 29.5 208t85.5 160.5t137 103.5t185 37q92 0 164 -29.5t124 -77.5zM742 1422l-208 -251q-9 -12 -24 -12h-32l162 237q10 15 19 20.5t29 5.5h54z" />
<glyph unicode="&#x108;" horiz-adv-x="1360" d="M1252 209q4 0 11 -5l21 -22q-44 -44 -95 -80.5t-112 -62.5t-133.5 -40.5t-159.5 -14.5q-143 0 -263.5 50.5t-207.5 144t-136 226.5t-49 298q0 161 49 293.5t138.5 227t214 146.5t274.5 52q141 0 250 -43t203 -124l-15 -22q-4 -7 -16 -7q-6 0 -20.5 11t-38 27.5t-57 36 t-78.5 36t-102 27.5t-126 11q-136 0 -250 -47t-196 -134t-127.5 -211.5t-45.5 -279.5q0 -158 45.5 -282.5t126.5 -211t191 -132.5t239 -46q81 0 145 11t117.5 33t99 54t90.5 73q7 7 13 7zM1068 1539h-40q-6 0 -13.5 2t-14.5 10l-182 209q-4 3 -5 8q-2 -5 -5 -8l-182 -209 q-7 -8 -14.5 -10t-13.5 -2h-39l233 266h43z" />
<glyph unicode="&#x109;" horiz-adv-x="937" d="M827 878q-3 -3 -6 -5.5t-8 -2.5q-8 0 -25 14t-47 31t-76 31t-111 14q-92 0 -163.5 -32.5t-121 -93.5t-75.5 -147t-26 -194q0 -111 26.5 -197.5t75 -145.5t117 -90t152.5 -31q76 0 127.5 17.5t85.5 39t52 39t26 17.5t13 -6l12 -15q-18 -25 -49.5 -49t-73 -42.5t-92 -30 t-107.5 -11.5q-95 0 -172 34t-131.5 99t-84.5 159t-30 213q0 114 29.5 208t85.5 160.5t137 103.5t185 37q92 0 164 -29.5t124 -77.5zM787 1170h-37q-11 0 -21 10l-170 184q-2 2 -3.5 4.5t-3.5 4.5q-2 -2 -4 -4.5t-4 -4.5l-170 -184q-10 -10 -21 -10h-38l214 236h44z" />
<glyph unicode="&#x10a;" horiz-adv-x="1360" d="M1252 209q4 0 11 -5l21 -22q-44 -44 -95 -80.5t-112 -62.5t-133.5 -40.5t-159.5 -14.5q-143 0 -263.5 50.5t-207.5 144t-136 226.5t-49 298q0 161 49 293.5t138.5 227t214 146.5t274.5 52q141 0 250 -43t203 -124l-15 -22q-4 -7 -16 -7q-6 0 -20.5 11t-38 27.5t-57 36 t-78.5 36t-102 27.5t-126 11q-136 0 -250 -47t-196 -134t-127.5 -211.5t-45.5 -279.5q0 -158 45.5 -282.5t126.5 -211t191 -132.5t239 -46q81 0 145 11t117.5 33t99 54t90.5 73q7 7 13 7zM880 1672q0 -13 -5.5 -25t-15 -21.5t-22 -15t-25.5 -5.5q-28 0 -48 20.5t-20 46.5 q0 27 20 47.5t48 20.5q13 0 25.5 -5.5t22 -15t15 -22t5.5 -25.5z" />
<glyph unicode="&#x10b;" horiz-adv-x="937" d="M827 878q-3 -3 -6 -5.5t-8 -2.5q-8 0 -25 14t-47 31t-76 31t-111 14q-92 0 -163.5 -32.5t-121 -93.5t-75.5 -147t-26 -194q0 -111 26.5 -197.5t75 -145.5t117 -90t152.5 -31q76 0 127.5 17.5t85.5 39t52 39t26 17.5t13 -6l12 -15q-18 -25 -49.5 -49t-73 -42.5t-92 -30 t-107.5 -11.5q-95 0 -172 34t-131.5 99t-84.5 159t-30 213q0 114 29.5 208t85.5 160.5t137 103.5t185 37q92 0 164 -29.5t124 -77.5zM620 1356q0 -13 -6 -25t-15.5 -21.5t-22 -15t-25.5 -5.5q-14 0 -26.5 5.5t-22 15t-15 21.5t-5.5 25q0 28 20.5 48.5t48.5 20.5 q13 0 25.5 -5.5t22 -15t15.5 -22t6 -26.5z" />
<glyph unicode="&#x10c;" horiz-adv-x="1360" d="M1252 209q4 0 11 -5l21 -22q-44 -44 -95 -80.5t-112 -62.5t-133.5 -40.5t-159.5 -14.5q-143 0 -263.5 50.5t-207.5 144t-136 226.5t-49 298q0 161 49 293.5t138.5 227t214 146.5t274.5 52q141 0 250 -43t203 -124l-15 -22q-4 -7 -16 -7q-6 0 -20.5 11t-38 27.5t-57 36 t-78.5 36t-102 27.5t-126 11q-136 0 -250 -47t-196 -134t-127.5 -211.5t-45.5 -279.5q0 -158 45.5 -282.5t126.5 -211t191 -132.5t239 -46q81 0 145 11t117.5 33t99 54t90.5 73q7 7 13 7zM1068 1805l-233 -266h-44l-233 266h40q6 0 13.5 -1.5t13.5 -9.5l183 -219l5 -7l5 7 l183 219q6 8 13.5 9.5t13.5 1.5h40z" />
<glyph unicode="&#x10d;" horiz-adv-x="937" d="M827 878q-3 -3 -6 -5.5t-8 -2.5q-8 0 -25 14t-47 31t-76 31t-111 14q-92 0 -163.5 -32.5t-121 -93.5t-75.5 -147t-26 -194q0 -111 26.5 -197.5t75 -145.5t117 -90t152.5 -31q76 0 127.5 17.5t85.5 39t52 39t26 17.5t13 -6l12 -15q-18 -25 -49.5 -49t-73 -42.5t-92 -30 t-107.5 -11.5q-95 0 -172 34t-131.5 99t-84.5 159t-30 213q0 114 29.5 208t85.5 160.5t137 103.5t185 37q92 0 164 -29.5t124 -77.5zM787 1406l-214 -236h-44l-214 236h38q5 0 10.5 -3t9.5 -6l170 -185q6 -6 8 -9q2 2 4 4.5t4 4.5l171 185q9 9 20 9h37z" />
<glyph unicode="&#x10e;" horiz-adv-x="1519" d="M1388 703q0 -165 -48 -295.5t-135 -221t-208 -138.5t-267 -48h-507v1406h507q146 0 267 -48t208 -138.5t135 -221t48 -295.5zM1330 703q0 157 -43.5 279.5t-123 206.5t-190 128t-243.5 44h-452v-1316h452q133 0 243.5 44t190 128t123 206.5t43.5 279.5zM949 1805 l-233 -266h-44l-233 266h40q6 0 13.5 -1.5t13.5 -9.5l183 -219l5 -7l5 7l183 219q6 8 13.5 9.5t13.5 1.5h40z" />
<glyph unicode="&#x10f;" horiz-adv-x="1093" d="M864 787q-62 95 -137 134.5t-172 39.5t-169 -35.5t-120 -98.5t-72 -149t-24 -187q0 -235 88.5 -348t258.5 -113q104 0 192.5 57t154.5 158v542zM917 1446v-1446h-24q-20 0 -21 20l-6 176q-66 -97 -157.5 -152.5t-202.5 -55.5q-188 0 -289 124t-101 379q0 108 27.5 201 t82 162t135 108.5t186.5 39.5t183.5 -40.5t133.5 -121.5v606h53zM1144 1448q11 0 15 -6t4 -18q0 -11 -3.5 -29.5t-10 -48t-17.5 -71t-26 -98.5q-3 -8 -8 -13t-16 -5h-16l48 289h30z" />
<glyph unicode="&#x110;" horiz-adv-x="1531" d="M741 45q134 0 244.5 44t190 128t123 206.5t43.5 279.5t-43.5 279.5t-123 206.5t-190 128t-244.5 44h-451v-628h334v-38h-334v-650h451zM741 1406q147 0 268 -48t208 -138.5t135 -221t48 -295.5t-48 -295.5t-135 -221t-208 -138.5t-268 -48h-506v695h-226v38h226v673h506z " />
<glyph unicode="&#x111;" horiz-adv-x="1093" d="M865 781q-31 48 -64.5 81.5t-72 54.5t-81.5 30.5t-92 9.5q-97 0 -169 -35.5t-120 -98t-72 -148t-24 -186.5q0 -235 89 -347t258 -112q106 0 194 57t154 159v535zM1073 1165h-156v-1165h-24q-18 0 -21 20l-5 177q-66 -97 -157.5 -153t-202.5 -56q-188 0 -289.5 123 t-101.5 378q0 108 28 201t82.5 161.5t135 107.5t186.5 39q208 0 317 -163v330h-254v37h254v244h52v-244h156v-37z" />
<glyph unicode="&#x112;" horiz-adv-x="1163" d="M1055 47l-2 -47h-830v1406h830v-47h-775v-623h653v-46h-653v-643h777zM407 1660h478v-36h-478v36z" />
<glyph unicode="&#x113;" horiz-adv-x="1036" d="M885 588q0 89 -25.5 158.5t-70 117.5t-105.5 73t-132 25q-84 0 -150.5 -26.5t-114.5 -75.5t-77.5 -118t-38.5 -154h714zM907 121q-20 -25 -56 -49t-82.5 -42.5t-101 -30t-111.5 -11.5q-101 0 -182.5 35.5t-139 102.5t-88.5 164.5t-31 222.5q0 108 29.5 197.5t85.5 154.5 t137 101t184 36q80 0 149.5 -28t121.5 -82.5t81.5 -134.5t29.5 -183q0 -21 -18 -21h-747q-1 -10 -1 -19.5v-20.5q0 -118 28 -208t79 -151t123.5 -92.5t161.5 -31.5q79 0 137 17.5t97 38.5t60.5 38.5t27.5 17.5q8 0 13 -6zM285 1301h530v-38h-530v38z" />
<glyph unicode="&#x114;" horiz-adv-x="1163" d="M1055 47l-2 -47h-830v1406h830v-47h-775v-623h653v-46h-653v-643h777zM645 1542q-127 0 -185 60.5t-58 185.5h44q0 -50 10.5 -89t34 -66t61.5 -41t93 -14t93 14t62 41t34.5 66t10.5 89h43q0 -122 -58 -184t-185 -62z" />
<glyph unicode="&#x115;" horiz-adv-x="1036" d="M885 588q0 89 -25.5 158.5t-70 117.5t-105.5 73t-132 25q-84 0 -150.5 -26.5t-114.5 -75.5t-77.5 -118t-38.5 -154h714zM907 121q-20 -25 -56 -49t-82.5 -42.5t-101 -30t-111.5 -11.5q-101 0 -182.5 35.5t-139 102.5t-88.5 164.5t-31 222.5q0 108 29.5 197.5t85.5 154.5 t137 101t184 36q80 0 149.5 -28t121.5 -82.5t81.5 -134.5t29.5 -183q0 -21 -18 -21h-747q-1 -10 -1 -19.5v-20.5q0 -118 28 -208t79 -151t123.5 -92.5t161.5 -31.5q79 0 137 17.5t97 38.5t60.5 38.5t27.5 17.5q8 0 13 -6zM550 1171q-60 0 -102 18.5t-69 51t-39 75t-12 90.5 h40q0 -39 9.5 -75t31 -63t56 -43.5t85.5 -16.5t85.5 16.5t56 43.5t31 63t9.5 75h40q0 -48 -12 -90.5t-39 -75t-69 -51t-102 -18.5z" />
<glyph unicode="&#x116;" horiz-adv-x="1163" d="M1055 47l-2 -47h-830v1406h830v-47h-775v-623h653v-46h-653v-643h777zM712 1672q0 -13 -5.5 -25t-15 -21.5t-22 -15t-25.5 -5.5q-28 0 -48 20.5t-20 46.5q0 27 20 47.5t48 20.5q13 0 25.5 -5.5t22 -15t15 -22t5.5 -25.5z" />
<glyph unicode="&#x117;" horiz-adv-x="1036" d="M885 588q0 89 -25.5 158.5t-70 117.5t-105.5 73t-132 25q-84 0 -150.5 -26.5t-114.5 -75.5t-77.5 -118t-38.5 -154h714zM907 121q-20 -25 -56 -49t-82.5 -42.5t-101 -30t-111.5 -11.5q-101 0 -182.5 35.5t-139 102.5t-88.5 164.5t-31 222.5q0 108 29.5 197.5t85.5 154.5 t137 101t184 36q80 0 149.5 -28t121.5 -82.5t81.5 -134.5t29.5 -183q0 -21 -18 -21h-747q-1 -10 -1 -19.5v-20.5q0 -118 28 -208t79 -151t123.5 -92.5t161.5 -31.5q79 0 137 17.5t97 38.5t60.5 38.5t27.5 17.5q8 0 13 -6zM619 1356q0 -13 -6 -25t-15.5 -21.5t-22 -15 t-25.5 -5.5q-14 0 -26.5 5.5t-22 15t-15 21.5t-5.5 25q0 28 20.5 48.5t48.5 20.5q13 0 25.5 -5.5t22 -15t15.5 -22t6 -26.5z" />
<glyph unicode="&#x118;" horiz-adv-x="1163" d="M1090 -282q-26 -25 -66.5 -39t-84.5 -14q-70 0 -115 35.5t-45 103.5q0 31 12 59.5t31 53.5t43 46t48 37h-690v1406h830v-47h-775v-623h653v-46h-653v-643h777l-2 -47h-91q-20 -11 -44.5 -29t-46 -42t-36 -53.5t-14.5 -63.5q0 -53 36 -82t90 -29q31 0 52 6t35 13.5 t22.5 14t13.5 6.5q6 0 10 -6z" />
<glyph unicode="&#x119;" horiz-adv-x="1036" d="M885 588q0 89 -25.5 158.5t-70 117.5t-105.5 73t-132 25q-84 0 -150.5 -26.5t-114.5 -75.5t-77.5 -118t-38.5 -154h714zM784 -282q-26 -25 -66.5 -39t-84.5 -14q-70 0 -115 35.5t-45 103.5q0 29 10 55.5t26.5 50t38 43.5t43.5 36q-8 -1 -17 -1h-18q-101 0 -182.5 35.5 t-139 102.5t-88.5 164.5t-31 222.5q0 108 29.5 197.5t85.5 154.5t137 101t184 36q80 0 149.5 -28t121.5 -82.5t81.5 -134.5t29.5 -183q0 -21 -18 -21h-747q-1 -10 -1 -19.5v-20.5q0 -118 28 -208t79 -151t123.5 -92.5t161.5 -31.5q79 0 137 17.5t97 38.5t60.5 38.5 t27.5 17.5q8 0 13 -6l13 -15q-16 -20 -42 -39t-59.5 -35.5t-73.5 -30t-83 -20.5q-20 -12 -43.5 -30t-43.5 -41.5t-33.5 -51.5t-13.5 -61q0 -53 36 -82t90 -29q31 0 52 6t35 13.5t22.5 14t13.5 6.5q6 0 10 -6z" />
<glyph unicode="&#x11a;" horiz-adv-x="1163" d="M1055 47l-2 -47h-830v1406h830v-47h-775v-623h653v-46h-653v-643h777zM901 1805l-233 -266h-44l-233 266h40q6 0 13.5 -1.5t13.5 -9.5l183 -219l5 -7l5 7l183 219q6 8 13.5 9.5t13.5 1.5h40z" />
<glyph unicode="&#x11b;" horiz-adv-x="1036" d="M885 588q0 89 -25.5 158.5t-70 117.5t-105.5 73t-132 25q-84 0 -150.5 -26.5t-114.5 -75.5t-77.5 -118t-38.5 -154h714zM907 121q-20 -25 -56 -49t-82.5 -42.5t-101 -30t-111.5 -11.5q-101 0 -182.5 35.5t-139 102.5t-88.5 164.5t-31 222.5q0 108 29.5 197.5t85.5 154.5 t137 101t184 36q80 0 149.5 -28t121.5 -82.5t81.5 -134.5t29.5 -183q0 -21 -18 -21h-747q-1 -10 -1 -19.5v-20.5q0 -118 28 -208t79 -151t123.5 -92.5t161.5 -31.5q79 0 137 17.5t97 38.5t60.5 38.5t27.5 17.5q8 0 13 -6zM786 1406l-214 -236h-44l-214 236h38q5 0 10.5 -3 t9.5 -6l170 -185q6 -6 8 -9q2 2 4 4.5t4 4.5l171 185q9 9 20 9h37z" />
<glyph unicode="&#x11c;" horiz-adv-x="1476" d="M1336 618v-480q-104 -71 -224 -112.5t-271 -41.5q-165 0 -297 50.5t-224.5 144t-141.5 226.5t-49 298t48.5 297.5t139.5 226.5t220 144.5t290 50.5q79 0 145.5 -10t123.5 -30.5t107.5 -51.5t97.5 -72l-14 -21q-8 -12 -23 -8q-10 3 -36.5 26t-77.5 49.5t-130.5 48.5 t-193.5 22q-147 0 -265.5 -46t-202 -133t-128.5 -211.5t-45 -281.5q0 -156 45 -281t129.5 -212.5t206 -134t274.5 -46.5q69 0 128.5 9t112.5 26t103 41.5t101 55.5v413h-297q-7 0 -12 5t-5 11v28h365zM1092 1539h-40q-6 0 -13.5 2t-14.5 10l-182 209q-4 3 -5 8q-2 -5 -5 -8 l-182 -209q-7 -8 -14.5 -10t-13.5 -2h-39l233 266h43z" />
<glyph unicode="&#x11d;" horiz-adv-x="1011" d="M487 411q69 0 123.5 20t92 56.5t57 87t19.5 112.5q0 61 -20 112t-57.5 87t-92 56t-122.5 20t-122 -20t-91.5 -56t-57.5 -87t-20 -112q0 -62 20 -112.5t57.5 -87t91.5 -56.5t122 -20zM886 -74q0 52 -26.5 84t-70 49.5t-100.5 24.5t-118.5 10l-123 6t-114.5 13 q-44 -16 -80.5 -37.5t-63 -48.5t-41.5 -60t-15 -72q0 -48 25 -90t72.5 -72.5t115.5 -48.5t154 -18q78 0 148 19t123 53.5t84 82.5t31 105zM949 940v-16q0 -8 -6 -13t-15 -6l-177 -7q37 -41 57 -94t20 -116q0 -71 -24.5 -129t-69 -99.5t-107.5 -64t-140 -22.5q-94 0 -166 33 q-47 -27 -75.5 -65.5t-28.5 -73.5q0 -47 31 -72t81 -37t114.5 -15.5t132 -6.5t132 -11t114.5 -29t81 -60t31 -104q0 -60 -30.5 -115.5t-87.5 -97.5t-137.5 -67.5t-179.5 -25.5q-101 0 -178.5 21t-130 57.5t-79 84.5t-26.5 102q0 81 55 140.5t150 91.5q-54 16 -86.5 47 t-32.5 88q0 20 8.5 42.5t24 44t37.5 41.5t50 35q-69 40 -107 108.5t-38 158.5q0 70 24 127.5t68.5 99t107.5 64.5t141 23q65 0 119.5 -16t96.5 -46h246zM747 1170h-37q-11 0 -21 10l-170 184q-2 2 -3.5 4.5t-3.5 4.5q-2 -2 -4 -4.5t-4 -4.5l-170 -184q-10 -10 -21 -10h-38 l214 236h44z" />
<glyph unicode="&#x11e;" horiz-adv-x="1476" d="M1336 618v-480q-104 -71 -224 -112.5t-271 -41.5q-165 0 -297 50.5t-224.5 144t-141.5 226.5t-49 298t48.5 297.5t139.5 226.5t220 144.5t290 50.5q79 0 145.5 -10t123.5 -30.5t107.5 -51.5t97.5 -72l-14 -21q-8 -12 -23 -8q-10 3 -36.5 26t-77.5 49.5t-130.5 48.5 t-193.5 22q-147 0 -265.5 -46t-202 -133t-128.5 -211.5t-45 -281.5q0 -156 45 -281t129.5 -212.5t206 -134t274.5 -46.5q69 0 128.5 9t112.5 26t103 41.5t101 55.5v413h-297q-7 0 -12 5t-5 11v28h365zM836 1542q-127 0 -185 60.5t-58 185.5h44q0 -50 10.5 -89t34 -66 t61.5 -41t93 -14t93 14t62 41t34.5 66t10.5 89h43q0 -122 -58 -184t-185 -62z" />
<glyph unicode="&#x11f;" horiz-adv-x="1011" d="M487 411q69 0 123.5 20t92 56.5t57 87t19.5 112.5q0 61 -20 112t-57.5 87t-92 56t-122.5 20t-122 -20t-91.5 -56t-57.5 -87t-20 -112q0 -62 20 -112.5t57.5 -87t91.5 -56.5t122 -20zM886 -74q0 52 -26.5 84t-70 49.5t-100.5 24.5t-118.5 10l-123 6t-114.5 13 q-44 -16 -80.5 -37.5t-63 -48.5t-41.5 -60t-15 -72q0 -48 25 -90t72.5 -72.5t115.5 -48.5t154 -18q78 0 148 19t123 53.5t84 82.5t31 105zM949 940v-16q0 -8 -6 -13t-15 -6l-177 -7q37 -41 57 -94t20 -116q0 -71 -24.5 -129t-69 -99.5t-107.5 -64t-140 -22.5q-94 0 -166 33 q-47 -27 -75.5 -65.5t-28.5 -73.5q0 -47 31 -72t81 -37t114.5 -15.5t132 -6.5t132 -11t114.5 -29t81 -60t31 -104q0 -60 -30.5 -115.5t-87.5 -97.5t-137.5 -67.5t-179.5 -25.5q-101 0 -178.5 21t-130 57.5t-79 84.5t-26.5 102q0 81 55 140.5t150 91.5q-54 16 -86.5 47 t-32.5 88q0 20 8.5 42.5t24 44t37.5 41.5t50 35q-69 40 -107 108.5t-38 158.5q0 70 24 127.5t68.5 99t107.5 64.5t141 23q65 0 119.5 -16t96.5 -46h246zM511 1171q-60 0 -102 18.5t-69 51t-39 75t-12 90.5h40q0 -39 9.5 -75t31 -63t56 -43.5t85.5 -16.5t85.5 16.5t56 43.5 t31 63t9.5 75h40q0 -48 -12 -90.5t-39 -75t-69 -51t-102 -18.5z" />
<glyph unicode="&#x120;" horiz-adv-x="1476" d="M1336 618v-480q-104 -71 -224 -112.5t-271 -41.5q-165 0 -297 50.5t-224.5 144t-141.5 226.5t-49 298t48.5 297.5t139.5 226.5t220 144.5t290 50.5q79 0 145.5 -10t123.5 -30.5t107.5 -51.5t97.5 -72l-14 -21q-8 -12 -23 -8q-10 3 -36.5 26t-77.5 49.5t-130.5 48.5 t-193.5 22q-147 0 -265.5 -46t-202 -133t-128.5 -211.5t-45 -281.5q0 -156 45 -281t129.5 -212.5t206 -134t274.5 -46.5q69 0 128.5 9t112.5 26t103 41.5t101 55.5v413h-297q-7 0 -12 5t-5 11v28h365zM903 1672q0 -13 -5.5 -25t-15 -21.5t-22 -15t-25.5 -5.5q-28 0 -48 20.5 t-20 46.5q0 27 20 47.5t48 20.5q13 0 25.5 -5.5t22 -15t15 -22t5.5 -25.5z" />
<glyph unicode="&#x121;" horiz-adv-x="1011" d="M487 411q69 0 123.5 20t92 56.5t57 87t19.5 112.5q0 61 -20 112t-57.5 87t-92 56t-122.5 20t-122 -20t-91.5 -56t-57.5 -87t-20 -112q0 -62 20 -112.5t57.5 -87t91.5 -56.5t122 -20zM886 -74q0 52 -26.5 84t-70 49.5t-100.5 24.5t-118.5 10l-123 6t-114.5 13 q-44 -16 -80.5 -37.5t-63 -48.5t-41.5 -60t-15 -72q0 -48 25 -90t72.5 -72.5t115.5 -48.5t154 -18q78 0 148 19t123 53.5t84 82.5t31 105zM949 940v-16q0 -8 -6 -13t-15 -6l-177 -7q37 -41 57 -94t20 -116q0 -71 -24.5 -129t-69 -99.5t-107.5 -64t-140 -22.5q-94 0 -166 33 q-47 -27 -75.5 -65.5t-28.5 -73.5q0 -47 31 -72t81 -37t114.5 -15.5t132 -6.5t132 -11t114.5 -29t81 -60t31 -104q0 -60 -30.5 -115.5t-87.5 -97.5t-137.5 -67.5t-179.5 -25.5q-101 0 -178.5 21t-130 57.5t-79 84.5t-26.5 102q0 81 55 140.5t150 91.5q-54 16 -86.5 47 t-32.5 88q0 20 8.5 42.5t24 44t37.5 41.5t50 35q-69 40 -107 108.5t-38 158.5q0 70 24 127.5t68.5 99t107.5 64.5t141 23q65 0 119.5 -16t96.5 -46h246zM580 1356q0 -13 -6 -25t-15.5 -21.5t-22 -15t-25.5 -5.5q-14 0 -26.5 5.5t-22 15t-15 21.5t-5.5 25q0 28 20.5 48.5 t48.5 20.5q13 0 25.5 -5.5t22 -15t15.5 -22t6 -26.5z" />
<glyph unicode="&#x122;" horiz-adv-x="1476" d="M1336 618v-480q-104 -71 -224 -112.5t-271 -41.5q-165 0 -297 50.5t-224.5 144t-141.5 226.5t-49 298t48.5 297.5t139.5 226.5t220 144.5t290 50.5q79 0 145.5 -10t123.5 -30.5t107.5 -51.5t97.5 -72l-14 -21q-8 -12 -23 -8q-10 3 -36.5 26t-77.5 49.5t-130.5 48.5 t-193.5 22q-147 0 -265.5 -46t-202 -133t-128.5 -211.5t-45 -281.5q0 -156 45 -281t129.5 -212.5t206 -134t274.5 -46.5q69 0 128.5 9t112.5 26t103 41.5t101 55.5v413h-297q-7 0 -12 5t-5 11v28h365zM772 -107q11 0 15 -6t4 -18q0 -11 -3 -30t-10 -47.5t-17 -69t-24 -94.5 q-3 -9 -7.5 -13.5t-15.5 -4.5h-17l47 283h28z" />
<glyph unicode="&#x123;" horiz-adv-x="1011" d="M487 411q69 0 123.5 20t92 56.5t57 87t19.5 112.5q0 61 -20 112t-57.5 87t-92 56t-122.5 20t-122 -20t-91.5 -56t-57.5 -87t-20 -112q0 -62 20 -112.5t57.5 -87t91.5 -56.5t122 -20zM886 -74q0 52 -26.5 84t-70 49.5t-100.5 24.5t-118.5 10l-123 6t-114.5 13 q-44 -16 -80.5 -37.5t-63 -48.5t-41.5 -60t-15 -72q0 -48 25 -90t72.5 -72.5t115.5 -48.5t154 -18q78 0 148 19t123 53.5t84 82.5t31 105zM949 940v-16q0 -8 -6 -13t-15 -6l-177 -7q37 -41 57 -94t20 -116q0 -71 -24.5 -129t-69 -99.5t-107.5 -64t-140 -22.5q-94 0 -166 33 q-47 -27 -75.5 -65.5t-28.5 -73.5q0 -47 31 -72t81 -37t114.5 -15.5t132 -6.5t132 -11t114.5 -29t81 -60t31 -104q0 -60 -30.5 -115.5t-87.5 -97.5t-137.5 -67.5t-179.5 -25.5q-101 0 -178.5 21t-130 57.5t-79 84.5t-26.5 102q0 81 55 140.5t150 91.5q-54 16 -86.5 47 t-32.5 88q0 20 8.5 42.5t24 44t37.5 41.5t50 35q-69 40 -107 108.5t-38 158.5q0 70 24 127.5t68.5 99t107.5 64.5t141 23q65 0 119.5 -16t96.5 -46h246zM534 1140h-57l70 280h34z" />
<glyph unicode="&#x124;" horiz-adv-x="1502" d="M1279 1406v-1406h-56v691h-945v-691h-55v1406h55v-671h945v671h56zM1015 1539h-40q-6 0 -13.5 2t-14.5 10l-182 209q-4 3 -5 8q-2 -5 -5 -8l-182 -209q-7 -8 -14.5 -10t-13.5 -2h-39l233 266h43z" />
<glyph unicode="&#x125;" horiz-adv-x="1092" d="M229 798q69 93 164 148.5t207 55.5q82 0 143.5 -25.5t102 -73t61 -116.5t20.5 -156v-631h-53v631q0 77 -17 138t-52.5 103.5t-88.5 65t-125 22.5q-108 0 -199.5 -56.5t-162.5 -156.5v-747h-53v1446h53v-648zM457 1539h-40q-6 0 -13.5 2t-14.5 10l-182 209q-4 3 -5 8 q-2 -5 -5 -8l-182 -209q-7 -8 -14.5 -10t-13.5 -2h-39l233 266h43z" />
<glyph unicode="&#x126;" horiz-adv-x="1508" d="M1226 1041h-945v-306h945v306zM1467 1041h-185v-1041h-56v691h-945v-691h-55v1041h-185v36h185v329h55v-329h945v329h56v-329h185v-36z" />
<glyph unicode="&#x127;" horiz-adv-x="1092" d="M229 794q69 93 164 148.5t207 55.5q82 0 143.5 -25.5t102 -73t61 -116.5t20.5 -156v-627h-53v627q0 77 -17 138t-52.5 103.5t-88.5 65t-125 22.5q-108 0 -199.5 -56.5t-162.5 -156.5v-743h-53v1192h-172v37h172v217h53v-217h315v-37h-315v-398z" />
<glyph unicode="&#x128;" horiz-adv-x="501" d="M278 0h-55v1406h55v-1406zM381 1592q49 0 77 32.5t30 78.5h33q0 -30 -9 -57t-26.5 -47.5t-43 -32.5t-58.5 -12q-35 0 -66.5 18t-62 39t-59.5 39t-58 18q-24 0 -43.5 -9t-33.5 -24.5t-21.5 -36t-8.5 -42.5h-35q0 30 9.5 57t27.5 48t43.5 33t57.5 12q35 0 67 -18t62.5 -39 t59.5 -39t58 -18z" />
<glyph unicode="&#x129;" horiz-adv-x="428" d="M240 986v-986h-52v986h52zM332 1257q47 0 70 30.5t25 78.5h33q0 -31 -8 -58t-23.5 -47t-39.5 -31.5t-56 -11.5q-33 0 -61.5 17.5t-55 38t-53 38t-54.5 17.5q-45 0 -69 -31.5t-26 -77.5h-35q0 31 8.5 58t25 47t40.5 32t55 12q33 0 62 -17.5t55.5 -38.5t52.5 -38.5 t54 -17.5z" />
<glyph unicode="&#x12a;" horiz-adv-x="501" d="M278 0h-55v1406h55v-1406zM14 1660h478v-36h-478v36z" />
<glyph unicode="&#x12b;" horiz-adv-x="428" d="M240 986v-986h-52v986h52zM-50 1301h530v-38h-530v38z" />
<glyph unicode="&#x12c;" horiz-adv-x="501" d="M278 0h-55v1406h55v-1406zM252 1542q-127 0 -185 60.5t-58 185.5h44q0 -50 10.5 -89t34 -66t61.5 -41t93 -14t93 14t62 41t34.5 66t10.5 89h43q0 -122 -58 -184t-185 -62z" />
<glyph unicode="&#x12d;" horiz-adv-x="428" d="M240 986v-986h-52v986h52zM215 1171q-60 0 -102 18.5t-69 51t-39 75t-12 90.5h40q0 -39 9.5 -75t31 -63t56 -43.5t85.5 -16.5t85.5 16.5t56 43.5t31 63t9.5 75h40q0 -48 -12 -90.5t-39 -75t-69 -51t-102 -18.5z" />
<glyph unicode="&#x12e;" horiz-adv-x="503" d="M403 -282q-26 -25 -66.5 -39t-84.5 -14q-70 0 -115 35.5t-45 103.5q0 31 12 59.5t31 53.5t43 46t48 37h-1v1406h55v-1406h-5q-20 -11 -44.5 -29t-46 -42t-36 -53.5t-14.5 -63.5q0 -53 36 -82t90 -29q31 0 52 6t35 13.5t22.5 14t13.5 6.5q6 0 10 -6z" />
<glyph unicode="&#x12f;" horiz-adv-x="428" d="M214 1274q-28 0 -48.5 20.5t-20.5 47.5q0 28 20.5 48.5t48.5 20.5q13 0 25.5 -5.5t22 -15t15.5 -22t6 -26.5t-6 -26t-15.5 -21.5t-22 -15t-25.5 -5.5zM365 -282q-26 -25 -66.5 -39t-84.5 -14q-70 0 -115 35.5t-45 103.5q0 31 12 59.5t31 53.5t43 46t48 37v986h52v-986h-3 q-20 -11 -44.5 -29t-46 -42t-36 -53.5t-14.5 -63.5q0 -53 36 -82t90 -29q31 0 52 6t35 13.5t22.5 14t13.5 6.5q6 0 10 -6z" />
<glyph unicode="&#x130;" horiz-adv-x="501" d="M278 0h-55v1406h55v-1406zM319 1672q0 -13 -5.5 -25t-15 -21.5t-22 -15t-25.5 -5.5q-28 0 -48 20.5t-20 46.5q0 27 20 47.5t48 20.5q13 0 25.5 -5.5t22 -15t15 -22t5.5 -25.5z" />
<glyph unicode="&#x131;" horiz-adv-x="428" d="M240 986v-986h-52v986h52z" />
<glyph unicode="&#x132;" horiz-adv-x="1443" d="M278 0h-55v1406h55v-1406zM1236 460q0 -118 -29 -207t-82.5 -149t-129 -90t-167.5 -30q-85 0 -178 30q1 6 2 12.5t2 13.5q2 5 4.5 10t13.5 5q9 0 22 -4t31 -8.5t42 -8.5t57 -4q82 0 148 26.5t112 80t71 134t25 188.5v947h56v-946z" />
<glyph unicode="&#x133;" horiz-adv-x="900" d="M240 986v-986h-52v986h52zM283 1342q0 -14 -6 -26t-15.5 -21.5t-22 -15t-25.5 -5.5q-28 0 -48.5 20.5t-20.5 47.5q0 28 20.5 48.5t48.5 20.5q13 0 25.5 -5.5t22 -15t15.5 -22t6 -26.5zM713 986v-1140q0 -47 -14 -87t-41.5 -69t-67 -45.5t-90.5 -16.5q-28 0 -48.5 5.5 t-40.5 15.5l5 25q3 8 8 8.5t14 -2.5t22.5 -7t33.5 -4q83 0 125 48t42 129v1140h52zM755 1342q0 -14 -6 -26t-15.5 -21.5t-22 -15t-25.5 -5.5q-28 0 -48.5 20.5t-20.5 47.5q0 28 20.5 48.5t48.5 20.5q13 0 25.5 -5.5t22 -15t15.5 -22t6 -26.5z" />
<glyph unicode="&#x134;" horiz-adv-x="821" d="M613 460q0 -118 -29 -207t-82.5 -149t-129 -90t-167.5 -30q-85 0 -178 30q1 6 2 12.5t2 13.5q2 5 4.5 10t13.5 5q9 0 22 -4t31 -8.5t42 -8.5t57 -4q82 0 148 26.5t112 80t71 134t25 188.5v947h56v-946zM840 1539h-40q-6 0 -13.5 2t-14.5 10l-182 209q-4 3 -5 8 q-2 -5 -5 -8l-182 -209q-7 -8 -14.5 -10t-13.5 -2h-39l233 266h43z" />
<glyph unicode="&#x135;" horiz-adv-x="428" d="M240 986v-1140q0 -47 -14 -87t-41.5 -69t-67 -45.5t-90.5 -16.5q-28 0 -48.5 5.5t-40.5 15.5l5 25q3 8 8 8.5t14 -2.5t22.5 -7t33.5 -4q83 0 125 48t42 129v1140h52zM450 1170h-37q-11 0 -21 10l-170 184q-2 2 -3.5 4.5t-3.5 4.5q-2 -2 -4 -4.5t-4 -4.5l-170 -184 q-10 -10 -21 -10h-38l214 236h44z" />
<glyph unicode="&#x136;" horiz-adv-x="1241" d="M278 739h90q19 0 32.5 1t25 5t21 11t20.5 18l620 611q12 12 22.5 16.5t24.5 4.5h40l-655 -645q-18 -17 -30.5 -26t-30.5 -14q19 -5 33 -14t29 -26l694 -681h-40q-19 0 -28 4.5t-17 14.5l-652 635q-11 11 -20 18.5t-20 12.5t-26.5 7.5t-39.5 2.5h-93v-695h-55v1406h55 v-667zM616 -107q11 0 15 -6t4 -18q0 -11 -3 -30t-10 -47.5t-17 -69t-24 -94.5q-3 -9 -7.5 -13.5t-15.5 -4.5h-17l47 283h28z" />
<glyph unicode="&#x137;" horiz-adv-x="919" d="M229 1446v-897h46q11 0 23 3t27 17l439 397q9 10 18.5 15t24.5 5h44l-473 -427q-8 -8 -15.5 -13.5t-15.5 -10.5q14 -5 25 -13.5t21 -18.5l496 -503h-45q-10 0 -18.5 3t-16.5 13l-463 467q-17 17 -31 23t-44 6h-42v-512h-53v1446h53zM496 -107q11 0 15 -6t4 -18 q0 -11 -3 -30t-10 -47.5t-17 -69t-24 -94.5q-3 -9 -7.5 -13.5t-15.5 -4.5h-17l47 283h28z" />
<glyph unicode="&#x138;" horiz-adv-x="919" d="M229 986v-437h46q11 0 23 3t27 17l439 397q9 10 18.5 15t24.5 5h44l-473 -427q-8 -8 -15.5 -13.5t-15.5 -10.5q14 -5 25 -13.5t21 -18.5l496 -503h-45q-10 0 -18.5 3t-16.5 13l-463 467q-17 17 -31 23t-44 6h-42v-512h-53v986h53z" />
<glyph unicode="&#x139;" horiz-adv-x="1005" d="M975 48v-48h-752v1406h55v-1358h697zM554 1836l-329 -288q-10 -9 -26 -9h-34l272 279q10 11 20 14.5t30 3.5h67z" />
<glyph unicode="&#x13a;" horiz-adv-x="426" d="M239 1446v-1446h-52v1446h52zM514 1836l-329 -288q-10 -9 -26 -9h-34l272 279q10 11 20 14.5t30 3.5h67z" />
<glyph unicode="&#x13b;" horiz-adv-x="1005" d="M975 48v-48h-752v1406h55v-1358h697zM582 -107q11 0 15 -6t4 -18q0 -11 -3 -30t-10 -47.5t-17 -69t-24 -94.5q-3 -9 -7.5 -13.5t-15.5 -4.5h-17l47 283h28z" />
<glyph unicode="&#x13c;" horiz-adv-x="426" d="M239 1446v-1446h-52v1446h52zM219 -107q11 0 15 -6t4 -18q0 -11 -3 -30t-10 -47.5t-17 -69t-24 -94.5q-3 -9 -7.5 -13.5t-15.5 -4.5h-17l47 283h28z" />
<glyph unicode="&#x13d;" horiz-adv-x="1005" d="M975 48v-48h-752v1406h55v-1358h697zM607 1448q11 0 15 -6t4 -18q0 -11 -3.5 -29.5t-10 -48t-17.5 -71t-26 -98.5q-3 -8 -8 -13t-16 -5h-16l48 289h30z" />
<glyph unicode="&#x13e;" horiz-adv-x="426" d="M239 1446v-1446h-52v1446h52zM469 1448q11 0 15 -6t4 -18q0 -11 -3.5 -29.5t-10 -48t-17.5 -71t-26 -98.5q-3 -8 -8 -13t-16 -5h-16l48 289h30z" />
<glyph unicode="&#x13f;" horiz-adv-x="1039" d="M975 48v-48h-752v1406h55v-1358h697zM830 748q0 -13 -6 -25t-15.5 -21.5t-22 -15t-25.5 -5.5q-14 0 -26.5 5.5t-22 15t-15 21.5t-5.5 25q0 28 20.5 48.5t48.5 20.5q13 0 25.5 -5.5t22 -15t15.5 -22t6 -26.5z" />
<glyph unicode="&#x140;" horiz-adv-x="672" d="M239 1446v-1446h-52v1446h52zM479 734q0 32 21.5 54.5t53.5 22.5t54.5 -22.5t22.5 -54.5t-22.5 -53.5t-54.5 -21.5t-53.5 21.5t-21.5 53.5z" />
<glyph unicode="&#x141;" horiz-adv-x="1027" d="M997 48v-48h-752v604l-199 -105v33q0 15 14 23l185 99v752h55v-728l434 229v-33q0 -8 -2.5 -13.5t-12.5 -10.5l-419 -221v-581h697z" />
<glyph unicode="&#x142;" horiz-adv-x="539" d="M513 961v-24q0 -8 -2 -13.5t-12 -10.5l-192 -92v-821h-52v800l-205 -98v24q0 9 3 14t12 10l190 93v603h52v-582z" />
<glyph unicode="&#x143;" horiz-adv-x="1502" d="M1279 1406v-1406h-23q-13 0 -22 12l-965 1304q1 -9 1.5 -18.5t0.5 -17.5v-1280h-48v1406h25q8 0 13 -2.5t11 -10.5l961 -1299q-1 9 -1.5 18t-0.5 17v1277h48zM1078 1834l-329 -288q-10 -9 -26 -9h-34l272 279q10 11 20 14.5t30 3.5h67z" />
<glyph unicode="&#x144;" horiz-adv-x="1092" d="M227 795q69 95 164.5 151t208.5 56q82 0 143.5 -25.5t102 -73t61 -116.5t20.5 -156v-631h-53v631q0 77 -17 138t-52.5 103.5t-88.5 65t-125 22.5q-108 0 -199.5 -56.5t-162.5 -156.5v-747h-53v986h25q19 0 20 -20zM737 1422l-208 -251q-9 -12 -24 -12h-32l162 237 q10 15 19 20.5t29 5.5h54z" />
<glyph unicode="&#x145;" horiz-adv-x="1502" d="M1279 1406v-1406h-23q-13 0 -22 12l-965 1304q1 -9 1.5 -18.5t0.5 -17.5v-1280h-48v1406h25q8 0 13 -2.5t11 -10.5l961 -1299q-1 9 -1.5 18t-0.5 17v1277h48zM779 -107q11 0 15 -6t4 -18q0 -11 -3 -30t-10 -47.5t-17 -69t-24 -94.5q-3 -9 -7.5 -13.5t-15.5 -4.5h-17 l47 283h28z" />
<glyph unicode="&#x146;" horiz-adv-x="1092" d="M227 795q69 95 164.5 151t208.5 56q82 0 143.5 -25.5t102 -73t61 -116.5t20.5 -156v-631h-53v631q0 77 -17 138t-52.5 103.5t-88.5 65t-125 22.5q-108 0 -199.5 -56.5t-162.5 -156.5v-747h-53v986h25q19 0 20 -20zM574 -107q11 0 15 -6t4 -18q0 -11 -3 -30t-10 -47.5 t-17 -69t-24 -94.5q-3 -9 -7.5 -13.5t-15.5 -4.5h-17l47 283h28z" />
<glyph unicode="&#x147;" horiz-adv-x="1502" d="M1279 1406v-1406h-23q-13 0 -22 12l-965 1304q1 -9 1.5 -18.5t0.5 -17.5v-1280h-48v1406h25q8 0 13 -2.5t11 -10.5l961 -1299q-1 9 -1.5 18t-0.5 17v1277h48zM1032 1803l-233 -266h-44l-233 266h40q6 0 13.5 -1.5t13.5 -9.5l183 -219l5 -7l5 7l183 219q6 8 13.5 9.5 t13.5 1.5h40z" />
<glyph unicode="&#x148;" horiz-adv-x="1092" d="M227 795q69 95 164.5 151t208.5 56q82 0 143.5 -25.5t102 -73t61 -116.5t20.5 -156v-631h-53v631q0 77 -17 138t-52.5 103.5t-88.5 65t-125 22.5q-108 0 -199.5 -56.5t-162.5 -156.5v-747h-53v986h25q19 0 20 -20zM782 1406l-214 -236h-44l-214 236h38q5 0 10.5 -3 t9.5 -6l170 -185q6 -6 8 -9q2 2 4 4.5t4 4.5l171 185q9 9 20 9h37z" />
<glyph unicode="&#x149;" horiz-adv-x="1108" d="M167 1502q31 -56 42 -121.5t3.5 -130t-32.5 -124t-67 -103.5l-14 9q-9 8 0 17q34 47 51 101.5t19.5 109.5t-9.5 106.5t-34 92.5q-5 8 -4.5 15t8.5 11zM245 795q69 95 164.5 151t208.5 56q82 0 143.5 -25.5t102 -73t61 -116.5t20.5 -156v-631h-53v631q0 77 -17 138 t-52.5 103.5t-88.5 65t-125 22.5q-108 0 -199.5 -56.5t-162.5 -156.5v-747h-53v986h25q19 0 20 -20z" />
<glyph unicode="&#x14a;" horiz-adv-x="1502" d="M1279 1406v-1462q0 -144 -64 -224t-191 -80q-37 0 -70 7t-68 21l6 20q2 9 6.5 11t8.5 2q8 0 36.5 -10t76.5 -10q101 0 156 64.5t55 194.5v76l-962 1300q1 -9 1.5 -18.5t0.5 -17.5v-1280h-48v1406h25q8 0 13 -2.5t11 -10.5l961 -1299q-1 9 -1.5 18t-0.5 17v1277h48z" />
<glyph unicode="&#x14b;" horiz-adv-x="1092" d="M227 795q69 95 164.5 151t208.5 56q82 0 143.5 -25.5t102 -73t61 -116.5t20.5 -156v-701q0 -145 -66 -224.5t-194 -79.5q-37 0 -69.5 7t-67.5 21l5 20q2 9 6.5 11t9.5 2q8 0 36 -10t76 -10q101 0 156 64.5t55 194.5v705q0 77 -17 138t-52.5 103.5t-88.5 65t-125 22.5 q-108 0 -199.5 -56.5t-162.5 -156.5v-747h-53v986h25q19 0 20 -20z" />
<glyph unicode="&#x14c;" horiz-adv-x="1574" d="M1445 703q0 -165 -48 -297.5t-135 -226t-208 -143.5t-268 -50q-145 0 -266 50t-208 143.5t-135 226t-48 297.5q0 164 48 297t135 226.5t208 144.5t266 51q147 0 268 -50.5t208 -144t135 -226.5t48 -298zM1387 703q0 157 -43.5 281.5t-123 211.5t-190 133t-244.5 46 q-132 0 -242.5 -46t-190 -133t-124 -211.5t-44.5 -281.5t44.5 -281.5t124 -210.5t190 -132t242.5 -46q134 0 244.5 46t190 132t123 210.5t43.5 281.5zM549 1660h478v-36h-478v36z" />
<glyph unicode="&#x14d;" horiz-adv-x="1107" d="M553 1002q105 0 186.5 -36.5t137.5 -103t85 -160.5t29 -209t-29 -208.5t-85 -159.5t-137.5 -101.5t-186.5 -35.5t-186.5 35.5t-137.5 101.5t-85 159.5t-29 208.5t29 209t85 160.5t137.5 103t186.5 36.5zM553 30q96 0 168 33t120.5 94t72.5 146t24 190t-24 191 t-72.5 147.5t-120.5 95t-168 33.5t-168 -33.5t-120.5 -95t-72.5 -147.5t-24 -191t24 -190t72.5 -146t120.5 -94t168 -33zM290 1301h530v-38h-530v38z" />
<glyph unicode="&#x14e;" horiz-adv-x="1574" d="M1445 703q0 -165 -48 -297.5t-135 -226t-208 -143.5t-268 -50q-145 0 -266 50t-208 143.5t-135 226t-48 297.5q0 164 48 297t135 226.5t208 144.5t266 51q147 0 268 -50.5t208 -144t135 -226.5t48 -298zM1387 703q0 157 -43.5 281.5t-123 211.5t-190 133t-244.5 46 q-132 0 -242.5 -46t-190 -133t-124 -211.5t-44.5 -281.5t44.5 -281.5t124 -210.5t190 -132t242.5 -46q134 0 244.5 46t190 132t123 210.5t43.5 281.5zM787 1542q-127 0 -185 60.5t-58 185.5h44q0 -50 10.5 -89t34 -66t61.5 -41t93 -14t93 14t62 41t34.5 66t10.5 89h43 q0 -122 -58 -184t-185 -62z" />
<glyph unicode="&#x14f;" horiz-adv-x="1107" d="M553 1002q105 0 186.5 -36.5t137.5 -103t85 -160.5t29 -209t-29 -208.5t-85 -159.5t-137.5 -101.5t-186.5 -35.5t-186.5 35.5t-137.5 101.5t-85 159.5t-29 208.5t29 209t85 160.5t137.5 103t186.5 36.5zM553 30q96 0 168 33t120.5 94t72.5 146t24 190t-24 191 t-72.5 147.5t-120.5 95t-168 33.5t-168 -33.5t-120.5 -95t-72.5 -147.5t-24 -191t24 -190t72.5 -146t120.5 -94t168 -33zM555 1171q-60 0 -102 18.5t-69 51t-39 75t-12 90.5h40q0 -39 9.5 -75t31 -63t56 -43.5t85.5 -16.5t85.5 16.5t56 43.5t31 63t9.5 75h40 q0 -48 -12 -90.5t-39 -75t-69 -51t-102 -18.5z" />
<glyph unicode="&#x150;" horiz-adv-x="1574" d="M1445 703q0 -165 -48 -297.5t-135 -226t-208 -143.5t-268 -50q-145 0 -266 50t-208 143.5t-135 226t-48 297.5q0 164 48 297t135 226.5t208 144.5t266 51q147 0 268 -50.5t208 -144t135 -226.5t48 -298zM1387 703q0 157 -43.5 281.5t-123 211.5t-190 133t-244.5 46 q-132 0 -242.5 -46t-190 -133t-124 -211.5t-44.5 -281.5t44.5 -281.5t124 -210.5t190 -132t242.5 -46q134 0 244.5 46t190 132t123 210.5t43.5 281.5zM861 1806l-204 -255q-11 -12 -24 -12h-27l165 241q11 14 21.5 20t30.5 6h38zM1188 1806l-232 -255q-7 -6 -12 -9t-13 -3 h-30l190 241q11 15 21.5 20.5t30.5 5.5h45z" />
<glyph unicode="&#x151;" horiz-adv-x="1107" d="M553 1002q105 0 186.5 -36.5t137.5 -103t85 -160.5t29 -209t-29 -208.5t-85 -159.5t-137.5 -101.5t-186.5 -35.5t-186.5 35.5t-137.5 101.5t-85 159.5t-29 208.5t29 209t85 160.5t137.5 103t186.5 36.5zM553 30q96 0 168 33t120.5 94t72.5 146t24 190t-24 191 t-72.5 147.5t-120.5 95t-168 33.5t-168 -33.5t-120.5 -95t-72.5 -147.5t-24 -191t24 -190t72.5 -146t120.5 -94t168 -33zM657 1422l-198 -251q-8 -12 -24 -12h-25l159 237q10 15 19.5 20.5t29.5 5.5h39zM908 1422l-226 -251q-9 -12 -24 -12h-28l184 237q11 15 19.5 20.5 t28.5 5.5h46z" />
<glyph unicode="&#x152;" horiz-adv-x="2213" d="M730 34q121 0 220.5 45.5t171 132t111 210.5t39.5 281t-39.5 282t-111 212t-171 133t-220.5 46q-120 0 -219.5 -46t-171.5 -133t-112 -212t-40 -282t40 -281t112 -210.5t171.5 -132t219.5 -45.5zM2104 47l-2 -47h-824v414q-31 -101 -83 -180t-123 -133.5t-159 -83.5 t-190 -29q-131 0 -240 50t-187 142.5t-121.5 225t-43.5 297.5q0 164 43.5 297t121.5 226.5t187 144.5t240 51q102 0 190 -29t159 -84.5t123 -135t83 -180.5v413h824v-47h-774v-623h652v-46h-652v-643h776z" />
<glyph unicode="&#x153;" horiz-adv-x="1736" d="M1582 568q0 96 -22.5 169.5t-62 123.5t-94 75.5t-117.5 25.5q-78 0 -140 -28t-106.5 -80t-70.5 -124.5t-32 -161.5h645zM527 30q89 0 155.5 33t111 94t67 146t22.5 190t-22.5 191t-67 147.5t-111 95t-155.5 33.5t-156 -33.5t-112 -95t-67.5 -147.5t-22.5 -191t22.5 -190 t67.5 -146t112 -94t156 -33zM1609 121q-18 -25 -51 -49t-75.5 -42.5t-92 -30t-101.5 -11.5q-148 0 -246 89t-132 258q-16 -81 -48.5 -145t-81.5 -109t-113.5 -69t-143.5 -24q-97 0 -173 35.5t-128 101.5t-79.5 159.5t-27.5 208.5t27.5 209t79.5 160.5t128 103t174 36.5 q78 0 141 -23.5t111.5 -67.5t81 -107t49.5 -141q16 77 48 139.5t80 107t110.5 68.5t139.5 24q72 0 134.5 -29t108.5 -85.5t72.5 -140t26.5 -193.5q0 -21 -16 -21h-677v-20q0 -118 25.5 -208t72.5 -151t112.5 -92.5t146.5 -31.5q70 0 122 17.5t87.5 38.5t55.5 38.5t27 17.5 q8 0 13 -6z" />
<glyph unicode="&#x154;" horiz-adv-x="1194" d="M278 704h268q99 0 178.5 23.5t135 68t85 107.5t29.5 142q0 163 -106 240t-306 77h-284v-658zM1156 0h-45q-11 0 -19.5 3t-16.5 14l-496 607q-8 11 -16.5 18t-19 11.5t-25 6.5t-35.5 2h-205v-662h-55v1406h339q229 0 348 -89t119 -270q0 -83 -31 -150.5t-87 -117t-136 -79 t-177 -35.5q18 -10 35 -30zM859 1836l-329 -288q-10 -9 -26 -9h-34l272 279q10 11 20 14.5t30 3.5h67z" />
<glyph unicode="&#x155;" horiz-adv-x="695" d="M227 722q22 67 52 119t69.5 88t89.5 54.5t113 18.5q29 0 59.5 -4.5t54.5 -18.5l-6 -31q-4 -11 -14 -11q-11 0 -33.5 7.5t-66.5 7.5q-62 0 -110.5 -19.5t-86 -57.5t-66.5 -95t-53 -133v-647h-53v986h24q20 0 21 -22zM609 1422l-208 -251q-9 -12 -24 -12h-32l162 237 q10 15 19 20.5t29 5.5h54z" />
<glyph unicode="&#x156;" horiz-adv-x="1194" d="M278 704h268q99 0 178.5 23.5t135 68t85 107.5t29.5 142q0 163 -106 240t-306 77h-284v-658zM1156 0h-45q-11 0 -19.5 3t-16.5 14l-496 607q-8 11 -16.5 18t-19 11.5t-25 6.5t-35.5 2h-205v-662h-55v1406h339q229 0 348 -89t119 -270q0 -83 -31 -150.5t-87 -117t-136 -79 t-177 -35.5q18 -10 35 -30zM629 -107q11 0 15 -6t4 -18q0 -11 -3 -30t-10 -47.5t-17 -69t-24 -94.5q-3 -9 -7.5 -13.5t-15.5 -4.5h-17l47 283h28z" />
<glyph unicode="&#x157;" horiz-adv-x="695" d="M227 722q22 67 52 119t69.5 88t89.5 54.5t113 18.5q29 0 59.5 -4.5t54.5 -18.5l-6 -31q-4 -11 -14 -11q-11 0 -33.5 7.5t-66.5 7.5q-62 0 -110.5 -19.5t-86 -57.5t-66.5 -95t-53 -133v-647h-53v986h24q20 0 21 -22zM208 -107q11 0 15 -6t4 -18q0 -11 -3 -30t-10 -47.5 t-17 -69t-24 -94.5q-3 -9 -7.5 -13.5t-15.5 -4.5h-17l47 283h28z" />
<glyph unicode="&#x158;" horiz-adv-x="1194" d="M278 704h268q99 0 178.5 23.5t135 68t85 107.5t29.5 142q0 163 -106 240t-306 77h-284v-658zM1156 0h-45q-11 0 -19.5 3t-16.5 14l-496 607q-8 11 -16.5 18t-19 11.5t-25 6.5t-35.5 2h-205v-662h-55v1406h339q229 0 348 -89t119 -270q0 -83 -31 -150.5t-87 -117t-136 -79 t-177 -35.5q18 -10 35 -30zM813 1805l-233 -266h-44l-233 266h40q6 0 13.5 -1.5t13.5 -9.5l183 -219l5 -7l5 7l183 219q6 8 13.5 9.5t13.5 1.5h40z" />
<glyph unicode="&#x159;" horiz-adv-x="695" d="M227 722q22 67 52 119t69.5 88t89.5 54.5t113 18.5q29 0 59.5 -4.5t54.5 -18.5l-6 -31q-4 -11 -14 -11q-11 0 -33.5 7.5t-66.5 7.5q-62 0 -110.5 -19.5t-86 -57.5t-66.5 -95t-53 -133v-647h-53v986h24q20 0 21 -22zM654 1406l-214 -236h-44l-214 236h38q5 0 10.5 -3 t9.5 -6l170 -185q6 -6 8 -9q2 2 4 4.5t4 4.5l171 185q9 9 20 9h37z" />
<glyph unicode="&#x15a;" horiz-adv-x="1063" d="M887 1260q-6 -10 -17 -10t-30.5 19.5t-54.5 43.5t-90 43.5t-136 19.5q-82 0 -145.5 -24.5t-106.5 -66.5t-65 -96.5t-22 -114.5q0 -77 31 -128.5t82 -86.5t115.5 -59t132.5 -46.5t132.5 -48t115.5 -64.5t82 -96.5t31 -142.5q0 -87 -29.5 -163.5t-86 -133t-138 -89 t-185.5 -32.5q-71 0 -128.5 12.5t-106 36t-89 57.5t-77.5 77l13 20q5 5 8.5 7.5t10.5 2.5t19.5 -12.5t32.5 -31t48 -40t66.5 -40t89 -31t114.5 -12.5q91 0 163 28.5t121.5 78t75.5 115.5t26 141q0 80 -31 132t-81.5 87t-115.5 58.5t-132.5 45t-132.5 47t-115.5 65t-81.5 98 t-31 146.5q0 69 26 132t75.5 111.5t122 77.5t166.5 29q106 0 187.5 -34t152.5 -106zM880 1836l-329 -288q-10 -9 -26 -9h-34l272 279q10 11 20 14.5t30 3.5h67z" />
<glyph unicode="&#x15b;" horiz-adv-x="842" d="M700 885q-5 -9 -15 -9q-9 0 -25.5 13.5t-45.5 29t-72.5 29t-107.5 13.5q-59 0 -107.5 -17.5t-83.5 -46.5t-54 -68t-19 -81q0 -50 24.5 -84t64.5 -57.5t91 -40t104 -33t104 -35.5t91 -47t64.5 -69t24.5 -101q0 -62 -22 -116t-64.5 -94.5t-104 -63.5t-140.5 -23 q-53 0 -96 8.5t-80 24t-69 37.5t-62 49l13 17q4 5 7.5 7.5t11.5 2.5q10 0 28.5 -16.5t50 -36.5t79.5 -36.5t118 -16.5q69 0 121.5 19.5t88 53.5t53.5 79.5t18 96.5q0 54 -24.5 90t-64.5 60.5t-91 41.5t-104 33t-104 34.5t-91 46t-64.5 67.5t-24.5 100q0 50 22.5 96.5 t63.5 82t98.5 56.5t128.5 21q86 0 152 -24t125 -76zM626 1422l-208 -251q-9 -12 -24 -12h-32l162 237q10 15 19 20.5t29 5.5h54z" />
<glyph unicode="&#x15c;" horiz-adv-x="1063" d="M887 1260q-6 -10 -17 -10t-30.5 19.5t-54.5 43.5t-90 43.5t-136 19.5q-82 0 -145.5 -24.5t-106.5 -66.5t-65 -96.5t-22 -114.5q0 -77 31 -128.5t82 -86.5t115.5 -59t132.5 -46.5t132.5 -48t115.5 -64.5t82 -96.5t31 -142.5q0 -87 -29.5 -163.5t-86 -133t-138 -89 t-185.5 -32.5q-71 0 -128.5 12.5t-106 36t-89 57.5t-77.5 77l13 20q5 5 8.5 7.5t10.5 2.5t19.5 -12.5t32.5 -31t48 -40t66.5 -40t89 -31t114.5 -12.5q91 0 163 28.5t121.5 78t75.5 115.5t26 141q0 80 -31 132t-81.5 87t-115.5 58.5t-132.5 45t-132.5 47t-115.5 65t-81.5 98 t-31 146.5q0 69 26 132t75.5 111.5t122 77.5t166.5 29q106 0 187.5 -34t152.5 -106zM834 1539h-40q-6 0 -13.5 2t-14.5 10l-182 209q-4 3 -5 8q-2 -5 -5 -8l-182 -209q-7 -8 -14.5 -10t-13.5 -2h-39l233 266h43z" />
<glyph unicode="&#x15d;" horiz-adv-x="842" d="M700 885q-5 -9 -15 -9q-9 0 -25.5 13.5t-45.5 29t-72.5 29t-107.5 13.5q-59 0 -107.5 -17.5t-83.5 -46.5t-54 -68t-19 -81q0 -50 24.5 -84t64.5 -57.5t91 -40t104 -33t104 -35.5t91 -47t64.5 -69t24.5 -101q0 -62 -22 -116t-64.5 -94.5t-104 -63.5t-140.5 -23 q-53 0 -96 8.5t-80 24t-69 37.5t-62 49l13 17q4 5 7.5 7.5t11.5 2.5q10 0 28.5 -16.5t50 -36.5t79.5 -36.5t118 -16.5q69 0 121.5 19.5t88 53.5t53.5 79.5t18 96.5q0 54 -24.5 90t-64.5 60.5t-91 41.5t-104 33t-104 34.5t-91 46t-64.5 67.5t-24.5 100q0 50 22.5 96.5 t63.5 82t98.5 56.5t128.5 21q86 0 152 -24t125 -76zM671 1170h-37q-11 0 -21 10l-170 184q-2 2 -3.5 4.5t-3.5 4.5q-2 -2 -4 -4.5t-4 -4.5l-170 -184q-10 -10 -21 -10h-38l214 236h44z" />
<glyph unicode="&#x15e;" horiz-adv-x="1063" d="M887 1260q-6 -10 -17 -10t-30.5 19.5t-54.5 43.5t-90 43.5t-136 19.5q-82 0 -145.5 -24.5t-106.5 -66.5t-65 -96.5t-22 -114.5q0 -77 31 -128.5t82 -86.5t115.5 -59t132.5 -46.5t132.5 -48t115.5 -64.5t82 -96.5t31 -142.5q0 -81 -25.5 -152.5t-74.5 -127t-119.5 -91 t-161.5 -44.5l-27 -90q43 -7 78 -17t59 -25t37 -37t13 -52q0 -59 -47 -91.5t-120 -32.5q-41 0 -81 13.5t-64 34.5l7 14q6 8 12 8q5 0 13.5 -6.5t23.5 -14t37.5 -13.5t54.5 -6q57 0 88.5 24.5t31.5 67.5q0 29 -14.5 47.5t-39.5 30.5t-59 18.5t-73 11.5l35 113q-6 -1 -11.5 -1 h-11.5q-71 0 -128.5 12.5t-106 36t-89 57.5t-77.5 77l13 20q5 5 8.5 7.5t10.5 2.5t19.5 -12.5t32.5 -31t48 -40t66.5 -40t89 -31t114.5 -12.5q91 0 163 28.5t121.5 78t75.5 115.5t26 141q0 80 -31 132t-81.5 87t-115.5 58.5t-132.5 45t-132.5 47t-115.5 65t-81.5 98 t-31 146.5q0 69 26 132t75.5 111.5t122 77.5t166.5 29q106 0 187.5 -34t152.5 -106z" />
<glyph unicode="&#x15f;" horiz-adv-x="842" d="M700 885q-5 -9 -15 -9q-9 0 -25.5 13.5t-45.5 29t-72.5 29t-107.5 13.5q-59 0 -107.5 -17.5t-83.5 -46.5t-54 -68t-19 -81q0 -50 24.5 -84t64.5 -57.5t91 -40t104 -33t104 -35.5t91 -47t64.5 -69t24.5 -101q0 -61 -21.5 -114.5t-63 -93.5t-101.5 -64t-136 -25l-27 -87 q43 -7 78 -17t59 -25t37 -37t13 -52q0 -59 -47 -91.5t-120 -32.5q-41 0 -81 13.5t-64 34.5l7 14q6 8 12 8q5 0 13.5 -6.5t23.5 -14t37.5 -13.5t54.5 -6q57 0 88.5 24.5t31.5 67.5q0 29 -14.5 47.5t-39.5 30.5t-59 18.5t-73 11.5l36 113q-47 2 -86.5 11t-73.5 24.5t-64 36 t-58 46.5l13 17q4 5 7.5 7.5t11.5 2.5q10 0 28.5 -16.5t50 -36.5t79.5 -36.5t118 -16.5q69 0 121.5 19.5t88 53.5t53.5 79.5t18 96.5q0 54 -24.5 90t-64.5 60.5t-91 41.5t-104 33t-104 34.5t-91 46t-64.5 67.5t-24.5 100q0 50 22.5 96.5t63.5 82t98.5 56.5t128.5 21 q86 0 152 -24t125 -76z" />
<glyph unicode="&#x160;" horiz-adv-x="1063" d="M887 1260q-6 -10 -17 -10t-30.5 19.5t-54.5 43.5t-90 43.5t-136 19.5q-82 0 -145.5 -24.5t-106.5 -66.5t-65 -96.5t-22 -114.5q0 -77 31 -128.5t82 -86.5t115.5 -59t132.5 -46.5t132.5 -48t115.5 -64.5t82 -96.5t31 -142.5q0 -87 -29.5 -163.5t-86 -133t-138 -89 t-185.5 -32.5q-71 0 -128.5 12.5t-106 36t-89 57.5t-77.5 77l13 20q5 5 8.5 7.5t10.5 2.5t19.5 -12.5t32.5 -31t48 -40t66.5 -40t89 -31t114.5 -12.5q91 0 163 28.5t121.5 78t75.5 115.5t26 141q0 80 -31 132t-81.5 87t-115.5 58.5t-132.5 45t-132.5 47t-115.5 65t-81.5 98 t-31 146.5q0 69 26 132t75.5 111.5t122 77.5t166.5 29q106 0 187.5 -34t152.5 -106zM834 1805l-233 -266h-44l-233 266h40q6 0 13.5 -1.5t13.5 -9.5l183 -219l5 -7l5 7l183 219q6 8 13.5 9.5t13.5 1.5h40z" />
<glyph unicode="&#x161;" horiz-adv-x="842" d="M700 885q-5 -9 -15 -9q-9 0 -25.5 13.5t-45.5 29t-72.5 29t-107.5 13.5q-59 0 -107.5 -17.5t-83.5 -46.5t-54 -68t-19 -81q0 -50 24.5 -84t64.5 -57.5t91 -40t104 -33t104 -35.5t91 -47t64.5 -69t24.5 -101q0 -62 -22 -116t-64.5 -94.5t-104 -63.5t-140.5 -23 q-53 0 -96 8.5t-80 24t-69 37.5t-62 49l13 17q4 5 7.5 7.5t11.5 2.5q10 0 28.5 -16.5t50 -36.5t79.5 -36.5t118 -16.5q69 0 121.5 19.5t88 53.5t53.5 79.5t18 96.5q0 54 -24.5 90t-64.5 60.5t-91 41.5t-104 33t-104 34.5t-91 46t-64.5 67.5t-24.5 100q0 50 22.5 96.5 t63.5 82t98.5 56.5t128.5 21q86 0 152 -24t125 -76zM671 1406l-214 -236h-44l-214 236h38q5 0 10.5 -3t9.5 -6l170 -185q6 -6 8 -9q2 2 4 4.5t4 4.5l171 185q9 9 20 9h37z" />
<glyph unicode="&#x162;" horiz-adv-x="1146" d="M597 0l-31 -103q43 -7 78 -17t59 -25t37 -37t13 -52q0 -59 -47 -91.5t-120 -32.5q-41 0 -81 13.5t-64 34.5l7 14q6 8 12 8q5 0 13.5 -6.5t23.5 -14t37.5 -13.5t54.5 -6q57 0 88.5 24.5t31.5 67.5q0 29 -14.5 47.5t-39.5 30.5t-59 18.5t-73 11.5l40 128h-16v1358h-518v48 h1088v-48h-515v-1358h-5z" />
<glyph unicode="&#x163;" horiz-adv-x="668" d="M632 78q-31 -38 -81 -63.5t-106 -29.5l-26 -88q43 -7 78 -17t59 -25t37 -37t13 -52q0 -59 -47 -91.5t-120 -32.5q-41 0 -81 13.5t-64 34.5l7 14q6 8 12 8q5 0 13.5 -6.5t23.5 -14t37.5 -13.5t54.5 -6q57 0 88.5 24.5t31.5 67.5q0 29 -14.5 47.5t-39.5 30.5t-59 18.5 t-73 11.5l35 113q-85 4 -132 54.5t-47 157.5v711h-154q-19 0 -19 15v18l173 7l15 380q1 6 5 11.5t11 5.5h22v-397h326v-40h-326v-709q0 -46 12 -78.5t32 -53.5t47.5 -30.5t59.5 -9.5q39 0 68.5 12t50.5 26t34 26t19 12q5 0 11 -6l13 -19v0z" />
<glyph unicode="&#x164;" horiz-adv-x="1146" d="M1117 1358h-515v-1358h-55v1358h-518v48h1088v-48zM830 1805l-233 -266h-44l-233 266h40q6 0 13.5 -1.5t13.5 -9.5l183 -219l5 -7l5 7l183 219q6 8 13.5 9.5t13.5 1.5h40z" />
<glyph unicode="&#x165;" horiz-adv-x="664" d="M424 -16q-92 0 -144 50.5t-52 162.5v711h-154q-19 0 -19 15v18l173 7l15 380q1 6 5 11.5t11 5.5h22v-397h326v-40h-326v-709q0 -46 12 -78.5t32 -53.5t47.5 -30.5t59.5 -9.5q39 0 68.5 12t50.5 26t34 26t19 12q5 0 11 -6l13 -19q-17 -21 -39.5 -38t-49.5 -29.5t-56 -19.5 t-59 -7zM668 1448q11 0 15 -6t4 -18q0 -11 -3.5 -29.5t-10 -48t-17.5 -71t-26 -98.5q-3 -8 -8 -13t-16 -5h-16l48 289h30z" />
<glyph unicode="&#x166;" horiz-adv-x="1184" d="M621 1358v-509h351v-38h-351v-811h-55v811h-354v38h354v509h-518v48h1088v-48h-515z" />
<glyph unicode="&#x167;" horiz-adv-x="674" d="M74 689h162v219h-154q-19 0 -19 15v18l173 7l15 380q1 6 5 11.5t11 5.5h22v-397h326v-40h-326v-219h321v-37h-321v-453q0 -46 12 -78.5t32 -53.5t47.5 -30.5t59.5 -9.5q39 0 68.5 12t50.5 26t34 26t19 12q5 0 11 -6l13 -19q-17 -21 -39.5 -38t-49.5 -29.5t-56 -19.5 t-59 -7q-92 0 -144 50.5t-52 162.5v455h-162v37z" />
<glyph unicode="&#x168;" horiz-adv-x="1446" d="M723 32q109 0 194.5 38.5t145 105.5t91 157.5t31.5 194.5v878h56v-878q0 -114 -36 -213.5t-103.5 -173.5t-163 -116.5t-215.5 -42.5t-216 42.5t-163 116.5t-103 173.5t-36 213.5v878h55v-876q0 -104 31.5 -195t91 -158.5t145.5 -106t195 -38.5zM851 1592q49 0 77 32.5 t30 78.5h33q0 -30 -9 -57t-26.5 -47.5t-43 -32.5t-58.5 -12q-35 0 -66.5 18t-62 39t-59.5 39t-58 18q-24 0 -43.5 -9t-33.5 -24.5t-21.5 -36t-8.5 -42.5h-35q0 30 9.5 57t27.5 48t43.5 33t57.5 12q35 0 67 -18t62.5 -39t59.5 -39t58 -18z" />
<glyph unicode="&#x169;" horiz-adv-x="1090" d="M916 986v-986h-24q-18 0 -21 20l-5 172q-70 -95 -165 -151.5t-209 -56.5q-82 0 -143.5 25.5t-102 73t-61 116.5t-20.5 156v631h53v-631q0 -77 17 -138t52.5 -103.5t89 -65t125.5 -22.5q107 0 198.5 56.5t163.5 156.5v747h52zM664 1257q47 0 70 30.5t25 78.5h33 q0 -31 -8 -58t-23.5 -47t-39.5 -31.5t-56 -11.5q-33 0 -61.5 17.5t-55 38t-53 38t-54.5 17.5q-45 0 -69 -31.5t-26 -77.5h-35q0 31 8.5 58t25 47t40.5 32t55 12q33 0 62 -17.5t55.5 -38.5t52.5 -38.5t54 -17.5z" />
<glyph unicode="&#x16a;" horiz-adv-x="1446" d="M723 32q109 0 194.5 38.5t145 105.5t91 157.5t31.5 194.5v878h56v-878q0 -114 -36 -213.5t-103.5 -173.5t-163 -116.5t-215.5 -42.5t-216 42.5t-163 116.5t-103 173.5t-36 213.5v878h55v-876q0 -104 31.5 -195t91 -158.5t145.5 -106t195 -38.5zM484 1660h478v-36h-478v36 z" />
<glyph unicode="&#x16b;" horiz-adv-x="1090" d="M916 986v-986h-24q-18 0 -21 20l-5 172q-70 -95 -165 -151.5t-209 -56.5q-82 0 -143.5 25.5t-102 73t-61 116.5t-20.5 156v631h53v-631q0 -77 17 -138t52.5 -103.5t89 -65t125.5 -22.5q107 0 198.5 56.5t163.5 156.5v747h52zM282 1301h530v-38h-530v38z" />
<glyph unicode="&#x16c;" horiz-adv-x="1446" d="M723 32q109 0 194.5 38.5t145 105.5t91 157.5t31.5 194.5v878h56v-878q0 -114 -36 -213.5t-103.5 -173.5t-163 -116.5t-215.5 -42.5t-216 42.5t-163 116.5t-103 173.5t-36 213.5v878h55v-876q0 -104 31.5 -195t91 -158.5t145.5 -106t195 -38.5zM722 1542 q-127 0 -185 60.5t-58 185.5h44q0 -50 10.5 -89t34 -66t61.5 -41t93 -14t93 14t62 41t34.5 66t10.5 89h43q0 -122 -58 -184t-185 -62z" />
<glyph unicode="&#x16d;" horiz-adv-x="1090" d="M916 986v-986h-24q-18 0 -21 20l-5 172q-70 -95 -165 -151.5t-209 -56.5q-82 0 -143.5 25.5t-102 73t-61 116.5t-20.5 156v631h53v-631q0 -77 17 -138t52.5 -103.5t89 -65t125.5 -22.5q107 0 198.5 56.5t163.5 156.5v747h52zM547 1171q-60 0 -102 18.5t-69 51t-39 75 t-12 90.5h40q0 -39 9.5 -75t31 -63t56 -43.5t85.5 -16.5t85.5 16.5t56 43.5t31 63t9.5 75h40q0 -48 -12 -90.5t-39 -75t-69 -51t-102 -18.5z" />
<glyph unicode="&#x16e;" horiz-adv-x="1446" d="M723 32q109 0 194.5 38.5t145 105.5t91 157.5t31.5 194.5v878h56v-878q0 -114 -36 -213.5t-103.5 -173.5t-163 -116.5t-215.5 -42.5t-216 42.5t-163 116.5t-103 173.5t-36 213.5v878h55v-876q0 -104 31.5 -195t91 -158.5t145.5 -106t195 -38.5zM567 1678q0 32 12.5 59.5 t33.5 47.5t49.5 31.5t60.5 11.5t60.5 -11.5t49.5 -31.5t33.5 -47.5t12.5 -59.5t-12.5 -59.5t-33.5 -47.5t-49.5 -31t-60.5 -11t-60.5 11t-49.5 31t-33.5 47.5t-12.5 59.5zM602 1678q0 -26 9 -48t25 -38.5t38.5 -25.5t48.5 -9t48.5 9t38.5 25.5t25 38.5t9 48q0 53 -34 87.5 t-87 34.5t-87 -34.5t-34 -87.5z" />
<glyph unicode="&#x16f;" horiz-adv-x="1090" d="M916 986v-986h-24q-18 0 -21 20l-5 172q-70 -95 -165 -151.5t-209 -56.5q-82 0 -143.5 25.5t-102 73t-61 116.5t-20.5 156v631h53v-631q0 -77 17 -138t52.5 -103.5t89 -65t125.5 -22.5q107 0 198.5 56.5t163.5 156.5v747h52zM390 1295q0 33 12.5 60.5t34 48t50 32 t61.5 11.5t61.5 -11.5t50 -32t34 -48t12.5 -60.5t-12.5 -60.5t-34 -48t-50 -32t-61.5 -11.5t-61.5 11.5t-50 32t-34 48t-12.5 60.5zM427 1295q0 -53 34 -87.5t87 -34.5t87 34.5t34 87.5q0 26 -9 48t-25 38.5t-38.5 25.5t-48.5 9t-48.5 -9t-38.5 -25.5t-25 -38.5t-9 -48z" />
<glyph unicode="&#x170;" horiz-adv-x="1446" d="M723 32q109 0 194.5 38.5t145 105.5t91 157.5t31.5 194.5v878h56v-878q0 -114 -36 -213.5t-103.5 -173.5t-163 -116.5t-215.5 -42.5t-216 42.5t-163 116.5t-103 173.5t-36 213.5v878h55v-876q0 -104 31.5 -195t91 -158.5t145.5 -106t195 -38.5zM796 1806l-204 -255 q-11 -12 -24 -12h-27l165 241q11 14 21.5 20t30.5 6h38zM1123 1806l-232 -255q-7 -6 -12 -9t-13 -3h-30l190 241q11 15 21.5 20.5t30.5 5.5h45z" />
<glyph unicode="&#x171;" horiz-adv-x="1090" d="M916 986v-986h-24q-18 0 -21 20l-5 172q-70 -95 -165 -151.5t-209 -56.5q-82 0 -143.5 25.5t-102 73t-61 116.5t-20.5 156v631h53v-631q0 -77 17 -138t52.5 -103.5t89 -65t125.5 -22.5q107 0 198.5 56.5t163.5 156.5v747h52zM649 1422l-198 -251q-8 -12 -24 -12h-25 l159 237q10 15 19.5 20.5t29.5 5.5h39zM900 1422l-226 -251q-9 -12 -24 -12h-28l184 237q11 15 19.5 20.5t28.5 5.5h46z" />
<glyph unicode="&#x172;" horiz-adv-x="1446" d="M1241 1406v-878q0 -107 -32.5 -202t-93 -168t-147 -119t-194.5 -55q-20 -12 -43 -30t-42 -41t-31.5 -50.5t-12.5 -59.5q0 -53 36 -82t90 -29q31 0 52 6t35 13.5t22.5 14t13.5 6.5q6 0 10 -6l10 -17q-26 -25 -66.5 -39t-84.5 -14q-70 0 -115 35.5t-45 103.5q0 29 10.5 56 t27.5 50.5t38.5 44t44.5 36.5h-1q-120 0 -216 42.5t-163 116.5t-103 173.5t-36 213.5v878h55v-876q0 -104 31.5 -195t91 -158.5t145.5 -106t195 -38.5t194.5 38.5t145 105.5t91 157.5t31.5 194.5v878h56z" />
<glyph unicode="&#x173;" horiz-adv-x="1090" d="M1044 -282q-26 -25 -66.5 -39t-84.5 -14q-70 0 -115 35.5t-45 103.5q0 33 13 62.5t33.5 55t46 47t50.5 37.5q-3 3 -5 14l-5 172q-70 -95 -165 -151.5t-209 -56.5q-82 0 -143.5 25.5t-102 73t-61 116.5t-20.5 156v631h53v-631q0 -77 17 -138t52.5 -103.5t89 -65 t125.5 -22.5q107 0 198.5 56.5t163.5 156.5v747h52v-986q-20 -11 -44.5 -29t-46 -42t-36 -53.5t-14.5 -63.5q0 -53 36 -82t90 -29q31 0 52 6t35 13.5t22.5 14t13.5 6.5q6 0 10 -6z" />
<glyph unicode="&#x174;" horiz-adv-x="2015" d="M1959 1406l-445 -1406h-49l-446 1298q-7 20 -11 40q-4 -20 -11 -40l-448 -1298h-48l-445 1406h45q17 0 22 -17l388 -1249q10 -34 17 -72q4 20 8.5 38t9.5 34l433 1249q5 17 24 17h13q17 0 22 -17l433 -1249q10 -31 18 -71q4 20 8 37.5t9 33.5l388 1249q5 17 24 17h41z M1261 1539h-40q-6 0 -13.5 2t-14.5 10l-182 209q-4 3 -5 8q-2 -5 -5 -8l-182 -209q-7 -8 -14.5 -10t-13.5 -2h-39l233 266h43z" />
<glyph unicode="&#x175;" horiz-adv-x="1508" d="M1449 986l-334 -986h-35q-11 0 -16 14l-297 871q-7 20 -12 41q-5 -21 -12 -41l-301 -871q-5 -14 -15 -14h-33l-335 986h37q11 0 17 -6t8 -12l281 -853q5 -16 8.5 -30.5t6.5 -29.5q4 15 8.5 29.5t9.5 30.5l294 862q5 14 17 14h19q13 0 18 -14l291 -862q5 -16 9.5 -31 t7.5 -30q4 15 8 29.5t9 31.5l281 853q3 8 9.5 13t14.5 5h36zM994 1170h-37q-11 0 -21 10l-170 184q-2 2 -3.5 4.5t-3.5 4.5q-2 -2 -4 -4.5t-4 -4.5l-170 -184q-10 -10 -21 -10h-38l214 236h44z" />
<glyph unicode="&#x176;" horiz-adv-x="1160" d="M608 591v-591h-56v591l-522 815h47q9 0 14 -3.5t10 -11.5l445 -698q10 -17 19 -33t15 -32q7 17 15.5 32.5t18.5 32.5l445 698q8 15 23 15h48zM835 1539h-40q-6 0 -13.5 2t-14.5 10l-182 209q-4 3 -5 8q-2 -5 -5 -8l-182 -209q-7 -8 -14.5 -10t-13.5 -2h-39l233 266h43z " />
<glyph unicode="&#x177;" horiz-adv-x="989" d="M943 986l-575 -1317q-5 -10 -12 -18t-20 -8h-35l170 381l-422 962h40q11 0 17.5 -6t8.5 -12l368 -844q10 -22 15 -46q7 21 17 46l366 844q4 8 10.5 13t14.5 5h37zM759 1170h-37q-11 0 -21 10l-170 184q-2 2 -3.5 4.5t-3.5 4.5q-2 -2 -4 -4.5t-4 -4.5l-170 -184 q-10 -10 -21 -10h-38l214 236h44z" />
<glyph unicode="&#x178;" horiz-adv-x="1160" d="M608 591v-591h-56v591l-522 815h47q9 0 14 -3.5t10 -11.5l445 -698q10 -17 19 -33t15 -32q7 17 15.5 32.5t18.5 32.5l445 698q8 15 23 15h48zM457 1664q0 -25 -20 -44.5t-46 -19.5q-13 0 -25 5.5t-21 14.5t-14.5 20.5t-5.5 23.5q0 27 20 47t46 20t46 -20t20 -47z M835 1664q0 -25 -20.5 -44.5t-45.5 -19.5q-27 0 -46.5 19.5t-19.5 44.5q0 27 19.5 47t46.5 20q25 0 45.5 -20t20.5 -47z" />
<glyph unicode="&#x179;" horiz-adv-x="1191" d="M1106 1390q0 -13 -10 -29l-944 -1314h950v-47h-1025v17q0 8 2 13.5t7 11.5l945 1317h-933v47h1008v-16zM909 1836l-329 -288q-10 -9 -26 -9h-34l272 279q10 11 20 14.5t30 3.5h67z" />
<glyph unicode="&#x17a;" horiz-adv-x="880" d="M808 986v-22q0 -6 -2.5 -11t-7.5 -11l-661 -900h643v-42h-709v19q0 6 2.5 11t7.5 12l662 902h-638v42h703zM652 1422l-208 -251q-9 -12 -24 -12h-32l162 237q10 15 19 20.5t29 5.5h54z" />
<glyph unicode="&#x17b;" horiz-adv-x="1191" d="M1106 1390q0 -13 -10 -29l-944 -1314h950v-47h-1025v17q0 8 2 13.5t7 11.5l945 1317h-933v47h1008v-16zM674 1672q0 -13 -5.5 -25t-15 -21.5t-22 -15t-25.5 -5.5q-28 0 -48 20.5t-20 46.5q0 27 20 47.5t48 20.5q13 0 25.5 -5.5t22 -15t15 -22t5.5 -25.5z" />
<glyph unicode="&#x17c;" horiz-adv-x="878" d="M806 986v-22q0 -6 -2.5 -11t-7.5 -11l-661 -900h643v-42h-709v19q0 6 2.5 11t7.5 12l662 902h-638v42h703zM528 1356q0 -13 -6 -25t-15.5 -21.5t-22 -15t-25.5 -5.5q-14 0 -26.5 5.5t-22 15t-15 21.5t-5.5 25q0 28 20.5 48.5t48.5 20.5q13 0 25.5 -5.5t22 -15t15.5 -22 t6 -26.5z" />
<glyph unicode="&#x17d;" horiz-adv-x="1191" d="M1106 1390q0 -13 -10 -29l-944 -1314h950v-47h-1025v17q0 8 2 13.5t7 11.5l945 1317h-933v47h1008v-16zM863 1805l-233 -266h-44l-233 266h40q6 0 13.5 -1.5t13.5 -9.5l183 -219l5 -7l5 7l183 219q6 8 13.5 9.5t13.5 1.5h40z" />
<glyph unicode="&#x17e;" horiz-adv-x="878" d="M806 986v-22q0 -6 -2.5 -11t-7.5 -11l-661 -900h643v-42h-709v19q0 6 2.5 11t7.5 12l662 902h-638v42h703zM695 1406l-214 -236h-44l-214 236h38q5 0 10.5 -3t9.5 -6l170 -185q6 -6 8 -9q2 2 4 4.5t4 4.5l171 185q9 9 20 9h37z" />
<glyph unicode="&#x17f;" horiz-adv-x="503" d="M234 1089q0 84 21 146.5t58.5 104t89.5 61.5t114 20q29 0 60.5 -5t54.5 -16l-3 -24q-2 -7 -9 -7t-20.5 2.5t-33 6t-44.5 3.5q-51 0 -94 -16t-74.5 -51t-49 -90.5t-17.5 -135.5v-1088h-53v907l-154 6q-19 2 -19 15v20h173v141z" />
<glyph unicode="&#x180;" horiz-adv-x="1093" d="M229 203q31 -48 65 -81t72 -53.5t80.5 -30t91.5 -9.5q97 0 169 35.5t120 98t72 148t24 186.5q0 235 -89 347t-258 112q-104 0 -192.5 -57t-154.5 -158v-538zM229 792q66 96 157 151t201 55q94 0 166.5 -30.5t122 -92.5t75.5 -156.5t26 -221.5q0 -108 -27.5 -201 t-82 -161.5t-135 -107.5t-186.5 -39q-107 0 -185.5 42t-133.5 127l-5 -139q-1 -7 -4.5 -12.5t-13.5 -5.5h-28v1165h-156v37h156v244h53v-244h254v-37h-254v-373z" />
<glyph unicode="&#x181;" horiz-adv-x="1499" d="M907 45q197 0 303 84.5t106 246.5q0 73 -28.5 131t-81.5 99t-128.5 63t-169.5 22h-380v-646h379zM528 1362v-629h333q106 0 180.5 28.5t122 74t69 102t21.5 111.5q0 151 -98.5 232t-301.5 81h-326zM854 1406q230 0 342 -92t112 -261q0 -59 -22 -113.5t-61.5 -99.5 t-96 -77t-125.5 -45q86 -9 154.5 -36.5t116 -71t72.5 -103t25 -132.5q0 -90 -31.5 -159.5t-91 -117.5t-145.5 -73t-196 -25h-434v1363h-51q-153 0 -229 -62.5t-76 -171.5q0 -26 5 -54t13 -54q3 -10 2 -18t-12 -11l-28 -6q-14 38 -20.5 72.5t-6.5 70.5q0 64 23 115t67.5 87 t110 55.5t151.5 19.5h432z" />
<glyph unicode="&#x182;" horiz-adv-x="1205" d="M634 45q197 0 298.5 88t101.5 251q0 164 -100.5 244.5t-297.5 80.5h-358v-664h356zM636 754q225 0 339 -94.5t114 -272.5q0 -91 -30 -162.5t-87.5 -121.5t-142.5 -76.5t-195 -26.5h-411v1406h825v-44h-770v-608h358z" />
<glyph unicode="&#x183;" horiz-adv-x="1093" d="M229 205q61 -97 136 -136.5t173 -39.5q97 0 169 35.5t120 98.5t72 149t24 187q0 235 -89 348t-258 113q-104 0 -192.5 -57t-154.5 -158v-540zM229 796q66 96 157 151t201 55q187 0 288.5 -124t101.5 -379q0 -108 -27.5 -201t-82 -162t-135 -108.5t-186.5 -39.5 q-107 0 -185.5 42t-133.5 127l-5 -139q-1 -7 -4.5 -12.5t-13.5 -5.5h-28v1446h731v-40h-678v-610z" />
<glyph unicode="&#x184;" horiz-adv-x="1246" d="M674 45q111 0 193 29.5t136 80.5t80 120.5t26 150.5q0 73 -27.5 139t-82 116t-135.5 80t-189 30h-364v-746h363zM674 836q120 0 211.5 -33t153.5 -89t93.5 -130.5t31.5 -158.5q0 -91 -30.5 -168.5t-91.5 -134.5t-153 -89.5t-215 -32.5h-418v1070l-150 79l164 257h41v-570 h363z" />
<glyph unicode="&#x185;" horiz-adv-x="1099" d="M234 205q61 -97 136.5 -136.5t173.5 -39.5q97 0 169 35.5t120 98.5t72 149t24 187q0 235 -89.5 348t-258.5 113q-105 0 -193 -57t-154 -159v-539zM234 796q66 96 157 151t201 55q94 0 166.5 -31t122.5 -93t76 -157t26 -222q0 -108 -28 -201t-82.5 -162t-135 -108.5 t-186.5 -39.5t-184.5 42t-134.5 127l-4 -139q-1 -7 -5 -12.5t-14 -5.5h-27v1117l-147 77l160 252h39v-650z" />
<glyph unicode="&#x186;" horiz-adv-x="1378" d="M126 209q4 0 6.5 -2t6.5 -5q45 -41 90.5 -73t98.5 -54t117.5 -33t145.5 -11q129 0 239 46t191 132.5t126.5 211t45.5 282.5q0 155 -45.5 279.5t-127.5 211.5t-196 134t-250 47q-70 0 -126.5 -11t-101.5 -27.5t-78.5 -36t-57.5 -36t-38.5 -27.5t-20.5 -11q-10 0 -16 7 l-15 22q47 40 97.5 71.5t106 52.5t117.5 32t133 11q150 0 274.5 -52t213.5 -146.5t138 -227t49 -293.5q0 -165 -48.5 -298t-135.5 -226.5t-207.5 -144t-264.5 -50.5q-87 0 -159.5 14.5t-133 40.5t-111.5 62.5t-95 80.5l21 22q5 5 11 5z" />
<glyph unicode="&#x187;" horiz-adv-x="1364" d="M1285 182q-44 -44 -95 -80.5t-112 -62.5t-133 -40.5t-159 -14.5q-144 0 -264.5 50.5t-207.5 144t-136 226.5t-49 298q0 161 49 293.5t138.5 227t214 146.5t274.5 52q126 0 225.5 -34.5t185.5 -98.5q-2 25 -2.5 47t-0.5 46q0 69 14 125.5t42.5 96t71.5 61.5t100 22 q38 0 72.5 -7t72.5 -21l-6 -25q-3 -11 -11 -11.5t-18 1.5q-27 9 -54.5 13.5t-52.5 4.5q-94 0 -140 -71.5t-46 -196.5v-119l-15 -22q-4 -7 -15 -7q-6 0 -20.5 11t-38.5 27.5t-57.5 36t-78.5 36t-101.5 27.5t-126.5 11q-136 0 -250 -47t-196 -134t-127.5 -211.5t-45.5 -279.5 q0 -158 45.5 -282.5t126.5 -211t191 -132.5t239 -46q81 0 145 11t117.5 33t99 54t90.5 73q7 7 13 7t11 -5z" />
<glyph unicode="&#x188;" horiz-adv-x="939" d="M841 895l-14 -17q-2 -3 -5 -5.5t-8 -2.5q-8 0 -25 14t-47 31t-76 31t-111 14q-92 0 -163.5 -32.5t-121 -93.5t-75.5 -147t-26 -194q0 -111 26.5 -197.5t75 -145.5t117 -90t152.5 -31q76 0 127.5 17.5t85.5 39t52 39t26 17.5t13 -6l12 -15q-18 -25 -49.5 -49t-73 -42.5 t-92 -30t-107.5 -11.5q-95 0 -172 34t-131.5 99t-84.5 159t-30 213q0 114 29.5 208t85.5 160.5t137 103.5t185 37q73 0 134 -19.5t109 -51.5v110q0 59 10.5 108.5t34.5 85t62.5 55.5t95.5 20q62 0 131 -27l-5 -20q-2 -9 -7 -11.5t-9 -2.5t-13.5 3.5t-23.5 7.5t-32 7.5 t-39 3.5q-45 0 -75.5 -16.5t-49.5 -47t-27 -72.5t-8 -93v-147z" />
<glyph unicode="&#x189;" horiz-adv-x="1531" d="M741 45q134 0 244.5 44t190 128t123 206.5t43.5 279.5t-43.5 279.5t-123 206.5t-190 128t-244.5 44h-451v-628h334v-38h-334v-650h451zM741 1406q147 0 268 -48t208 -138.5t135 -221t48 -295.5t-48 -295.5t-135 -221t-208 -138.5t-268 -48h-506v695h-226v38h226v673h506z " />
<glyph unicode="&#x18a;" horiz-adv-x="1769" d="M980 45q134 0 244.5 44t189.5 128t122.5 206.5t43.5 279.5t-43.5 279.5t-122.5 206.5t-189.5 128t-244.5 44h-451v-1316h451zM980 1406q147 0 268 -48t208 -138.5t135 -221t48 -295.5t-48 -295.5t-135 -221t-208 -138.5t-268 -48h-507v1363h-51q-153 0 -229 -62.5 t-76 -171.5q0 -26 5 -54t13 -54q3 -10 2 -18t-12 -11l-28 -6q-14 38 -20.5 72.5t-6.5 70.5q0 64 23 115t67.5 87t110 55.5t151.5 19.5h558z" />
<glyph unicode="&#x18b;" horiz-adv-x="1205" d="M927 45v664h-358q-197 0 -298 -80.5t-101 -244.5q0 -163 101.5 -251t298.5 -88h357zM982 1406v-1406h-412q-110 0 -194.5 26.5t-142.5 76.5t-88 121.5t-30 162.5q0 178 114.5 272.5t339.5 94.5h358v608h-770v44h825z" />
<glyph unicode="&#x18c;" horiz-adv-x="1093" d="M864 787q-62 95 -137 134.5t-172 39.5t-169 -35.5t-120 -98.5t-72 -149t-24 -187q0 -235 88.5 -348t258.5 -113q104 0 192.5 57t154.5 158v542zM917 0h-24q-20 0 -21 20l-6 176q-66 -97 -157.5 -152.5t-202.5 -55.5q-188 0 -289 124t-101 379q0 108 27.5 201t82 162 t135 108.5t186.5 39.5t183.5 -40.5t133.5 -121.5v566h-678v40h731v-1446z" />
<glyph unicode="&#x18d;" horiz-adv-x="991" d="M464 487q84 24 157.5 64.5t128 98t86 134.5t31.5 175q0 82 -23.5 157t-70.5 132.5t-117.5 91.5t-164.5 34q-82 0 -150 -27t-117 -77.5t-76 -123.5t-27 -165q0 -98 30 -173t78.5 -133.5t110 -103.5t124.5 -84zM200 42q1 11 6.5 14t16.5 3q5 0 29.5 -4.5t60.5 -10t79.5 -10 t86.5 -4.5q68 0 114.5 11.5t75 31t41 45.5t12.5 55q0 47 -28 86t-74 74t-104.5 69.5t-120 73.5t-120 85.5t-104.5 106.5t-74 135t-28 172q0 103 32 184.5t88.5 138.5t133.5 87.5t168 30.5q106 0 186.5 -37t134.5 -100t81.5 -146t27.5 -175q0 -185 -110 -309.5t-312 -182.5 q54 -32 103 -63t86.5 -65.5t60 -73.5t22.5 -88q0 -36 -14 -70t-48 -60t-89.5 -42t-139.5 -16q-27 0 -62 2t-72.5 5.5t-76 9t-72.5 12.5z" />
<glyph unicode="&#x18e;" horiz-adv-x="1162" d="M939 0h-830l-1 47h776v643h-653v46h653v623h-775v47h830v-1406z" />
<glyph unicode="&#x18f;" horiz-adv-x="1407" d="M172 581q0 -128 38 -229.5t103.5 -172t154.5 -107.5t191 -37q121 0 218.5 39t168 110.5t113.5 172.5t55 224h-1042zM156 1236q40 40 90 74.5t111.5 60t134.5 39.5t159 14q143 0 258.5 -50t196.5 -145.5t125 -233.5t44 -314q0 -152 -41.5 -279.5t-121 -219t-194 -142.5 t-260.5 -51q-113 0 -211.5 40t-171 117t-114.5 189.5t-42 258.5q0 30 25 30h1073q1 14 1.5 28.5t0.5 28.5q0 167 -41.5 296.5t-116.5 218t-180.5 134.5t-233.5 46q-80 0 -142.5 -12t-110.5 -30.5t-83 -40t-59.5 -40t-40 -30.5t-24.5 -12q-10 0 -16 8z" />
<glyph unicode="&#x190;" horiz-adv-x="1183" d="M1085 171q-25 -36 -68 -69.5t-100.5 -59.5t-128 -42t-149.5 -16q-114 0 -207.5 29.5t-160 83.5t-103 129t-36.5 166q0 63 23 124.5t69.5 113.5t116.5 90t164 55q-90 13 -153.5 42t-103 68.5t-58 87t-18.5 97.5q0 74 32 138t93 111t148.5 74t197.5 27q144 0 246.5 -40 t172.5 -105l-12 -18q-7 -10 -17 -10t-34.5 20t-70 43.5t-115.5 43.5t-171 20q-102 0 -179 -24.5t-129 -66.5t-78.5 -97.5t-26.5 -117.5q0 -69 34 -120.5t92 -85t136 -50.5t165 -17h225v-43h-228q-113 0 -199.5 -29t-145.5 -78t-89.5 -114t-30.5 -136q0 -80 33 -146.5 t93 -115t145 -75.5t189 -27q66 0 120.5 11.5t97.5 29t75.5 38t54 38t32.5 30t13 13.5q4 3 6.5 5t6.5 2q6 0 11 -5z" />
<glyph unicode="&#x191;" horiz-adv-x="1128" d="M278 1359v-644h675v-47h-675v-729q0 -72 -15.5 -130t-45.5 -98.5t-74 -62.5t-101 -22q-38 0 -73.5 7t-73.5 21l7 25q2 11 10 11.5t18 -1.5q27 -9 54.5 -13.5t52.5 -4.5q94 0 140 71.5t46 196.5v1467h830v-47h-775z" />
<glyph unicode="&#x192;" horiz-adv-x="630" d="M206 1089q0 84 20.5 146.5t58 104t89.5 61.5t114 20q30 0 61 -5t54 -16l-3 -23q-1 -8 -7 -8.5t-19 2t-32.5 6t-47.5 3.5q-51 0 -94 -15.5t-74.5 -50.5t-49.5 -90.5t-18 -135.5v-140h338v-40h-337v-1000q0 -145 -66 -224.5t-194 -79.5q-37 0 -69.5 7t-67.5 21l5 20 q2 9 6.5 11t9.5 2q8 0 36 -10t76 -10q101 0 156 64.5t55 194.5v1003l-154 6q-19 2 -19 15v20h173v141z" />
<glyph unicode="&#x193;" horiz-adv-x="1480" d="M1301 1258l-14 -21q-8 -12 -23 -8q-10 3 -36.5 26t-77.5 49.5t-130.5 48.5t-193.5 22q-147 0 -265.5 -46t-202 -133t-128.5 -211.5t-45 -281.5q0 -158 45 -283t127 -212t196.5 -133t253.5 -46q81 0 146.5 9t122.5 26t107.5 41t101.5 55v414h-297q-7 0 -12 5t-5 11v28h365 v-480q-52 -36 -108 -64.5t-120.5 -48.5t-139 -30.5t-163.5 -10.5q-152 0 -276.5 50.5t-213.5 144t-137.5 226.5t-48.5 298t48.5 297.5t139.5 226.5t220 144.5t290 50.5q70 0 130 -8t112.5 -24t98.5 -40.5t89 -56.5q-2 23 -2 44v45q0 69 14 125.5t42.5 96t71.5 61.5t100 22 q38 0 72.5 -7t72.5 -21l-6 -25q-3 -11 -11 -11.5t-18 1.5q-26 9 -54 13.5t-53 4.5q-94 0 -139.5 -71.5t-45.5 -196.5v-116z" />
<glyph unicode="&#x194;" horiz-adv-x="1258" d="M939 44q-5 4 -9.5 8.5t-8.5 9.5l-294 427q-2 -6 -4.5 -12t-7.5 -12l-280 -407q-6 -7 -16 -14h620zM664 518l362 -518h-792l362 520l-604 887h52q11 0 16.5 -5.5t9.5 -11.5l562 -835l4 7l555 828q5 6 10 11.5t13 5.5h53z" />
<glyph unicode="&#x195;" horiz-adv-x="1718" d="M1554 986v-631q0 -87 -21 -156t-63.5 -116.5t-106.5 -73t-149 -25.5t-149 25.5t-106.5 73t-63.5 116.5t-21 156v276q0 77 -17 138t-52.5 103.5t-88.5 65t-125 22.5q-108 0 -199.5 -56.5t-162.5 -156.5v-747h-53v1446h53v-648q69 93 164 148.5t207 55.5q82 0 143.5 -25.5 t102 -73t61 -116.5t20.5 -156v-276q0 -156 71.5 -243t215.5 -87t215.5 87t71.5 243v631h53z" />
<glyph unicode="&#x196;" horiz-adv-x="567" d="M214 1406h56v-1153q0 -222 205 -222h64v-20q0 -12 -16 -18t-63 -6q-118 0 -182 69.5t-64 194.5v1155z" />
<glyph unicode="&#x197;" horiz-adv-x="532" d="M527 716h-233v-716h-56v716h-233v36h233v654h56v-654h233v-36z" />
<glyph unicode="&#x198;" horiz-adv-x="1281" d="M278 739h90q19 0 33.5 1t27 5.5t24 13t23.5 24.5l381 508q47 64 107.5 96.5t143.5 32.5q41 0 74.5 -7.5t61.5 -19.5l-5 -25q-2 -11 -11 -12t-23 4q-20 7 -44 11.5t-52 4.5q-122 0 -206 -106l-375 -498q-15 -20 -30 -31.5t-35 -17.5q24 -5 42.5 -16.5t38.5 -32.5l670 -674 h-40q-19 0 -28 4.5t-17 14.5l-629 626q-12 12 -22.5 21.5t-22.5 16t-28.5 9.5t-40.5 3h-108v-695h-55v1408h55v-669z" />
<glyph unicode="&#x199;" horiz-adv-x="919" d="M229 549h46q11 0 23 3t27 17l439 397q9 10 18.5 15t24.5 5h44l-473 -427q-8 -8 -15.5 -13.5t-15.5 -10.5q14 -5 25 -13.5t21 -18.5l496 -503h-45q-10 0 -18.5 3t-16.5 13l-463 467q-17 17 -31 23t-44 6h-42v-512h-53v1116q0 145 66 224.5t194 79.5q37 0 69.5 -7t67.5 -21 l-5 -20q-2 -9 -6.5 -11t-9.5 -2q-8 0 -36 10t-76 10q-101 0 -156 -64.5t-55 -194.5v-571z" />
<glyph unicode="&#x19a;" horiz-adv-x="498" d="M455 687h-176v-687h-52v687h-183v40h183v719h52v-719h176v-40z" />
<glyph unicode="&#x19b;" horiz-adv-x="1059" d="M1009 33v-21q0 -10 -12 -15t-56 -5q-27 0 -53.5 6t-51 23t-47 47t-40.5 79l-270 691q-11 26 -15 49q-3 -11 -6.5 -22.5t-8.5 -22.5l-335 -824q-2 -6 -9 -12t-18 -6h-40l393 936l-63 161l-190 -77l-15 36l191 76l-52 132q-12 30 -26 51.5t-34.5 35.5t-48.5 21t-67 7h-61 v21q0 4 2 7.5t9.5 6.5t21 4.5t37.5 1.5q83 0 133 -31t77 -101l54 -138l194 78l14 -35l-194 -78l372 -949q29 -74 65 -103.5t91 -29.5h59z" />
<glyph unicode="&#x19c;" horiz-adv-x="2110" d="M1887 1406v-1406h-23q-14 0 -19 6.5t-6 22.5l-6 273q-32 -70 -76.5 -128t-98.5 -100t-115.5 -65t-126.5 -23q-152 0 -248.5 94t-127.5 265q-20 -92 -62 -159.5t-98 -112t-123 -66t-137 -21.5q-96 0 -172.5 34t-130.5 100t-82.5 163t-28.5 223v900h56v-900 q0 -114 25.5 -202.5t72.5 -149t115 -92.5t152 -32q76 0 147 30.5t125.5 90.5t87 149t32.5 206v900h55v-900q0 -110 24.5 -198t70.5 -150t110.5 -95t145.5 -33q66 0 126.5 25.5t112.5 71.5t94.5 110t72.5 141v1028h56z" />
<glyph unicode="&#x19d;" horiz-adv-x="1502" d="M1279 1406v-1406h-23q-13 0 -22 12l-965 1304q1 -9 1.5 -18.5t0.5 -17.5v-1363q0 -72 -14.5 -130t-43.5 -98.5t-72 -62.5t-100 -22q-38 0 -73 7t-73 21l7 25q2 11 10 11.5t18 -1.5q27 -9 54.5 -13.5t52.5 -4.5q94 0 140 71.5t46 196.5v1489h25q8 0 13 -2.5t11 -10.5 l961 -1299q-1 9 -1.5 18t-0.5 17v1277h48z" />
<glyph unicode="&#x19e;" horiz-adv-x="1156" d="M990 -357h-52v988q0 77 -17 138t-52.5 103.5t-89 65t-125.5 22.5q-108 0 -200 -56.5t-162 -156.5v-747h-53v767q0 98 -40 142t-125 44h-31v22q0 8 9.5 13.5t31.5 5.5q89 0 143 -47.5t59 -153.5q70 96 166.5 152.5t211.5 56.5q82 0 143 -25.5t101.5 -73t61 -116.5 t20.5 -156v-988z" />
<glyph unicode="&#x19f;" horiz-adv-x="1574" d="M185 699q1 -156 45.5 -280t124 -209.5t189.5 -131t242 -45.5q133 0 243.5 45.5t189.5 131t123 209.5t45 280h-1202zM1386 744q-6 148 -52 265t-124.5 198.5t-186.5 124.5t-237 43q-128 0 -235 -43t-186.5 -124.5t-126 -198.5t-52.5 -265h1200zM786 1422q147 0 268 -50.5 t208 -144t135 -226.5t48 -298t-48 -297.5t-135 -226t-208 -143.5t-268 -50q-145 0 -266 50t-208 143.5t-135 226t-48 297.5q0 164 48 297t135 226.5t208 144.5t266 51z" />
<glyph unicode="&#x1a0;" horiz-adv-x="1651" d="M786 33q134 0 244.5 46t190 132t123 210.5t43.5 281.5t-43.5 281.5t-123 211.5t-190 133t-244.5 46q-132 0 -242.5 -46t-190 -133t-124 -211.5t-44.5 -281.5t44.5 -281.5t124 -210.5t190 -132t242.5 -46zM1570 1538q8 -23 12 -48.5t4 -51.5q0 -65 -22.5 -112.5t-61 -80 t-89 -50t-106.5 -21.5q66 -91 102 -209.5t36 -261.5q0 -165 -48 -297.5t-135 -226t-208 -143.5t-268 -50q-145 0 -266 50t-208 143.5t-135 226t-48 297.5q0 164 48 297t135 226.5t208 144.5t266 51q156 0 282.5 -56t214.5 -162q52 2 97 15t77 34.5t50.5 51t18.5 65.5 q0 26 -8.5 40t-18.5 24.5t-18.5 21.5t-8.5 31q0 25 14.5 38t40.5 13h43z" />
<glyph unicode="&#x1a1;" horiz-adv-x="1173" d="M553 30q96 0 168 33t120.5 94t72.5 146t24 190t-24 191t-72.5 147.5t-120.5 95t-168 33.5t-168 -33.5t-120.5 -95t-72.5 -147.5t-24 -191t24 -190t72.5 -146t120.5 -94t168 -33zM1150 1134q8 -21 11 -43.5t3 -44.5q0 -59 -20 -101.5t-54 -71.5t-79 -45t-95 -20 q37 -63 56 -142t19 -173q0 -115 -29 -208.5t-85 -159.5t-137.5 -101.5t-186.5 -35.5t-186.5 35.5t-137.5 101.5t-85 159.5t-29 208.5t29 209t85 160.5t137.5 103t186.5 36.5q116 0 202.5 -43.5t142.5 -123.5q46 2 85 14t67 32.5t44 49t16 64.5q0 19 -7.5 29.5t-17 18.5 t-17 18t-7.5 27q0 23 13.5 34.5t36.5 11.5h39z" />
<glyph unicode="&#x1a2;" horiz-adv-x="1890" d="M731 34q116 0 215.5 45.5t172 132t114 210.5t41.5 281t-41.5 282t-114 212t-172 133t-215.5 46t-215.5 -46t-172.5 -133t-114.5 -212t-41.5 -282t41.5 -281t114.5 -210.5t172.5 -132t215.5 -45.5zM1620 1130q0 51 -11 95.5t-34.5 77.5t-60.5 52t-88 19q-36 0 -71 -11.5 t-68.5 -32t-64.5 -47.5t-58 -58q79 -94 122.5 -225.5t43.5 -296.5t-44 -297.5t-123.5 -225t-189.5 -142.5t-242 -50t-242.5 50t-190 142.5t-123.5 225t-44 297.5q0 164 44 297t123.5 226.5t190 144.5t242.5 51q122 0 225 -43t181 -124q31 34 65 64t71.5 52t77.5 35t82 13 q62 0 108 -21t76 -59.5t44.5 -91.5t14.5 -117v-1489h-56v1489z" />
<glyph unicode="&#x1a3;" horiz-adv-x="1487" d="M829 846q-18 20 -42.5 40t-57.5 36.5t-76.5 27t-99.5 10.5q-96 0 -168 -33.5t-120.5 -95t-72.5 -147.5t-24 -191t24 -190t72.5 -146t120.5 -94t168 -33q64 0 109.5 14t76 36t48.5 49t27.5 54t12 50.5t2.5 37.5v575zM882 273q0 -22 -5 -51.5t-18 -61t-36.5 -62.5 t-60 -55.5t-88 -39.5t-121.5 -15q-105 0 -186.5 35.5t-137.5 101.5t-85 159.5t-29 208.5t29 209t85 160.5t137.5 103t186.5 36.5q55 0 101.5 -10t85 -27t68 -38.5t51.5 -43.5q56 58 110 88t123 30q58 0 100.5 -21t71 -59.5t42.5 -92t14 -117.5v-1068h-53v1068q0 52 -10.5 97 t-32.5 78.5t-57 52.5t-83 19q-57 0 -104 -26.5t-98 -77.5v-581z" />
<glyph unicode="&#x1a4;" horiz-adv-x="1384" d="M809 633q99 0 178.5 28t135.5 77t86 116t30 144q0 178 -107.5 271t-322.5 93h-281v-729h281zM809 1406q238 0 361.5 -102t123.5 -306q0 -89 -34.5 -164.5t-98.5 -130t-153.5 -85t-198.5 -30.5h-281v-588h-55v1363h-51q-153 0 -229 -62.5t-76 -171.5q0 -26 5 -54t13 -54 q3 -10 2 -18t-12 -11l-28 -6q-14 38 -20.5 72.5t-6.5 70.5q0 64 23 115t67.5 87t110 55.5t151.5 19.5h387z" />
<glyph unicode="&#x1a5;" horiz-adv-x="1093" d="M229 205q61 -97 136 -136.5t173 -39.5q97 0 169 35.5t120 98.5t72 149t24 187q0 235 -89 348t-258 113q-104 0 -192.5 -57t-154.5 -158v-540zM229 796q66 96 157 151t201 55q187 0 288.5 -124t101.5 -379q0 -108 -27.5 -201t-82 -162t-135 -108.5t-186.5 -39.5 q-208 0 -317 166v-511h-53v1473q0 145 66 224.5t194 79.5q37 0 69.5 -7t67.5 -21l-5 -20q-2 -9 -6.5 -11t-9.5 -2q-8 0 -36 10t-76 10q-101 0 -156 -64.5t-55 -194.5v-324z" />
<glyph unicode="&#x1a6;" horiz-adv-x="1132" d="M278 467h268q99 0 178.5 23.5t135 68t85 107.5t29.5 142q0 163 -106 240t-306 77h-284v-658zM1156 -237h-45q-11 0 -19.5 3.5t-16.5 14.5l-496 606q-8 11 -16.5 18t-19 11.5t-25 6.5t-35.5 2h-205v-425h-55v1420h55v-251h284q229 0 348 -88.5t119 -269.5q0 -83 -31 -151 t-87.5 -117.5t-136.5 -78.5t-177 -35q19 -10 36 -31z" />
<glyph unicode="&#x1a7;" horiz-adv-x="1053" d="M166 1282q70 72 152 106t188 34q93 0 166 -29t122.5 -77t75.5 -111t26 -132q0 -88 -31.5 -147.5t-83 -101t-117 -69.5t-134 -52.5t-134 -50.5t-117 -63.5t-83 -91t-31.5 -133.5q0 -75 26 -136.5t75.5 -105.5t121 -68t162.5 -24q64 0 114 12.5t88.5 31t67 40t48 40t32 31 t20.5 12.5q10 0 18 -10l14 -20q-37 -43 -78 -77t-89.5 -57.5t-106 -36t-127.5 -12.5q-104 0 -186 28t-138 78.5t-85.5 121t-29.5 156.5t31.5 145t82.5 100.5t117 70t134 54t134 52t117 64t82.5 90t31.5 130.5q0 60 -22 114.5t-64.5 96.5t-105.5 66.5t-145 24.5 q-81 0 -135.5 -19.5t-90 -43.5t-55 -43.5t-30.5 -19.5q-10 0 -16 10z" />
<glyph unicode="&#x1a8;" horiz-adv-x="844" d="M737 103q-60 -54 -133 -86.5t-174 -32.5q-81 0 -142.5 20.5t-103 56.5t-63 84.5t-21.5 103.5q0 62 25 106t65.5 76t92.5 55t106 43t106 40t92.5 45.5t65.5 59.5t25 83q0 42 -19.5 79.5t-55 65t-86 43.5t-112.5 16q-60 0 -102 -13.5t-70 -29t-45 -29t-26 -13.5q-8 0 -14 9 l-10 17q58 52 124.5 76t147.5 24q73 0 131.5 -18.5t100 -51.5t63.5 -78t22 -97q0 -57 -25 -96.5t-65.5 -68.5t-92.5 -50.5t-106.5 -41t-106.5 -40.5t-92.5 -49.5t-65.5 -67.5t-25 -94q0 -45 18.5 -86t54.5 -72t89 -49t122 -18q70 0 118.5 16.5t80.5 36.5t50 36.5t28 16.5 q9 0 16 -10l12 -17v0z" />
<glyph unicode="&#x1a9;" horiz-adv-x="1201" d="M231 1360q-26 0 -49.5 2t-48.5 7q24 -20 41.5 -37.5t38.5 -44.5l425 -552q8 -9 11 -16t4 -13q0 -15 -15 -31l-434 -559q-22 -28 -38.5 -45.5t-32.5 -30.5q48 6 94 6h879v-46h-1028v20q0 7 3.5 14t8.5 12l516 655l-519 663q-9 11 -9 20v22h1028v-46h-875z" />
<glyph unicode="&#x1aa;" horiz-adv-x="631" d="M174 983q103 0 164.5 59t61.5 176q0 115 -59.5 175t-162.5 60q-51 0 -93.5 -15.5t-73 -45.5t-47 -74.5t-16.5 -102.5q0 -114 62 -173t164 -59zM799 -346q-66 -28 -137 -28q-128 0 -194 79.5t-66 224.5v1139q-32 -62 -92 -93.5t-140 -31.5q-61 0 -111 18.5t-86 53 t-55.5 85t-19.5 113.5q0 66 21 118t58.5 87.5t89 54.5t112.5 19t112 -19t87.5 -55t56.5 -88t20 -119v-1286q0 -130 55 -194.5t156 -64.5q48 0 76.5 10t36.5 10q4 0 8.5 -2t6.5 -11z" />
<glyph unicode="&#x1ab;" horiz-adv-x="682" d="M587 47q-32 -29 -73.5 -46t-88.5 -17q-90 0 -141.5 50.5t-51.5 162.5v711h-154q-19 0 -19 15v18l173 7l16 380q0 6 4 11.5t11 5.5h22v-397h326v-40h-326v-709q0 -46 12 -79t32 -54t47.5 -30.5t59.5 -9.5q40 0 69 12t49.5 26.5t33 26.5t20.5 12h24v-207 q0 -59 -10.5 -108.5t-34.5 -85.5t-62.5 -56t-95.5 -20q-62 0 -130 28l4 19q2 9 7 11t9 2t13.5 -3.5t23.5 -7.5t32 -7.5t39 -3.5q45 0 75.5 16.5t49.5 46.5t27 72.5t8 93.5v154z" />
<glyph unicode="&#x1ac;" horiz-adv-x="1280" d="M1251 1358h-515v-1358h-55v1358h-261q-154 0 -229.5 -61t-75.5 -168q0 -26 5 -54t13 -54q3 -10 2 -18t-12 -11l-28 -6q-14 38 -21 72.5t-7 70.5q0 64 23 115t68 87t110.5 55.5t151.5 19.5h831v-48z" />
<glyph unicode="&#x1ad;" horiz-adv-x="668" d="M428 -16q-92 0 -144 50.5t-52 162.5v711h-154q-19 0 -19 15v18l173 7l9 241q4 115 56 173.5t150 58.5q35 0 62 -6.5t60 -20.5l-4 -20q-2 -9 -6.5 -11t-9.5 -2q-4 0 -11.5 3.5t-20 7t-29.5 7t-39 3.5q-164 0 -164 -215v-219h326v-40h-326v-709q0 -46 12 -78.5t32 -53.5 t47.5 -30.5t59.5 -9.5q39 0 68.5 12t50.5 26t34 26t19 12q5 0 11 -6l13 -19q-17 -21 -39.5 -38t-49.5 -29.5t-56 -19.5t-59 -7z" />
<glyph unicode="&#x1ae;" horiz-adv-x="1146" d="M602 -96q0 -124 46.5 -191.5t148.5 -67.5q46 0 74.5 10t36.5 10q4 0 9 -2t7 -11l5 -20q-35 -14 -66.5 -21t-69.5 -7q-128 0 -187 80t-59 224v1450h-518v48h1088v-48h-515v-1454z" />
<glyph unicode="&#x1af;" horiz-adv-x="1572" d="M1546 1538q8 -23 12 -48.5t4 -51.5q0 -71 -27 -121t-71.5 -82t-102.5 -47.5t-120 -15.5v-644q0 -114 -36 -213.5t-103.5 -173.5t-163 -116.5t-215.5 -42.5t-216 42.5t-163 116.5t-103 173.5t-36 213.5v878h55v-876q0 -104 31.5 -195t91 -158.5t145.5 -106t195 -38.5 t194.5 38.5t145 105.5t91 157.5t31.5 194.5v878h56v-202q56 0 103.5 12t82.5 34t55 52.5t20 67.5q0 26 -8.5 40t-18.5 24.5t-18.5 21.5t-8.5 31q0 25 14.5 38t40.5 13h43z" />
<glyph unicode="&#x1b0;" horiz-adv-x="1184" d="M1168 1134q8 -21 11 -43.5t3 -44.5q0 -61 -21.5 -105t-58 -73.5t-85 -44t-101.5 -17.5v-806h-24q-18 0 -21 20l-5 172q-70 -95 -165 -151.5t-209 -56.5q-82 0 -143.5 25.5t-102 73t-61 116.5t-20.5 156v631h53v-631q0 -77 17 -138t52.5 -103.5t89 -65t125.5 -22.5 q107 0 198.5 56.5t163.5 156.5v747h52v-151q46 2 85 14t67 32.5t44 49t16 64.5q0 19 -7.5 29.5t-17 18.5t-17 18t-7.5 27q0 23 13.5 34.5t36.5 11.5h39z" />
<glyph unicode="&#x1b1;" horiz-adv-x="1588" d="M794 -16q-130 0 -249 44.5t-209.5 131t-144 212.5t-53.5 289q0 136 37.5 253t102 208t150.5 152.5t183 87.5q-42 -6 -81 -6h-389v29q0 9 6 15t16 6h502v-67q-104 -23 -190.5 -84t-149 -150.5t-97.5 -203t-35 -240.5q0 -103 23 -190t64 -157t97 -123t123 -88.5 t141.5 -53.5t152.5 -18q117 0 225.5 40.5t192 120t133.5 197t50 272.5q0 127 -35 240.5t-97.5 203t-149 150.5t-190.5 84v67h502q11 0 16.5 -6t5.5 -15v-29h-389q-19 0 -40 1.5t-41 4.5q96 -26 182 -87.5t150.5 -152.5t102.5 -208t38 -253q0 -109 -24.5 -201.5t-68.5 -167.5 t-104.5 -132.5t-133.5 -96.5t-155.5 -59t-169.5 -20z" />
<glyph unicode="&#x1b2;" horiz-adv-x="1426" d="M912 1393q38 14 72.5 21t71.5 7q68 0 114 -24.5t73.5 -71t39.5 -114t12 -154.5q0 -168 -34.5 -313t-93.5 -264.5t-138 -212t-167.5 -156t-182.5 -96.5t-182 -33q-73 0 -127 24t-89.5 75t-53 132t-17.5 195v998h55v-998q0 -106 14 -178t43.5 -116.5t74.5 -63.5t107 -19 q84 0 171.5 32.5t169.5 94t154 151t125.5 203.5t84.5 252t31 296q0 72 -8 130t-29 99.5t-57 64t-92 22.5q-25 0 -52.5 -4.5t-54.5 -13.5q-10 -2 -18 -1.5t-11 11.5l-6 25v0z" />
<glyph unicode="&#x1b3;" horiz-adv-x="1385" d="M969 1264q45 74 99 115t128 41q36 0 65.5 -7t67.5 -21l-6 -24q-2 -11 -10.5 -11.5t-18.5 1.5q-26 8 -49.5 13.5t-48.5 5.5q-58 0 -101.5 -35.5t-80.5 -95.5l-406 -655v-591h-56v590l-523 816h48q15 0 24 -15l445 -698q10 -17 18.5 -33t15.5 -32q7 17 15.5 32.5t18.5 32.5 z" />
<glyph unicode="&#x1b4;" horiz-adv-x="1203" d="M839 869q28 66 71.5 99.5t122.5 33.5q35 0 61.5 -6.5t60.5 -20.5l-4 -21q-2 -9 -7 -11t-9 -2t-11.5 3.5t-20 7t-29.5 7t-39 3.5t-42.5 -4t-39 -15t-34.5 -29.5t-28 -47.5l-524 -1197q-4 -10 -11 -18t-20 -8h-36l171 381l-423 962h40q11 0 18 -6t9 -12l368 -844 q9 -24 15 -48l8 24t9 24z" />
<glyph unicode="&#x1b5;" horiz-adv-x="1203" d="M1112 1390q0 -13 -10 -29l-442 -615h422v-45h-454l-470 -654h950v-47h-1025v17q0 8 2 13.5t6 11.5l473 659h-430v45h463l440 613h-934v47h1009v-16z" />
<glyph unicode="&#x1b6;" horiz-adv-x="893" d="M811 986v-22q0 -10 -9 -22l-299 -407h291v-39h-320l-334 -454h643v-42h-708v19q0 6 2 11t7 12l334 454h-307v39h335l301 409h-639v42h703z" />
<glyph unicode="&#x1b7;" horiz-adv-x="1156" d="M517 843q142 0 242 -30.5t162.5 -83.5t91 -124.5t28.5 -152.5q0 -98 -37 -183t-104.5 -148.5t-162.5 -100t-211 -36.5q-78 0 -147.5 16.5t-126.5 42.5t-99 59.5t-66 68.5l21 22q3 4 6 4.5t5 0.5q7 0 15 -6q16 -23 50.5 -51t84.5 -52.5t114.5 -41t141.5 -16.5 q105 0 190 33t144.5 89.5t92 132.5t32.5 162q0 73 -25 137t-81.5 112t-148 75.5t-224.5 27.5h-102v20q0 17 10 26l509 513h-815v47h897v-16q0 -7 -2 -14.5t-10 -15.5l-518 -517h43z" />
<glyph unicode="&#x1b8;" horiz-adv-x="1158" d="M1071 171q-24 -35 -66 -68.5t-99 -59.5t-126.5 -42.5t-148.5 -16.5q-116 0 -211 36.5t-162.5 100t-104 148.5t-36.5 183q0 81 28.5 152.5t91 124.5t162 83.5t242.5 30.5h42l-517 517q-8 8 -10 15.5t-2 14.5v16h897v-47h-815l509 -513q10 -9 10 -26v-20h-102 q-133 0 -224.5 -27.5t-148.5 -75.5t-82 -112t-25 -137q0 -86 32.5 -162t92.5 -132.5t145 -89.5t190 -33q76 0 140.5 16.5t114.5 41t84.5 52.5t51.5 51q7 6 14 6q2 0 5 -0.5t6 -4.5z" />
<glyph unicode="&#x1b9;" horiz-adv-x="852" d="M156 986h648v-42h-582l421 -529q10 -8 10 -21v-17h-163q-90 0 -157 -24t-111 -67.5t-65.5 -104.5t-21.5 -136q0 -87 27.5 -156.5t78 -118.5t120.5 -75t155 -26q72 0 122 16.5t82.5 36t51.5 36t30 16.5q8 0 16 -9l13 -18q-30 -27 -63 -49t-71 -37.5t-82.5 -24t-97.5 -8.5 q-101 0 -181.5 30.5t-136.5 85.5t-86 132.5t-30 170.5q0 81 24 149t74.5 117t127.5 76t182 27h98l-422 524q-11 12 -11 24v22z" />
<glyph unicode="&#x1ba;" horiz-adv-x="832" d="M693 964q0 -11 -11 -24l-390 -381h65q96 0 166.5 -19.5t117 -55t69 -85t22.5 -109.5t-23.5 -112.5t-73 -93t-126.5 -67t-183 -35.5q-75 -6 -124.5 -20.5t-79 -35t-41.5 -47t-12 -56.5q0 -32 12.5 -60t38.5 -49t66 -33t96 -12q31 0 52.5 3.5t36.5 7t23.5 7t12.5 3.5 t8.5 -2t7.5 -11l5 -22q-35 -14 -70 -21t-80 -7q-68 0 -116.5 15.5t-79.5 42.5t-45.5 62.5t-14.5 76.5q0 39 14.5 72.5t49 59.5t91.5 43.5t143 24.5q97 8 165 30.5t111.5 57t63.5 79.5t20 97t-20 95t-60 73.5t-101 47t-143 16.5h-130v17q0 8 2.5 12.5t6.5 8.5l393 386h-583 v42h648v-22z" />
<glyph unicode="&#x1bb;" horiz-adv-x="1123" d="M753 656q-29 -33 -61 -65.5t-65 -66.5l-475 -485q26 5 56.5 7.5t64.5 2.5h679q20 0 20 -19v-30h-891v19q0 8 4 14.5t9 11.5l495 502q27 28 53 55t50 54h-567v44h605q68 81 110 165t42 184q0 86 -29 148t-76.5 102.5t-109 59.5t-127.5 19q-74 0 -136 -22.5t-109.5 -63 t-78 -97t-42.5 -124.5q-6 -26 -29 -23l-26 3q12 87 47.5 155.5t90.5 116.5t127.5 73.5t157.5 25.5q75 0 146 -22t126 -67.5t88.5 -116t33.5 -166.5q0 -51 -10.5 -97.5t-29.5 -89.5t-46 -83.5t-59 -79.5h241v-44h-279z" />
<glyph unicode="&#x1bc;" horiz-adv-x="1127" d="M972 1384q0 -11 -8 -18.5t-23 -7.5h-533l-142 -521q70 18 132.5 26t119.5 8q121 0 213.5 -31t155 -86.5t94 -132t31.5 -168.5q0 -93 -32.5 -178t-94.5 -150.5t-152 -104.5t-205 -39q-80 0 -149.5 16.5t-126 43t-98.5 60t-66 67.5l19 21q5 6 12 6q4 0 6.5 -2t6.5 -5 q3 -2 28 -27.5t73.5 -55t121 -53.5t170.5 -24q107 0 188 35.5t135 94.5t81.5 135.5t27.5 159.5q0 82 -27.5 150t-82.5 117.5t-138 77t-195 27.5q-60 0 -129 -9t-145 -29l-35 12l153 563q-27 -2 -54.5 -2h-54.5h-94q-20 0 -20 17v29h837v-22z" />
<glyph unicode="&#x1bd;" horiz-adv-x="860" d="M223 589q49 11 93.5 16t85.5 5q87 0 153.5 -21.5t111 -60t67.5 -92t23 -117.5q0 -67 -24 -127t-69.5 -105.5t-112 -72.5t-150.5 -27q-55 0 -104.5 11.5t-90.5 30t-72.5 43t-49.5 50.5l17 17q4 5 10 5q4 0 6 -1.5t5 -3.5q3 -3 21.5 -21t53 -38.5t84.5 -37.5t117 -17 q78 0 136 24t96.5 64.5t58 93t19.5 108.5t-19.5 103t-58.5 80.5t-97 52.5t-135 19q-92 0 -198 -27l-34 11l111 391q-19 -2 -37 -2h-37h-66q-10 0 -14.5 5t-4.5 11v27h611v-20q0 -11 -8 -17.5t-22 -6.5h-375z" />
<glyph unicode="&#x1be;" horiz-adv-x="862" d="M377 868q0 -62 16.5 -105.5t43.5 -75t61 -54t70 -43.5t70 -43.5t61 -53t43.5 -72.5t16.5 -102q0 -74 -25.5 -135.5t-72 -106t-111.5 -69t-143 -24.5q-56 0 -107.5 12t-94.5 31t-76 43t-52 47l13 15q6 6 13 6q6 0 28.5 -17.5t60 -38.5t90.5 -38.5t119 -17.5 q65 0 120.5 19.5t96.5 56t64.5 89.5t23.5 120q0 58 -16.5 97.5t-43.5 68.5t-61 50.5t-70 42t-70 44.5t-61 58t-43.5 81t-16.5 114l1 41h-155q-8 0 -13 4t-5 11v18l174 8l14 379q1 6 5 11.5t11 5.5h21v-397h326v-40h-326v-40z" />
<glyph unicode="&#x1bf;" horiz-adv-x="1078" d="M229 -9q85 30 169.5 69.5t162 87.5t143.5 105t115 122t76.5 137.5t27.5 151.5q0 68 -21 123t-60 93.5t-94.5 59t-124.5 20.5q-60 0 -116.5 -15t-107 -42.5t-94 -67.5t-76.5 -90v-754zM227 794q34 48 78.5 86.5t96 65.5t110 41.5t121.5 14.5q73 0 135.5 -21.5t109 -63.5 t73 -104.5t26.5 -144.5q0 -87 -30 -165.5t-83 -148.5t-125 -130.5t-155 -111.5t-173.5 -92t-181.5 -72v-305h-53v1343h25q19 0 20 -20z" />
<glyph unicode="&#x1c0;" horiz-adv-x="394" d="M176 1508h42v-1867h-42v1867z" />
<glyph unicode="&#x1c1;" horiz-adv-x="994" d="M176 1508h42v-1867h-42v1867zM776 1508h42v-1867h-42v1867z" />
<glyph unicode="&#x1c2;" horiz-adv-x="1041" d="M547 725v-309h374v-43h-374v-763h-53v763h-374v43h374v309h-374v42h374v679h53v-679h374v-42h-374z" />
</font>
</defs>
</svg>
